<?xml version="1.0" standalone="no"?> 
<!DOCTYPE svg PUBLIC "-//W3C//DTD SVG 1.1//EN" "http://www.w3.org/Graphics/SVG/1.1/DTD/svg11.dtd" >
<svg xmlns="http://www.w3.org/2000/svg">
<defs>
  <font id="st-icon" horiz-adv-x="1061.5">
    <font-face font-family="st-icon"
      units-per-em="1000" ascent="1000"
      descent="0" />
    <missing-glyph horiz-adv-x="0" />
    <glyph glyph-name="actions"
      unicode="&#xE001;"
      horiz-adv-x="1000" d=" M662.4999999999999 495.8333333333334C662.4999999999999 454.4119770960239 696.0786437626904 420.8333333333334 737.4999999999999 420.8333333333334C778.9213562373095 420.8333333333334 812.5 454.4119770960239 812.5 495.8333333333334C812.5 537.2546895706429 778.9213562373095 570.8333333333335 737.4999999999999 570.8333333333335C696.0786437626904 570.8333333333335 662.4999999999999 537.2546895706429 662.4999999999999 495.8333333333334z M425 500C425 458.5786437626905 458.5786437626905 425 500 425C541.4213562373095 425 575 458.5786437626905 575 500C575 541.4213562373095 541.4213562373095 575 500 575C458.5786437626905 575 425 541.4213562373095 425 500z M187.5 504.1666666666667C187.5 462.7453104293571 221.0786437626905 429.1666666666667 262.5 429.1666666666667C303.9213562373095 429.1666666666667 337.5 462.7453104293571 337.5 504.1666666666667C337.5 545.5880229039763 303.9213562373095 579.1666666666667 262.5 579.1666666666667C221.0786437626905 579.1666666666667 187.5 545.5880229039763 187.5 504.1666666666667z" />
    <glyph glyph-name="admin"
      unicode="&#xE002;"
      horiz-adv-x="1000" d=" M500 954.1666666666666L125 787.5V537.5C125 308.3333333333333 283.3333333333333 91.6666666666669 500 37.5C716.6666666666666 91.6666666666667 875 308.3333333333333 875 537.5V787.5L500 954.1666666666666zM500 495.8333333333334H791.6666666666666C770.8333333333333 325.0000000000001 654.1666666666666 170.8333333333335 500 125V495.8333333333334L208.3333333333333 495.8333333333334V733.3333333333333L500 862.5V495.8333333333334z" />
    <glyph glyph-name="advanced"
      unicode="&#xE003;"
      horiz-adv-x="1000" d=" M500 229.1666666666668L191.6666666666666 466.6666666666666L125 412.5L500 120.8333333333334L875 412.5L808.3333333333333 466.6666666666666L500 229.1666666666668zM500 333.3333333333334L808.3333333333333 570.8333333333333L875 625L500 916.6666666666666L125 625L191.6666666666666 570.8333333333333L500 333.3333333333334z" />
    <glyph glyph-name="alert"
      unicode="&#xE004;"
      horiz-adv-x="1000" d=" M41.6666666666667 125H958.3333333333331L500 916.6666666666666L41.6666666666667 125zM541.6666666666666 250H458.3333333333333V333.3333333333334H541.6666666666666V250zM541.6666666666666 416.6666666666668H458.3333333333333V583.3333333333334H541.6666666666666V416.6666666666668z" />
    <glyph glyph-name="apps-nav"
      unicode="&#xE005;"
      horiz-adv-x="1000" d=" M166.6666666666667 666.6666666666667H333.3333333333333V833.3333333333334H166.6666666666667V666.6666666666667zM416.6666666666667 166.6666666666668H583.3333333333333V333.3333333333334H416.6666666666667V166.6666666666668zM166.6666666666667 166.6666666666668H333.3333333333333V333.3333333333334H166.6666666666667V166.6666666666668zM166.6666666666667 416.6666666666668H333.3333333333333V583.3333333333334H166.6666666666667V416.6666666666668zM416.6666666666667 416.6666666666668H583.3333333333333V583.3333333333334H416.6666666666667V416.6666666666668zM666.6666666666666 833.3333333333334V666.6666666666667H833.3333333333333V833.3333333333334H666.6666666666666zM416.6666666666667 666.6666666666667H583.3333333333333V833.3333333333334H416.6666666666667V666.6666666666667zM666.6666666666666 416.6666666666668H833.3333333333333V583.3333333333334H666.6666666666666V416.6666666666668zM666.6666666666666 166.6666666666668H833.3333333333333V333.3333333333334H666.6666666666666V166.6666666666668z" />
    <glyph glyph-name="archive"
      unicode="&#xE006;"
      horiz-adv-x="1000" d=" M854.1666666666666 783.3333333333334L795.8333333333334 854.1666666666667C787.4999999999999 866.6666666666666 770.8333333333333 875 750 875H250C229.1666666666667 875 212.5 866.6666666666666 200 854.1666666666667L145.8333333333333 783.3333333333334C133.3333333333334 766.6666666666667 125 750 125 729.1666666666667V208.3333333333334C125 162.5 162.5 125 208.3333333333333 125H791.6666666666666C837.5 125 875 162.5 875 208.3333333333334V729.1666666666667C875 750 866.6666666666666 766.6666666666667 854.1666666666666 783.3333333333334zM500 270.8333333333334L270.8333333333333 500H416.6666666666667V583.3333333333334H583.3333333333333V500H729.1666666666666L500 270.8333333333334zM212.5 791.6666666666667L245.8333333333333 833.3333333333334H745.8333333333333L783.3333333333331 791.6666666666667H212.5z" />
    <glyph glyph-name="arrow-left"
      unicode="&#xE007;"
      horiz-adv-x="1000" d=" M854.1666666666666 500L854.1666666666666 683.3333333333334L475 683.3333333333334L475 854.1666666666667L145.8333333333333 500L475 145.8333333333334L475 316.6666666666668L854.1666666666666 316.6666666666668z" />
    <glyph glyph-name="arrow-right"
      unicode="&#xE008;"
      horiz-adv-x="1000" d=" M145.8333333333333 500L145.8333333333333 316.6666666666668L525 316.6666666666668L525 145.8333333333334L854.1666666666666 500L525 854.1666666666667L525 683.3333333333334L145.8333333333333 683.3333333333334z" />
    <glyph glyph-name="attachment"
      unicode="&#xE009;"
      horiz-adv-x="1000" d=" M687.5 750V270.8333333333334C687.5 179.1666666666668 612.4999999999999 104.1666666666667 520.8333333333333 104.1666666666667S354.1666666666667 179.1666666666668 354.1666666666667 270.8333333333334V791.6666666666667C354.1666666666667 850 400 895.8333333333334 458.3333333333333 895.8333333333334S562.5 850 562.5 791.6666666666667V354.1666666666668C562.5 333.3333333333334 545.8333333333333 312.5 520.8333333333333 312.5S479.1666666666666 333.3333333333334 479.1666666666666 354.1666666666668V750H416.6666666666667V354.1666666666668C416.6666666666667 295.8333333333335 462.4999999999999 250 520.8333333333333 250S625 295.8333333333335 625 354.1666666666668V791.6666666666667C625 883.3333333333334 549.9999999999999 958.3333333333334 458.3333333333333 958.3333333333334S291.6666666666667 883.3333333333334 291.6666666666667 791.6666666666667V270.8333333333334C291.6666666666667 145.8333333333334 395.8333333333333 41.6666666666667 520.8333333333333 41.6666666666667S750 145.8333333333334 750 270.8333333333334V750H687.5z" />
    <glyph glyph-name="auto-responder"
      unicode="&#xE00A;"
      horiz-adv-x="1000" d=" M416.6666666666667 625V791.6666666666667L125 500L416.6666666666667 208.3333333333334V379.1666666666668C625 379.1666666666668 770.8333333333333 312.5 875 166.6666666666668C833.3333333333333 375 708.3333333333333 583.3333333333334 416.6666666666667 625z" />
    <glyph glyph-name="bell"
      unicode="&#xE00B;"
      horiz-adv-x="1000" d=" M416.6666666666667 125C416.6666666666667 79.1666666666666 454.1666666666666 41.6666666666667 500 41.6666666666667S583.3333333333333 79.1666666666666 583.3333333333333 125H416.6666666666667zM787.4999999999999 300V541.6666666666667C787.4999999999999 679.1666666666667 691.6666666666665 791.6666666666667 566.6666666666665 820.8333333333334V850C566.6666666666666 887.5 537.5 916.6666666666666 500 916.6666666666666S433.3333333333333 887.5 433.3333333333333 850V820.8333333333334C308.3333333333333 791.6666666666667 212.5 675 212.5 541.6666666666667V300L125 212.5000000000001V166.6666666666668H875V212.5000000000001L787.4999999999999 300z" />
    <glyph glyph-name="bounce"
      unicode="&#xE00C;"
      horiz-adv-x="1000" d=" M125 650L500 275.0000000000001L791.6666666666666 566.6666666666667V375H875V708.3333333333334H541.6666666666666V625H733.3333333333334L500 391.6666666666668L183.3333333333334 708.3333333333334L125 650z" />
    <glyph glyph-name="brands"
      unicode="&#xE00D;"
      horiz-adv-x="1029.1" d=" M872.9 400.1V490C872.9 504.5 861.1 516.3 846.6 516.3H540.9V579.9000000000001C609.6 592.4000000000001 661.9 652.5 661.9 724.8000000000001C661.9 806 595.8 872.1000000000001 514.5999999999999 872.1000000000001S367.2 806 367.2 724.8C367.2 652.5 419.5 592.4 488.2 579.9V516.3H182.6C168.1 516.3 156.3 504.4999999999999 156.3 489.9999999999999V400.0999999999999C87.6 387.5999999999999 35.3 327.4999999999999 35.3 255.2C35.3 173.9999999999999 101.4 107.8999999999999 182.6 107.8999999999999S329.9 174 329.9 255.2000000000001C329.9 327.5 277.6 387.6 208.9 400.1V463.7H488.3V400.1C419.6 387.6 367.3 327.5 367.3 255.2000000000001C367.3 174 433.4 107.9000000000001 514.5999999999999 107.9000000000001S661.9 174 661.9 255.2000000000001C661.9 327.5 609.6 387.6 540.9 400.1V463.7H820.3V400.1C751.5999999999999 387.6 699.3 327.5 699.3 255.2000000000001C699.3 174 765.4 107.9000000000001 846.5999999999999 107.9000000000001S993.9 174 993.9 255.2000000000001C993.9 327.5 941.6 387.6 872.9 400.1zM419.9 724.8C419.9 777 462.4 819.5 514.6 819.5S609.3000000000001 777 609.3000000000001 724.8S566.8000000000001 630.1 514.6 630.1S419.9000000000001 672.5 419.9000000000001 724.8zM277.3 255.2000000000001C277.3 203 234.8 160.5 182.6 160.5S87.8 203 87.8 255.2000000000001S130.3 349.9000000000001 182.5 349.9000000000001S277.3 307.5000000000001 277.3 255.2000000000001zM609.3 255.2000000000001C609.3 203 566.8 160.5 514.5999999999999 160.5S419.8999999999999 203 419.8999999999999 255.2000000000001S462.3999999999999 349.9000000000001 514.5999999999999 349.9000000000001S609.3 307.5000000000001 609.3 255.2000000000001zM846.5999999999999 160.5C794.3999999999999 160.5 751.8999999999999 203 751.8999999999999 255.2000000000001S794.3999999999999 349.9000000000001 846.5999999999999 349.9000000000001S941.3 307.4000000000001 941.3 255.2000000000001S898.8 160.5 846.5999999999999 160.5z" />
    <glyph glyph-name="brush"
      unicode="&#xE00E;"
      horiz-adv-x="1000" d=" M291.6666666666667 416.6666666666668C220.8333333333333 416.6666666666668 166.6666666666667 362.5 166.6666666666667 291.6666666666668C166.6666666666667 237.5 116.6666666666667 208.3333333333334 83.3333333333333 208.3333333333334C120.8333333333333 158.3333333333334 187.5 125 250 125C341.6666666666667 125 416.6666666666667 200.0000000000001 416.6666666666667 291.6666666666668C416.6666666666667 362.5 362.5 416.6666666666668 291.6666666666667 416.6666666666668zM862.4999999999999 808.3333333333334L808.3333333333333 862.5C791.6666666666666 879.1666666666666 766.6666666666665 879.1666666666666 750 862.5L375 487.5L491.6666666666667 370.8333333333333L866.6666666666666 745.8333333333333C879.1666666666666 762.5 879.1666666666666 791.6666666666667 862.4999999999999 808.3333333333334z" />
    <glyph glyph-name="bug"
      unicode="&#xE00F;"
      horiz-adv-x="1000" d=" M833.3333333333333 666.6666666666667H716.6666666666666C695.8333333333333 700 670.8333333333333 725 641.6666666666665 750L708.3333333333333 816.6666666666666L650 875L558.3333333333333 783.3333333333334C541.6666666666666 787.5 520.8333333333333 791.6666666666667 500 791.6666666666667S458.3333333333333 787.5 441.6666666666667 783.3333333333334L350 875L291.6666666666667 816.6666666666666L358.3333333333333 750C329.1666666666667 725 304.1666666666667 700 283.3333333333333 666.6666666666667H166.6666666666667V583.3333333333334H254.1666666666667C250 570.8333333333333 250 554.1666666666667 250 541.6666666666667V500H166.6666666666667V416.6666666666668H250V375C250 362.5 250 345.8333333333334 254.1666666666667 333.3333333333334H166.6666666666667V250H283.3333333333333C325 175 408.3333333333333 125 500 125S670.8333333333334 175 716.6666666666666 250H833.3333333333333V333.3333333333334H745.8333333333333C745.8333333333333 345.8333333333334 750 362.5 750 375V416.6666666666668H833.3333333333333V500H750V541.6666666666667C750 554.1666666666667 750 570.8333333333333 745.8333333333333 583.3333333333334H833.3333333333333V666.6666666666667zM583.3333333333333 333.3333333333334H416.6666666666667V416.6666666666668H583.3333333333333V333.3333333333334zM583.3333333333333 500H416.6666666666667V583.3333333333334H583.3333333333333V500z" />
    <glyph glyph-name="calendar"
      unicode="&#xE010;"
      horiz-adv-x="1000" d=" M708.3333333333333 458.3333333333334H500V250H708.3333333333333V458.3333333333334zM666.6666666666666 916.6666666666666V833.3333333333334H333.3333333333333V916.6666666666666H250V833.3333333333334H208.3333333333333C162.5 833.3333333333334 125 795.8333333333334 125 750L125 166.6666666666668C125 120.8333333333334 162.5 83.3333333333334 208.3333333333333 83.3333333333334H791.6666666666666C837.5 83.3333333333334 875 120.8333333333334 875 166.6666666666668V750C875 795.8333333333334 837.5 833.3333333333334 791.6666666666666 833.3333333333334H750V916.6666666666666H666.6666666666666zM791.6666666666666 166.6666666666668H208.3333333333333V625H791.6666666666666V166.6666666666668z" />
    <glyph glyph-name="card-plus"
      unicode="&#xE011;"
      horiz-adv-x="1000" d=" M562.5 562.5L562.5 891.6666666666666L437.5 891.6666666666666L437.5 562.5L108.3333333333333 562.5L108.3333333333333 437.5L437.5 437.5L437.5 108.3333333333335L562.5 108.3333333333335L562.5 437.5L891.6666666666665 437.5L891.6666666666665 562.5L562.5 562.5z" />
    <glyph glyph-name="caret-down-filled"
      unicode="&#xE012;"
      horiz-adv-x="1000" d=" M168.21 665.89L500 334.11L831.79 665.89L168.21 665.89z" />
    <glyph glyph-name="caret-down"
      unicode="&#xE013;"
      horiz-adv-x="1000" d=" M213.64 577.8199999999999L456.9400000000001 334.52L457.5400000000001 333.6199999999999A58.56000000000001 58.56000000000001 0 0 1 499.2400000000001 316.52A58.529999999999994 58.529999999999994 0 0 1 540.94 333.6199999999999L541.5400000000001 334.52L784.8400000000001 577.8199999999999C807.69 600.67 807.69 638.06 784.8400000000001 660.9S724.6000000000001 683.75 701.7600000000002 660.9L499.23 458.4000000000001L296.73 660.9000000000001C273.87 683.75 236.48 683.75 213.63 660.9000000000001S190.79 600.6600000000001 213.63 577.82z" />
    <glyph glyph-name="carot-down"
      unicode="&#xE014;"
      horiz-adv-x="987.9" d=" M156.4 595.2L444 307.6L444.7 306.5C457.8 293.5 475.5 286.2000000000001 494 286.3C512.5 286.2 530.2 293.5 543.3 306.5L544 307.6L831.5 595.1C858.5 622.1 858.5 666.3 831.5 693.3S760.3 720.3 733.3 693.3L494 454.1L254.6 693.4C227.6 720.4 183.4 720.4 156.4 693.4C129.4 666.4 129.4 622.2 156.4 595.2L156.4 595.2z" />
    <glyph glyph-name="carot-up"
      unicode="&#xE015;"
      horiz-adv-x="987.9" d=" M831.5 404.8L543.9 692.4L543.1999999999999 693.5C530.0999999999999 706.5 512.4 713.8 493.8999999999999 713.7C475.3999999999999 713.8 457.6999999999999 706.5 444.5999999999999 693.5L443.8999999999999 692.4L156.4 404.8C129.4 377.8 129.4 333.5999999999999 156.4 306.5999999999999S227.6 279.5999999999999 254.6 306.5999999999999L494 545.9L733.3 306.5999999999999C760.3 279.5999999999999 804.5 279.5999999999999 831.5 306.5999999999999C858.5 333.6 858.5 377.8 831.5 404.8L831.5 404.8z" />
    <glyph glyph-name="cart"
      unicode="&#xE016;"
      horiz-adv-x="1061.5" d=" M346.5 181.6C346.5 135.0423955892642 384.2423955892641 97.3000000000001 430.8 97.3000000000001C477.3576044107359 97.3000000000001 515.1 135.0423955892642 515.1 181.6C515.1 228.1576044107359 477.3576044107359 265.9 430.8 265.9C384.2423955892641 265.9 346.5 228.1576044107359 346.5 181.6z M754.9000000000001 181.6C754.9000000000001 135.0423955892642 792.6423955892642 97.3000000000001 839.2 97.3000000000001C885.7576044107359 97.3000000000001 923.5 135.0423955892642 923.5 181.6C923.5 228.1576044107359 885.7576044107359 265.9 839.2 265.9C792.6423955892642 265.9 754.9000000000001 228.1576044107359 754.9000000000001 181.6z M740.1 185.7000000000001C740.9 204.2000000000001 746.7 221.5 756.3000000000001 236H513.7C523.6 220.9 529.6 202.9 530 183.7000000000001L740.1 185.7000000000001zM890.1 363.3000000000001L988.8 763.5C989.7 767.1 989.6 770.8000000000001 988.4 774.4000000000001C985.8 782.7 978.0000000000002 788.3000000000001 969.3 788.3000000000001H243.9L214 866.4L101.7 902.1C94.7 904.3 87.2 900.9 84.3 894.1L73.2 868.2C69.8 860.3 74.1 851.3 82.3 848.9L179.8 820.8L375.8 264.0999999999999C391.3 274.4999999999999 410 280.5999999999999 430 280.7L397.5 363.3H890.1z" />
    <glyph glyph-name="cast"
      unicode="&#xE017;"
      horiz-adv-x="1000" d=" M849.9999999999999 875H150C104.1666666666667 875 66.6666666666667 837.5 66.6666666666667 791.6666666666667V666.6666666666667H150V791.6666666666667H850V208.3333333333334H608.3333333333334V125H850C895.8333333333335 125 933.3333333333334 162.5 933.3333333333334 208.3333333333334V791.6666666666667C933.3333333333331 837.5 895.8333333333333 875 849.9999999999999 875zM66.6666666666667 250V125H191.6666666666666C191.6666666666666 195.8333333333334 137.5 250 66.6666666666667 250zM66.6666666666667 416.6666666666668V333.3333333333334C183.3333333333334 333.3333333333334 275 241.6666666666668 275 125H358.3333333333333C358.3333333333333 287.5 229.1666666666667 416.6666666666668 66.6666666666667 416.6666666666668zM66.6666666666667 583.3333333333334V500C275 500 441.6666666666667 333.3333333333334 441.6666666666667 125H525C525 379.1666666666668 320.8333333333333 583.3333333333334 66.6666666666667 583.3333333333334z" />
    <glyph glyph-name="category"
      unicode="&#xE018;"
      horiz-adv-x="1000" d=" M891.6666666666665 516.6666666666667L516.6666666666666 891.6666666666667C500 908.3333333333334 479.1666666666666 916.6666666666666 458.3333333333333 916.6666666666666H166.6666666666667C120.8333333333333 916.6666666666666 83.3333333333333 879.1666666666666 83.3333333333333 833.3333333333334V541.6666666666667C83.3333333333333 516.6666666666667 91.6666666666667 495.8333333333334 108.3333333333333 483.3333333333334L483.3333333333333 108.3333333333335C500 91.6666666666669 520.8333333333333 83.3333333333334 541.6666666666666 83.3333333333334S587.5 91.6666666666667 600 108.3333333333335L891.6666666666665 400.0000000000001C908.3333333333331 416.6666666666668 916.6666666666666 437.5000000000001 916.6666666666666 458.3333333333335S908.3333333333331 504.1666666666667 891.6666666666665 516.6666666666667zM229.1666666666667 708.3333333333334C195.8333333333334 708.3333333333334 166.6666666666667 737.5 166.6666666666667 770.8333333333334S195.8333333333334 833.3333333333334 229.1666666666667 833.3333333333334S291.6666666666667 804.1666666666666 291.6666666666667 770.8333333333334S262.5 708.3333333333334 229.1666666666667 708.3333333333334z" />
    <glyph glyph-name="chart"
      unicode="&#xE019;"
      horiz-adv-x="1000" d=" M416.6666666666667 120.8333333333334H583.3333333333333V787.5H416.6666666666667V120.8333333333334zM166.6666666666667 120.8333333333334H333.3333333333333V454.1666666666666H166.6666666666667V120.8333333333334zM666.6666666666666 579.1666666666667V120.8333333333334H833.3333333333333V579.1666666666666H666.6666666666666z" />
    <glyph glyph-name="chat-bubble"
      unicode="&#xE01A;"
      horiz-adv-x="1000" d=" M833.3333333333333 916.6666666666666H166.6666666666667C120.8333333333333 916.6666666666666 83.3333333333333 879.1666666666666 83.3333333333333 833.3333333333334V333.3333333333334C83.3333333333333 287.5 120.8333333333333 250 166.6666666666667 250H750L916.6666666666666 83.3333333333334V833.3333333333334C916.6666666666666 879.1666666666666 879.1666666666666 916.6666666666666 833.3333333333333 916.6666666666666zM750 416.6666666666668H250V500H750V416.6666666666668zM750 541.6666666666667H250V625H750V541.6666666666667zM750 666.6666666666667H250V750H750V666.6666666666667z" />
    <glyph glyph-name="chat-history"
      unicode="&#xE01B;"
      horiz-adv-x="1000" d=" M541.6666666666666 875C333.3333333333333 875 166.6666666666667 708.3333333333334 166.6666666666667 500H41.6666666666667L204.1666666666667 337.5L208.3333333333333 333.3333333333334L375 500H250C250 662.5 379.1666666666667 791.6666666666667 541.6666666666666 791.6666666666667S833.3333333333333 662.5 833.3333333333333 500S704.1666666666665 208.3333333333334 541.6666666666666 208.3333333333334C462.4999999999999 208.3333333333334 387.5 241.6666666666668 337.5 295.8333333333335L279.1666666666667 237.5000000000001C345.8333333333334 166.6666666666668 437.5 125 541.6666666666666 125C750 125 916.6666666666666 291.6666666666668 916.6666666666666 500S750 875 541.6666666666666 875zM500 666.6666666666667V458.3333333333334L679.1666666666666 354.1666666666668L708.3333333333333 404.1666666666667L562.5 491.6666666666666V666.6666666666667H500z" />
    <glyph glyph-name="chat"
      unicode="&#xE01C;"
      horiz-adv-x="1000" d=" M799.9999999999999 875H200C158.3333333333333 875 125 841.6666666666667 125 800L125 125L275 275.0000000000001H799.9999999999999C841.6666666666666 275.0000000000001 875 308.3333333333335 875 350.0000000000001V800C875 841.6666666666667 841.6666666666666 875 799.9999999999999 875zM275 612.5H724.9999999999999V537.5H275V612.5zM575 425H275V500H575V425zM724.9999999999999 650H275V725H724.9999999999999V650z" />
    <glyph glyph-name="check-circle"
      unicode="&#xE01D;"
      horiz-adv-x="1000" d=" M500 916.6666666666666C270.8333333333333 916.6666666666666 83.3333333333333 729.1666666666667 83.3333333333333 500S270.8333333333333 83.3333333333334 500 83.3333333333334S916.6666666666666 270.8333333333334 916.6666666666666 500S729.1666666666666 916.6666666666666 500 916.6666666666666zM416.6666666666667 291.6666666666668L208.3333333333333 500L266.6666666666667 558.3333333333334L416.6666666666667 408.3333333333334L733.3333333333334 725L791.6666666666666 666.6666666666667L416.6666666666667 291.6666666666668z" />
    <glyph glyph-name="check"
      unicode="&#xE01E;"
      horiz-adv-x="1000" d=" M837.5 816.6666666666666L379.1666666666667 354.1666666666668L162.5 570.8333333333333L79.1666666666667 483.3333333333334L383.3333333333333 183.3333333333334L920.8333333333334 729.1666666666667z" />
    <glyph glyph-name="checkmark"
      unicode="&#xE01F;"
      horiz-adv-x="1000.0000000000001" d=" M334.8017621145375 180.6167400881055C325.9911894273128 180.6167400881055 312.7753303964758 185.022026431718 308.3700440528635 189.4273127753302L118.9427312775331 352.4229074889866C101.3215859030837 370.0440528634359 96.9162995594714 396.47577092511 114.5374449339207 414.0969162995594C132.1585903083701 431.7180616740087 158.5903083700441 436.123348017621 176.2114537444934 418.5022026431716L334.8017621145375 281.9383259911891L823.7885462555066 806.1674008810572C841.409691629956 823.7885462555066 867.84140969163 823.7885462555066 885.4625550660793 806.1674008810572C903.0837004405286 788.5462555066078 903.0837004405286 762.1145374449338 885.4625550660793 744.4933920704846L365.6387665198239 198.237885462555C361.2334801762115 185.022026431718 348.0176211453745 180.6167400881055 334.8017621145375 180.6167400881055z" />
    <glyph glyph-name="chevron-left"
      unicode="&#xE020;"
      horiz-adv-x="1000" d=" M641.6666666666666 691.6666666666667L583.3333333333333 750L333.3333333333333 500L583.3333333333333 250L641.6666666666666 308.3333333333333L450 500L641.6666666666666 691.6666666666667z" />
    <glyph glyph-name="chevron-right"
      unicode="&#xE021;"
      horiz-adv-x="1000" d=" M358.3333333333333 308.3333333333333L416.6666666666667 250L666.6666666666666 500L416.6666666666667 750L358.3333333333333 691.6666666666667L549.9999999999999 500L358.3333333333333 308.3333333333333z" />
    <glyph glyph-name="circle"
      unicode="&#xE022;"
      horiz-adv-x="1000" d=" M500 916.6666666666666C270.8333333333333 916.6666666666666 83.3333333333333 729.1666666666667 83.3333333333333 500S270.8333333333333 83.3333333333334 500 83.3333333333334S916.6666666666666 270.8333333333334 916.6666666666666 500S729.1666666666666 916.6666666666666 500 916.6666666666666zM500 166.6666666666668C316.6666666666667 166.6666666666668 166.6666666666667 316.6666666666668 166.6666666666667 500S316.6666666666667 833.3333333333334 500 833.3333333333334S833.3333333333333 683.3333333333334 833.3333333333333 500S683.3333333333333 166.6666666666668 500 166.6666666666668z" />
    <glyph glyph-name="close"
      unicode="&#xE023;"
      horiz-adv-x="1000" d=" M791.6666666666666 733.3333333333333L733.3333333333334 791.6666666666667L500 558.3333333333334L266.6666666666667 791.6666666666667L208.3333333333333 733.3333333333333L441.6666666666667 500L208.3333333333333 266.6666666666667L266.6666666666667 208.3333333333334L500 441.6666666666667L733.3333333333334 208.3333333333334L791.6666666666666 266.6666666666667L558.3333333333334 500L791.6666666666666 733.3333333333333z" />
    <glyph glyph-name="compose-new"
      unicode="&#xE024;"
      horiz-adv-x="1000" d=" M541.6666666666666 708.3333333333334L458.3333333333333 708.3333333333334L458.3333333333333 541.6666666666667L291.6666666666667 541.6666666666667L291.6666666666667 458.3333333333334L458.3333333333333 458.3333333333334L458.3333333333333 291.6666666666668L541.6666666666666 291.6666666666668L541.6666666666666 458.3333333333334L708.3333333333333 458.3333333333334L708.3333333333333 541.6666666666667L541.6666666666666 541.6666666666667z M500 916.6666666666666C270.8333333333333 916.6666666666666 83.3333333333333 729.1666666666667 83.3333333333333 500S270.8333333333333 83.3333333333334 500 83.3333333333334S916.6666666666666 270.8333333333334 916.6666666666666 500S729.1666666666666 916.6666666666666 500 916.6666666666666zM500 166.6666666666668C316.6666666666667 166.6666666666668 166.6666666666667 316.6666666666668 166.6666666666667 500C166.6666666666667 683.3333333333334 316.6666666666667 833.3333333333334 500 833.3333333333334S833.3333333333333 683.3333333333334 833.3333333333333 500C833.3333333333333 316.6666666666668 683.3333333333333 166.6666666666668 500 166.6666666666668z" />
    <glyph glyph-name="conference"
      unicode="&#xE025;"
      horiz-adv-x="1000" d=" M929.1666666666666 233.3333333333335C924.9999999999998 283.3333333333334 883.3333333333333 320.8333333333335 833.3333333333333 325.0000000000001C779.1666666666666 329.1666666666668 724.9999999999999 287.5000000000001 720.8333333333334 233.3333333333335C712.5 175.0000000000001 758.3333333333333 125 816.6666666666666 116.6666666666668C862.5000000000001 112.5 908.3333333333331 141.6666666666669 925.0000000000002 187.5C929.1666666666669 195.8333333333334 929.1666666666669 204.1666666666666 929.1666666666669 212.5000000000001C933.3333333333331 216.6666666666666 933.3333333333331 225 929.1666666666666 233.3333333333335C929.1666666666666 233.3333333333335 929.1666666666666 233.3333333333335 929.1666666666666 233.3333333333335z M66.6666666666666 220.8333333333334C66.6666666666666 163.3036718926258 113.3036718926257 116.6666666666668 170.8333333333333 116.6666666666668C228.362994774041 116.6666666666668 275 163.3036718926258 275 220.8333333333334C275 278.3629947740411 228.362994774041 325.0000000000001 170.8333333333333 325.0000000000001C113.3036718926257 325.0000000000001 66.6666666666666 278.3629947740411 66.6666666666666 220.8333333333334z M395.8333333333333 808.3333333333334C395.8333333333333 750.8036718926257 442.4703385592923 704.1666666666667 500 704.1666666666667C557.5296614407076 704.1666666666667 604.1666666666666 750.8036718926257 604.1666666666666 808.3333333333334C604.1666666666666 865.862994774041 557.5296614407076 912.5 500 912.5C442.4703385592923 912.5 395.8333333333333 865.862994774041 395.8333333333333 808.3333333333334z M395.8333333333333 220.8333333333334C395.8333333333333 163.3036718926258 442.4703385592923 116.6666666666668 500 116.6666666666668C557.5296614407076 116.6666666666668 604.1666666666666 163.3036718926258 604.1666666666666 220.8333333333334C604.1666666666666 278.3629947740411 557.5296614407076 325.0000000000001 500 325.0000000000001C442.4703385592923 325.0000000000001 395.8333333333333 278.3629947740411 395.8333333333333 220.8333333333334z M541.6666666666666 550L541.6666666666666 637.5L458.3333333333333 637.5L458.3333333333333 550L129.1666666666667 550L129.1666666666667 545.8333333333334L129.1666666666667 466.6666666666666L129.1666666666667 391.6666666666668L212.5 391.6666666666668L212.5 466.6666666666666L787.4999999999999 466.6666666666666L787.4999999999999 391.6666666666668L870.8333333333333 391.6666666666668L870.8333333333333 466.6666666666666L870.8333333333333 545.8333333333334L870.8333333333333 550z" />
    <glyph glyph-name="connections"
      unicode="&#xE026;"
      horiz-adv-x="1000" d=" M208.3333333333333 916.6666666666666C208.3333333333333 937.5 191.6666666666666 958.3333333333334 166.6666666666667 958.3333333333334S125 937.5 125 916.6666666666666V750H41.6666666666667V500H291.6666666666667V750H208.3333333333333V916.6666666666666zM375 333.3333333333334C375 279.1666666666667 408.3333333333333 233.3333333333335 458.3333333333333 216.6666666666666V41.6666666666667H541.6666666666666V216.6666666666666C591.6666666666666 233.3333333333333 625 279.1666666666667 625 333.3333333333334V416.6666666666668H375V333.3333333333334zM41.6666666666667 333.3333333333334C41.6666666666667 279.1666666666667 75 233.3333333333335 125 216.6666666666666V41.6666666666667H208.3333333333333V216.6666666666666C258.3333333333333 233.3333333333333 291.6666666666667 279.1666666666667 291.6666666666667 333.3333333333334V416.6666666666668H41.6666666666667V333.3333333333334zM875 750V916.6666666666666C875 937.5 854.1666666666666 958.3333333333334 833.3333333333333 958.3333333333334S791.6666666666666 937.5 791.6666666666666 916.6666666666666V750H708.3333333333333V500H958.3333333333331V750H875zM541.6666666666666 916.6666666666666C541.6666666666666 937.5 525 958.3333333333334 500 958.3333333333334S458.3333333333333 937.5 458.3333333333333 916.6666666666666V750H375V500H625V750H541.6666666666666V916.6666666666666zM708.3333333333333 333.3333333333334C708.3333333333333 279.1666666666667 741.6666666666666 233.3333333333335 791.6666666666666 216.6666666666666V41.6666666666667H875V216.6666666666666C924.9999999999998 233.3333333333333 958.3333333333331 279.1666666666667 958.3333333333331 333.3333333333334V416.6666666666668H708.3333333333333V333.3333333333334z" />
    <glyph glyph-name="contacts"
      unicode="&#xE027;"
      horiz-adv-x="1000" d=" M500 500C591.6666666666666 500 666.6666666666666 575 666.6666666666666 666.6666666666667S591.6666666666666 833.3333333333334 500 833.3333333333334S333.3333333333333 758.3333333333334 333.3333333333333 666.6666666666667S408.3333333333333 500 500 500zM500 416.6666666666668C387.5 416.6666666666668 166.6666666666667 362.5 166.6666666666667 250V166.6666666666668H833.3333333333333V250C833.3333333333333 362.5 612.4999999999999 416.6666666666668 500 416.6666666666668z" />
    <glyph glyph-name="copy-content"
      unicode="&#xE028;"
      horiz-adv-x="1000" d=" M687.5 958.3333333333334H187.5C141.6666666666667 958.3333333333334 104.1666666666667 920.8333333333334 104.1666666666667 875V291.6666666666668H187.5V875H687.5V958.3333333333334zM812.5 791.6666666666667H354.1666666666667C308.3333333333333 791.6666666666667 270.8333333333333 754.1666666666666 270.8333333333333 708.3333333333334V125C270.8333333333333 79.1666666666666 308.3333333333333 41.6666666666667 354.1666666666667 41.6666666666667H812.5C858.3333333333334 41.6666666666667 895.8333333333333 79.1666666666666 895.8333333333333 125V708.3333333333334C895.8333333333333 754.1666666666666 858.3333333333334 791.6666666666667 812.5 791.6666666666667zM812.5 125H354.1666666666667V708.3333333333334H812.5V125z" />
    <glyph glyph-name="crossout"
      unicode="&#xE029;"
      horiz-adv-x="1000" d=" M500 916.6666666666666C270.8333333333333 916.6666666666666 83.3333333333333 729.1666666666667 83.3333333333333 500S270.8333333333333 83.3333333333334 500 83.3333333333334S916.6666666666666 270.8333333333334 916.6666666666666 500S729.1666666666666 916.6666666666666 500 916.6666666666666zM500 166.6666666666668C316.6666666666667 166.6666666666668 166.6666666666667 316.6666666666668 166.6666666666667 500C166.6666666666667 579.1666666666667 191.6666666666666 650 237.5 704.1666666666667L704.1666666666665 237.5000000000001C650 191.6666666666668 579.1666666666666 166.6666666666668 500 166.6666666666668zM762.5 295.8333333333335L295.8333333333333 762.5C350 808.3333333333334 420.8333333333333 833.3333333333334 500 833.3333333333334C683.3333333333333 833.3333333333334 833.3333333333333 683.3333333333334 833.3333333333333 500C833.3333333333333 420.8333333333334 808.3333333333333 350 762.5 295.8333333333335z" />
    <glyph glyph-name="date-range"
      unicode="&#xE02A;"
      horiz-adv-x="1000" d=" M375 541.6666666666667H291.6666666666667V458.3333333333334H375V541.6666666666667zM541.6666666666666 541.6666666666667H458.3333333333333V458.3333333333334H541.6666666666666V541.6666666666667zM708.3333333333333 541.6666666666667H625V458.3333333333334H708.3333333333333V541.6666666666667zM791.6666666666666 833.3333333333334H750V916.6666666666666H666.6666666666666V833.3333333333334H333.3333333333333V916.6666666666666H250V833.3333333333334H208.3333333333333C162.5 833.3333333333334 125 795.8333333333334 125 750L125 166.6666666666668C125 120.8333333333334 162.5 83.3333333333334 208.3333333333333 83.3333333333334H791.6666666666666C837.5 83.3333333333334 875 120.8333333333334 875 166.6666666666668V750C875 795.8333333333334 837.5 833.3333333333334 791.6666666666666 833.3333333333334zM791.6666666666666 166.6666666666668H208.3333333333333V625H791.6666666666666V166.6666666666668z" />
    <glyph glyph-name="default"
      unicode="&#xE02B;"
      horiz-adv-x="1000" d=" M433.3333333333333 408.3333333333334C433.3333333333333 408.3333333333334 437.5 408.3333333333334 433.3333333333333 408.3333333333334C437.5 408.3333333333334 433.3333333333333 408.3333333333334 433.3333333333333 408.3333333333334z M170.8333333333333 454.1666666666667V195.8333333333334C170.8333333333333 162.5 195.8333333333333 137.5000000000001 229.1666666666667 137.5000000000001H229.1666666666667C262.5 137.5000000000001 287.5 162.5000000000001 287.5 195.8333333333334V454.1666666666666C270.8333333333333 441.6666666666667 250 433.3333333333333 229.1666666666667 433.3333333333333C208.3333333333333 433.3333333333334 187.5 441.6666666666667 170.8333333333333 454.1666666666667z M291.6666666666667 616.6666666666667V804.1666666666666C291.6666666666667 837.5 266.6666666666667 862.5 233.3333333333333 862.5H233.3333333333333C200 862.5 175 837.5 175 804.1666666666666V616.6666666666667C187.5 629.1666666666667 208.3333333333333 637.5 233.3333333333333 637.5C254.1666666666667 637.5 275 629.1666666666667 291.6666666666667 616.6666666666667z M558.3333333333334 441.6666666666667V804.1666666666666C558.3333333333334 837.5 533.3333333333334 862.5 500 862.5H500C466.6666666666666 862.5 441.6666666666667 837.5 441.6666666666667 804.1666666666666V441.6666666666668C458.3333333333333 454.1666666666667 479.1666666666666 462.5000000000001 500 462.5000000000001C520.8333333333333 462.5 541.6666666666666 454.1666666666667 558.3333333333334 441.6666666666667z M441.6666666666667 279.1666666666667V195.8333333333334C441.6666666666667 162.5 466.6666666666666 137.5000000000001 500 137.5000000000001H500C533.3333333333334 137.5000000000001 558.3333333333334 162.5000000000001 558.3333333333334 195.8333333333334V279.1666666666667C541.6666666666666 266.6666666666667 520.8333333333333 258.3333333333334 500 258.3333333333334C479.1666666666666 258.3333333333334 458.3333333333333 266.6666666666667 441.6666666666667 279.1666666666667z M708.3333333333333 529.1666666666667V195.8333333333334C708.3333333333333 162.5 733.3333333333334 137.5000000000001 766.6666666666665 137.5000000000001H766.6666666666665C799.9999999999999 137.5000000000001 824.9999999999999 162.5000000000001 824.9999999999999 195.8333333333334V529.1666666666667C808.3333333333333 516.6666666666666 787.4999999999999 508.3333333333333 766.6666666666665 508.3333333333333C745.8333333333333 508.3333333333333 724.9999999999999 516.6666666666667 708.3333333333333 529.1666666666667z M829.1666666666665 691.6666666666667V804.1666666666666C829.1666666666665 837.5 804.1666666666665 862.5 770.8333333333333 862.5H770.8333333333333C737.4999999999999 862.5 712.5 837.5 712.5 804.1666666666666V691.6666666666667C729.1666666666666 704.1666666666667 750 712.5 770.8333333333333 712.5C791.6666666666666 712.5 812.5 704.1666666666667 829.1666666666665 691.6666666666667z M308.3333333333333 566.6666666666667C308.3333333333333 566.6666666666667 304.1666666666667 570.8333333333333 308.3333333333333 566.6666666666667C308.3333333333333 570.8333333333333 308.3333333333333 570.8333333333333 308.3333333333333 570.8333333333333C308.3333333333333 570.8333333333333 308.3333333333333 575 304.1666666666667 575C300 579.1666666666667 295.8333333333333 587.5 291.6666666666667 591.6666666666667C275 608.3333333333333 254.1666666666667 616.6666666666667 233.3333333333333 616.6666666666667S187.5 608.3333333333333 170.8333333333333 591.6666666666667C158.3333333333333 579.1666666666666 150 558.3333333333333 150 537.5C150 525 154.1666666666667 512.5 158.3333333333333 499.9999999999999C162.5 495.8333333333333 162.5 491.6666666666666 166.6666666666667 487.4999999999999C166.6666666666667 487.4999999999999 166.6666666666667 487.4999999999999 166.6666666666667 487.4999999999999C166.6666666666667 487.4999999999999 166.6666666666667 483.3333333333333 170.8333333333333 483.3333333333333C187.5 466.6666666666666 208.3333333333333 458.3333333333333 229.1666666666667 458.3333333333333S275 466.6666666666666 287.5 483.3333333333333C291.6666666666667 487.4999999999999 291.6666666666667 487.4999999999999 295.8333333333333 491.6666666666666C304.1666666666667 504.1666666666666 312.5 520.8333333333333 312.5 537.4999999999999C312.5 545.8333333333334 312.5 558.3333333333334 308.3333333333333 566.6666666666667z M175 483.3333333333334C170.8333333333333 483.3333333333334 170.8333333333333 483.3333333333334 175 483.3333333333334C170.8333333333333 483.3333333333334 170.8333333333333 483.3333333333334 175 483.3333333333334z M575 395.8333333333334C575 395.8333333333334 575 395.8333333333334 575 395.8333333333334C575 400 570.8333333333334 400 570.8333333333334 404.1666666666667C570.8333333333334 404.1666666666667 570.8333333333334 408.3333333333334 566.6666666666667 408.3333333333334C566.6666666666667 408.3333333333334 566.6666666666667 408.3333333333334 566.6666666666667 408.3333333333334C566.6666666666667 412.5 562.5 412.5 562.5 416.6666666666667C545.8333333333334 433.3333333333333 525 441.6666666666667 504.1666666666667 441.6666666666667C479.1666666666667 441.6666666666667 458.3333333333334 433.3333333333333 445.8333333333334 416.6666666666667C445.8333333333334 416.6666666666667 441.6666666666667 412.5 441.6666666666667 408.3333333333334C441.6666666666667 408.3333333333334 441.6666666666667 408.3333333333334 441.6666666666667 408.3333333333334C441.6666666666667 408.3333333333334 441.6666666666667 404.1666666666667 437.5000000000001 404.1666666666667C437.5000000000001 400 433.3333333333334 400 433.3333333333334 395.8333333333334C433.3333333333334 395.8333333333334 433.3333333333334 395.8333333333334 433.3333333333334 395.8333333333334C429.1666666666668 383.3333333333334 425.0000000000001 375 425.0000000000001 362.5C425.0000000000001 362.5 425.0000000000001 358.3333333333334 425.0000000000001 358.3333333333334C425.0000000000001 337.5 433.3333333333334 320.8333333333334 445.8333333333335 308.3333333333333V308.3333333333333C462.5000000000001 291.6666666666668 483.3333333333334 283.3333333333333 504.1666666666668 283.3333333333333C529.1666666666667 283.3333333333333 550.0000000000001 291.6666666666665 562.5000000000001 308.3333333333333V308.3333333333333C575.0000000000001 320.8333333333334 583.3333333333335 341.6666666666667 583.3333333333335 358.3333333333333C583.3333333333335 358.3333333333333 583.3333333333335 362.4999999999999 583.3333333333335 362.4999999999999C583.3333333333333 375 579.1666666666666 383.3333333333334 575 395.8333333333334z M429.1666666666667 395.8333333333334C429.1666666666667 395.8333333333334 429.1666666666667 395.8333333333334 429.1666666666667 395.8333333333334C429.1666666666667 395.8333333333334 429.1666666666667 395.8333333333334 429.1666666666667 395.8333333333334z M829.1666666666665 666.6666666666667C812.5 683.3333333333334 791.6666666666666 691.6666666666667 770.8333333333333 691.6666666666667C745.8333333333333 691.6666666666667 724.9999999999999 683.3333333333333 712.5 666.6666666666667C700 654.1666666666666 691.6666666666667 633.3333333333333 691.6666666666667 612.5C691.6666666666667 604.1666666666667 691.6666666666667 591.6666666666667 695.8333333333334 583.3333333333334C700.0000000000001 575 704.1666666666667 562.5 712.5 558.3333333333334C729.1666666666666 541.6666666666667 750 533.3333333333334 770.8333333333333 533.3333333333334C795.8333333333334 533.3333333333334 816.6666666666666 541.6666666666667 829.1666666666665 558.3333333333334C829.1666666666665 558.3333333333334 829.1666666666665 558.3333333333334 829.1666666666665 562.5C833.3333333333333 566.6666666666667 837.4999999999999 575 841.6666666666666 579.1666666666667C841.6666666666666 579.1666666666667 841.6666666666666 579.1666666666667 841.6666666666666 579.1666666666667C841.6666666666666 579.1666666666667 841.6666666666666 583.3333333333334 845.8333333333334 583.3333333333334C850 591.6666666666667 850 600 850 612.5C849.9999999999999 633.3333333333333 841.6666666666666 650 829.1666666666665 666.6666666666667z" />
    <glyph glyph-name="domain-reporting"
      unicode="&#xE02C;"
      horiz-adv-x="1000" d=" M250 458.3333333333334A208.33333333333334 208.33333333333334 0 1 1 458.3333333333333 250A208.33333333333334 208.33333333333334 0 0 1 250 458.3333333333334zM394.5833333333333 333.3333333333334H333.3333333333333A327.0833333333333 327.0833333333333 0 0 1 304.5833333333333 407.5A166.66666666666663 166.66666666666663 0 0 0 394.1666666666667 333.3333333333334zM250 416.6666666666668A291.6666666666667 291.6666666666667 0 0 0 291.6666666666667 333.3333333333334H208.3333333333333A291.6666666666667 291.6666666666667 0 0 0 250 416.6666666666668zM88.75 208.3333333333334A162.5 162.5 0 0 0 88.75 291.6666666666668H159.1666666666667A297.91666666666663 297.91666666666663 0 0 1 159.1666666666667 208.3333333333334zM105.8333333333333 166.6666666666668H166.6666666666667A326.25 326.25 0 0 1 195.4166666666666 92.5A166.66666666666663 166.66666666666663 0 0 0 105.8333333333333 166.6666666666668zM166.6666666666667 333.3333333333334H105.8333333333333A166.66666666666663 166.66666666666663 0 0 0 195.8333333333334 407.5A327.0833333333333 327.0833333333333 0 0 1 166.6666666666667 333.3333333333334zM250 83.3333333333334A293.74999999999994 293.74999999999994 0 0 0 208.3333333333333 166.6666666666668H291.6666666666667A291.6666666666667 291.6666666666667 0 0 0 250 83.3333333333334zM298.75 208.3333333333334H201.25A307.0833333333333 307.0833333333333 0 0 0 197.9166666666667 250A304.16666666666663 304.16666666666663 0 0 0 201.25 291.6666666666668H298.75A304.16666666666663 304.16666666666663 0 0 0 302.0833333333333 250A307.0833333333333 307.0833333333333 0 0 0 298.75 208.3333333333334zM304.1666666666667 92.5A326.25 326.25 0 0 1 333.3333333333333 166.6666666666668H394.1666666666667A166.66666666666663 166.66666666666663 0 0 0 304.1666666666667 92.5zM340.8333333333333 208.3333333333334A343.75 343.75 0 0 1 343.75 250A343.3333333333333 343.3333333333333 0 0 1 340.8333333333333 291.6666666666668H411.25A162.91666666666666 162.91666666666666 0 0 0 411.25 208.3333333333334z M791.6666666666666 875H208.3333333333333A83.33333333333331 83.33333333333331 0 0 1 125 791.6666666666667V466.2500000000001A250 250 0 0 0 250 500A250 250 0 0 0 291.6666666666667 496.2500000000001V583.3333333333334H375V466.25A250 250 0 0 0 458.3333333333333 387.9166666666667V708.3333333333334H541.6666666666666V291.6666666666668H496.25A250 250 0 0 0 500 250A250 250 0 0 0 466.2499999999999 125H791.6666666666666A83.33333333333331 83.33333333333331 0 0 1 875 208.3333333333334V791.6666666666667A83.33333333333331 83.33333333333331 0 0 1 791.6666666666666 875zM708.3333333333333 291.6666666666668H625V458.3333333333334H708.3333333333333z" />
    <glyph glyph-name="domain-settings"
      unicode="&#xE02D;"
      horiz-adv-x="1000" d=" M250 458.3333333333334C133.3333333333334 458.3333333333334 41.6666666666667 366.6666666666668 41.6666666666667 250S133.3333333333334 41.6666666666667 250 41.6666666666667C366.6666666666667 41.6666666666667 458.3333333333333 133.3333333333334 458.3333333333333 250S366.6666666666667 458.3333333333334 250 458.3333333333334zM395.8333333333333 333.3333333333334H333.3333333333333C325 358.3333333333334 316.6666666666667 383.3333333333334 304.1666666666667 408.3333333333334C341.6666666666667 395.8333333333334 375 366.6666666666668 395.8333333333333 333.3333333333334zM250 416.6666666666668C266.6666666666667 391.6666666666668 279.1666666666667 362.5 291.6666666666667 333.3333333333334H208.3333333333333C220.8333333333333 362.5 233.3333333333333 391.6666666666668 250 416.6666666666668zM87.5 208.3333333333334C83.3333333333333 220.8333333333334 83.3333333333333 237.5 83.3333333333333 250S83.3333333333333 279.1666666666667 87.5 291.6666666666668H158.3333333333333C158.3333333333333 279.1666666666667 154.1666666666667 262.5000000000001 154.1666666666667 250S154.1666666666667 220.8333333333334 158.3333333333333 208.3333333333334H87.5zM104.1666666666667 166.6666666666668H166.6666666666667C175 141.6666666666666 183.3333333333334 116.6666666666668 195.8333333333334 91.6666666666667C158.3333333333333 104.1666666666667 125 133.3333333333334 104.1666666666667 166.6666666666668zM166.6666666666667 333.3333333333334H104.1666666666667C125 366.6666666666668 154.1666666666667 395.8333333333334 195.8333333333334 408.3333333333334C183.3333333333334 383.3333333333334 175 358.3333333333334 166.6666666666667 333.3333333333334zM250 83.3333333333334C233.3333333333333 108.3333333333335 220.8333333333333 137.5000000000001 208.3333333333333 166.6666666666668H291.6666666666667C279.1666666666667 137.5000000000001 266.6666666666667 108.3333333333335 250 83.3333333333334zM300 208.3333333333334H200C200 220.8333333333334 195.8333333333334 237.5 195.8333333333334 250S195.8333333333334 279.1666666666667 200 291.6666666666668H295.8333333333333C295.8333333333333 279.1666666666667 300 262.5000000000001 300 250S300 220.8333333333334 300 208.3333333333334zM304.1666666666667 91.6666666666667C316.6666666666667 116.6666666666668 325 141.6666666666666 333.3333333333333 166.6666666666668H395.8333333333333C375 133.3333333333334 341.6666666666667 104.1666666666667 304.1666666666667 91.6666666666667zM341.6666666666667 208.3333333333334C341.6666666666667 220.8333333333334 345.8333333333333 237.5 345.8333333333333 250S345.8333333333333 279.1666666666667 341.6666666666667 291.6666666666668H412.5C416.6666666666666 279.1666666666667 416.6666666666666 262.5000000000001 416.6666666666666 250C416.6666666666666 237.5 412.5 220.8333333333334 412.5 208.3333333333334H341.6666666666667z M787.4999999999999 508.3333333333333L875 566.6666666666667L837.5 675L733.3333333333334 670.8333333333333L679.1666666666666 729.1666666666667L683.3333333333333 833.3333333333334L575 875L512.5 791.6666666666667L433.3333333333333 783.3333333333334L358.3333333333333 854.1666666666667L258.3333333333333 791.6666666666667L287.5 691.6666666666667L241.6666666666667 625L137.5 608.3333333333333L125 491.6666666666667L154.1666666666667 479.1666666666667C183.3333333333334 491.6666666666667 216.6666666666667 500 250 500C283.3333333333333 500 316.6666666666667 491.6666666666667 345.8333333333334 479.1666666666667C337.5000000000001 533.3333333333334 358.3333333333334 591.6666666666667 404.1666666666667 629.1666666666667C470.8333333333333 679.1666666666667 570.8333333333334 666.6666666666667 620.8333333333334 595.8333333333333C670.8333333333334 529.1666666666667 658.3333333333334 429.1666666666667 587.5 379.1666666666667C554.1666666666666 354.1666666666667 512.5 345.8333333333333 475.0000000000001 350C487.5000000000001 320.8333333333334 495.8333333333334 283.3333333333333 495.8333333333334 245.8333333333334C495.8333333333334 208.3333333333334 487.5000000000001 170.8333333333333 470.8333333333334 137.4999999999999L479.1666666666667 120.8333333333334L591.6666666666667 133.3333333333334L612.5000000000001 237.5L679.1666666666669 279.1666666666667L779.1666666666667 250L841.6666666666667 345.8333333333334L775 425.0000000000001L787.4999999999999 508.3333333333333z" />
    <glyph glyph-name="dot"
      unicode="&#xE02E;"
      horiz-adv-x="1000" d=" M168.2 500C168.2 316.7519200061427 316.7519200061427 168.2000000000001 500 168.2000000000001C683.2480799938573 168.2000000000001 831.8 316.7519200061427 831.8 500C831.8 683.2480799938573 683.2480799938573 831.8 500 831.8C316.7519200061427 831.8 168.2 683.2480799938573 168.2 500z" />
    <glyph glyph-name="download"
      unicode="&#xE02F;"
      horiz-adv-x="1000" d=" M791.6666666666666 625H625V875H375V625H208.3333333333333L500 333.3333333333334L791.6666666666666 625zM208.3333333333333 250V166.6666666666668H791.6666666666666V250H208.3333333333333z" />
    <glyph glyph-name="drag-dots"
      unicode="&#xE030;"
      horiz-adv-x="521" d=" M75.1 808.7C75.1 768.7698125872337 107.4698125872336 736.4 147.4 736.4C187.3301874127664 736.4 219.7 768.7698125872337 219.7 808.7C219.7 848.6301874127664 187.3301874127664 881 147.4 881C107.4698125872336 881 75.1 848.6301874127664 75.1 808.7z M301.3 808.7C301.3 768.7698125872337 333.6698125872337 736.4 373.6 736.4C413.5301874127664 736.4 445.9000000000001 768.7698125872337 445.9000000000001 808.7C445.9000000000001 848.6301874127664 413.5301874127664 881 373.6 881C333.6698125872337 881 301.3 848.6301874127664 301.3 808.7z M75.1 500C75.1 460.0698125872336 107.4698125872336 427.7000000000001 147.4 427.7000000000001C187.3301874127664 427.7000000000001 219.7 460.0698125872336 219.7 500C219.7 539.9301874127664 187.3301874127664 572.3 147.4 572.3C107.4698125872336 572.3 75.1 539.9301874127664 75.1 500z M301.3 500C301.3 460.0698125872336 333.6698125872337 427.7000000000001 373.6 427.7000000000001C413.5301874127664 427.7000000000001 445.9000000000001 460.0698125872336 445.9000000000001 500C445.9000000000001 539.9301874127664 413.5301874127664 572.3 373.6 572.3C333.6698125872337 572.3 301.3 539.9301874127664 301.3 500z M75.1 191.3C75.1 151.3698125872336 107.4698125872336 119 147.4 119C187.3301874127664 119 219.7 151.3698125872336 219.7 191.3C219.7 231.2301874127664 187.3301874127664 263.5999999999999 147.4 263.5999999999999C107.4698125872336 263.5999999999999 75.1 231.2301874127664 75.1 191.3z M301.3 191.3C301.3 151.3698125872336 333.6698125872337 119 373.6 119C413.5301874127664 119 445.9000000000001 151.3698125872336 445.9000000000001 191.3C445.9000000000001 231.2301874127664 413.5301874127664 263.5999999999999 373.6 263.5999999999999C333.6698125872337 263.5999999999999 301.3 231.2301874127664 301.3 191.3z" />
    <glyph glyph-name="eas"
      unicode="&#xE031;"
      horiz-adv-x="1000" d=" M875 875C875 625 875 375 875 125C625 125 375 125 125 125C125 375 125 625 125 875C133.3333333333334 875 141.6666666666667 875 150 875C391.6666666666667 875 633.3333333333333 875 875 875zM570.8333333333333 300C566.6666666666666 304.1666666666668 562.5 300 558.3333333333333 295.8333333333333C554.1666666666666 287.5 549.9999999999999 283.3333333333333 545.8333333333333 279.1666666666667C537.4999999999999 266.6666666666667 537.4999999999999 254.1666666666667 549.9999999999999 245.8333333333334C566.6666666666665 229.1666666666668 583.3333333333333 208.3333333333334 599.9999999999999 187.5C604.1666666666665 183.3333333333334 616.6666666666665 175 624.9999999999998 175C679.1666666666665 175 737.4999999999998 175 791.6666666666665 175C812.4999999999998 175 816.6666666666665 183.3333333333334 816.6666666666665 200.0000000000001C816.6666666666665 258.3333333333334 816.6666666666665 312.5 816.6666666666665 370.8333333333334C816.6666666666665 379.1666666666668 812.4999999999998 387.5000000000001 808.3333333333333 395.8333333333334C745.8333333333333 462.5 670.8333333333333 516.6666666666667 587.4999999999999 558.3333333333334C566.6666666666665 570.8333333333335 558.3333333333333 566.6666666666667 545.8333333333333 541.6666666666667C549.9999999999999 537.5 558.3333333333333 533.3333333333334 562.4999999999999 533.3333333333334C620.8333333333333 500 670.8333333333333 458.3333333333334 712.4999999999999 400.0000000000001C716.6666666666666 391.6666666666668 724.9999999999999 383.3333333333334 724.9999999999999 370.8333333333335C729.1666666666666 341.6666666666669 729.1666666666666 312.5000000000003 729.1666666666666 279.1666666666669C729.1666666666666 275.0000000000001 720.8333333333334 266.6666666666668 716.6666666666666 266.6666666666668C666.6666666666666 270.8333333333334 616.6666666666666 254.1666666666668 570.8333333333333 300C575 300 575 300 570.8333333333333 300zM700 575C695.8333333333333 570.8333333333335 700 562.5 704.1666666666667 562.5C708.3333333333335 558.3333333333334 716.6666666666667 554.1666666666667 720.8333333333334 550C733.3333333333334 537.5 745.8333333333334 541.6666666666667 758.3333333333333 554.1666666666666C774.9999999999999 570.8333333333333 795.8333333333331 583.3333333333333 812.5 600C820.8333333333333 608.3333333333333 825 620.8333333333333 829.1666666666665 633.3333333333333C829.1666666666665 687.5 829.1666666666665 737.5 829.1666666666665 791.6666666666666C829.1666666666665 816.6666666666666 824.9999999999999 820.8333333333333 799.9999999999999 820.8333333333333C745.8333333333333 820.8333333333333 691.6666666666665 820.8333333333333 637.4999999999999 820.8333333333333C629.1666666666666 820.8333333333333 616.6666666666666 816.6666666666666 608.3333333333333 808.3333333333333C541.6666666666666 745.8333333333333 487.4999999999999 670.8333333333333 450 587.5C441.6666666666667 566.6666666666667 445.8333333333334 558.3333333333334 466.6666666666667 550C466.6666666666667 550 470.8333333333333 550 470.8333333333333 554.1666666666666C475 558.3333333333333 475 562.5 479.1666666666666 566.6666666666667C512.5 625 554.1666666666666 675 608.3333333333333 716.6666666666666C616.6666666666666 720.8333333333333 625 729.1666666666666 633.3333333333333 729.1666666666666C662.4999999999999 733.3333333333333 695.8333333333333 733.3333333333333 724.9999999999999 733.3333333333333C729.1666666666666 733.3333333333333 737.4999999999999 725 737.4999999999999 720.8333333333333C737.4999999999999 691.6666666666666 737.4999999999999 658.3333333333333 737.4999999999999 629.1666666666665C737.4999999999999 625 733.3333333333333 616.6666666666665 729.1666666666666 612.5C712.5 600 708.3333333333333 587.5 700 575zM300 420.8333333333334C304.1666666666667 425 304.1666666666667 433.3333333333334 295.8333333333333 437.5C291.6666666666667 441.6666666666667 283.3333333333334 445.8333333333334 279.1666666666667 450.0000000000001C266.6666666666667 458.3333333333334 258.3333333333333 458.3333333333334 245.8333333333334 445.8333333333334C229.1666666666667 429.1666666666667 208.3333333333333 412.5 191.6666666666667 395.8333333333334C183.3333333333334 387.5000000000001 179.1666666666667 379.1666666666668 179.1666666666667 370.8333333333334C179.1666666666667 316.6666666666668 179.1666666666667 262.5000000000001 179.1666666666667 208.3333333333334C179.1666666666667 187.5 187.5 179.1666666666668 208.3333333333334 179.1666666666668C262.5 179.1666666666668 316.6666666666667 179.1666666666668 370.8333333333333 179.1666666666668C387.5 179.1666666666668 395.8333333333333 183.3333333333335 404.1666666666667 191.6666666666668C458.3333333333334 241.6666666666668 500 300.0000000000001 537.5000000000001 366.6666666666668C545.8333333333334 383.3333333333334 554.1666666666667 400.0000000000001 562.5 416.6666666666668C570.8333333333334 433.3333333333334 562.5 441.6666666666667 550 445.8333333333334C537.5 454.1666666666666 537.5 437.5 533.3333333333334 433.3333333333333C504.1666666666667 383.3333333333334 470.8333333333333 341.6666666666667 429.1666666666667 304.1666666666667C404.1666666666667 283.3333333333333 391.6666666666667 279.1666666666665 345.8333333333334 270.8333333333333C337.5000000000001 270.8333333333333 329.1666666666667 270.8333333333333 320.8333333333334 270.8333333333333C275.0000000000001 270.8333333333333 279.1666666666667 270.8333333333333 275.0000000000001 316.6666666666667C262.5 354.1666666666668 266.6666666666667 391.6666666666668 300 420.8333333333334C300 420.8333333333334 300 420.8333333333334 300 420.8333333333334zM425 695.8333333333334C429.1666666666666 695.8333333333334 433.3333333333333 695.8333333333334 433.3333333333333 700C437.4999999999999 704.1666666666667 441.6666666666666 712.5 445.8333333333333 716.6666666666667C458.3333333333333 733.3333333333334 454.1666666666666 745.8333333333334 441.6666666666667 758.3333333333334C425 775 412.5 787.5 400 808.3333333333334C391.6666666666667 816.6666666666666 379.1666666666667 820.8333333333334 366.6666666666667 820.8333333333334C312.5 820.8333333333334 258.3333333333334 820.8333333333334 204.1666666666667 820.8333333333334C183.3333333333334 820.8333333333334 175 816.6666666666667 175 795.8333333333334C175 741.6666666666667 175 683.3333333333334 175 629.1666666666667C175 620.8333333333335 179.1666666666667 608.3333333333335 183.3333333333334 604.1666666666667C245.8333333333334 537.5000000000001 320.8333333333333 483.3333333333334 404.1666666666667 441.6666666666668C425 429.1666666666668 433.3333333333333 433.3333333333335 445.8333333333333 458.3333333333335C441.6666666666667 462.5000000000001 433.3333333333333 466.6666666666667 429.1666666666666 466.6666666666667C370.8333333333333 500.0000000000001 320.8333333333333 541.6666666666667 279.1666666666667 600.0000000000001C275 608.3333333333333 270.8333333333333 616.6666666666667 270.8333333333333 620.8333333333334C270.8333333333333 654.1666666666667 266.6666666666667 683.3333333333334 266.6666666666667 716.6666666666667C266.6666666666667 720.8333333333333 275 729.1666666666667 279.1666666666667 729.1666666666667C329.1666666666667 729.1666666666667 383.3333333333333 741.6666666666667 425 695.8333333333334C425 695.8333333333334 425 695.8333333333334 425 695.8333333333334z" />
    <glyph glyph-name="edit"
      unicode="&#xE032;"
      horiz-adv-x="1000" d=" M125 279.1666666666667V125H283.3333333333333L741.6666666666666 587.5L583.3333333333333 745.8333333333333L125 279.1666666666667zM862.4999999999999 708.3333333333334C879.1666666666665 725 879.1666666666665 750 862.4999999999999 766.6666666666667L766.6666666666665 862.5C750 879.1666666666666 724.9999999999999 879.1666666666666 708.3333333333333 862.5L633.3333333333333 787.5L791.6666666666666 629.1666666666667L862.4999999999999 708.3333333333334z" />
    <glyph glyph-name="eraser"
      unicode="&#xE033;"
      horiz-adv-x="1000" d=" M270.8333333333333 508.3333333333333L508.3333333333333 270.8333333333334L895.8333333333333 658.3333333333334L658.3333333333334 895.8333333333334L412.5 650z M204.1666666666667 445.8333333333334L445.8333333333333 204.1666666666666L341.6666666666667 104.1666666666667L104.1666666666667 341.6666666666667L150 387.5000000000001z" />
    <glyph glyph-name="events"
      unicode="&#xE034;"
      horiz-adv-x="1000" d=" M958.3333333333331 500L858.3333333333334 616.6666666666667L870.8333333333334 770.8333333333334L720.8333333333334 804.1666666666667L641.6666666666666 937.5L500 875L358.3333333333333 937.5L279.1666666666667 804.1666666666666L129.1666666666667 770.8333333333334L141.6666666666667 616.6666666666667L41.6666666666667 500L141.6666666666667 383.3333333333334L129.1666666666667 229.1666666666668L279.1666666666667 195.8333333333334L358.3333333333333 62.5L500 125L641.6666666666666 62.5L720.8333333333334 195.8333333333334L870.8333333333334 229.1666666666668L858.3333333333334 383.3333333333334L958.3333333333331 500zM541.6666666666666 291.6666666666668H458.3333333333333V375H541.6666666666666V291.6666666666668zM541.6666666666666 458.3333333333334H458.3333333333333V708.3333333333334H541.6666666666666V458.3333333333334z" />
    <glyph glyph-name="facebook"
      unicode="&#xE035;"
      horiz-adv-x="596.2" d=" M512.6 471.9H352.2V42.5999999999999H188.8V471.9H75.3V626.4H188.8V758.4C188.8 862.0999999999999 255.8 957.4 410.3 957.4C472.9 957.4 519.1 951.4 519.1 951.4L515.5 807.0999999999999S468.3 807.5999999999999 416.9 807.5999999999999C361.2 807.5999999999999 352.3 781.9 352.3 739.3V626.5H520L512.6 471.9z" />
    <glyph glyph-name="file-3d"
      unicode="&#xE036;"
      horiz-adv-x="792.08" d=" M381.17 227.48L381.17 340.7000000000001L367.36 349.55L269.1 299.35L381.17 227.48z M401 499.94L401 373.31L403.02 372.27L512.93 442.76L401 499.94z M500.79 602.8199999999999A58.24000000000001 58.24000000000001 0 0 0 442.55 661.62L444.69 886.62H105.78A34.12 34.12 0 0 1 71.66 852.5V154.65A34.12 34.12 0 0 1 105.78 120.53H686.3A34.12 34.12 0 0 1 720.42 154.65V602.8199999999999H500.79zM391.08 209.35L254.32 297.06V433.8200000000001L391.08 346.11V209.35zM259.28 443.73L396 513.6L532.8 443.73L396 356zM537.76 297.06L401 209.35V346.11L537.76 433.8200000000001V297.06z M389.06 372.27L391.08 373.31L391.08 499.94L279.15 442.76L389.06 372.27z M264.23 415.6900000000001L264.23 308L357.7 355.75L264.23 415.6900000000001z M424.7200000000001 349.55L410.9100000000001 340.7000000000001L410.9100000000001 227.48L522.98 299.35L424.7200000000001 349.55z M527.85 415.6900000000001L434.38 355.75L527.85 308L527.85 415.6900000000001z M498.76 862.3199999999999L498.76 670.39L690.69 670.39L498.76 862.3199999999999z" />
    <glyph glyph-name="file-ai"
      unicode="&#xE037;"
      horiz-adv-x="792.08" d=" M500.79 599.22A58.24000000000001 58.24000000000001 0 0 0 442.55 658L444.69 883H105.78A34.12 34.12 0 0 1 71.66 848.88V151.06A34.12 34.12 0 0 1 105.78 116.94H686.3A34.12 34.12 0 0 1 720.42 151.06V599.22H500.79zM398.45 217.68L377.6 287.05H300.2L281 217.68H217.6L300.2 488H380.4L464.21 217.73H398.45zM556.8399999999999 217.68H495.8399999999999V413.77H556.8399999999999V217.68zM526 437.8300000000001C506.75 437.8300000000001 493.92 451.46 494.32 468.3100000000001C493.92 485.95 506.75 499.1900000000001 526.4 499.1900000000001S558.48 485.96 558.88 468.3100000000001C558.85 451.46 546 437.8300000000001 526 437.8300000000001z M338.3 442.24H337.5C333.5 426.24 329.5 405.75 325.07 390.11L309.07 332.77H368.82L351.98 390.11C347.12 406.15 342.31 426.2000000000001 338.3 442.24z M498.76 858.73L498.76 666.8L690.69 666.8L498.76 858.73z" />
    <glyph glyph-name="file-apk"
      unicode="&#xE038;"
      horiz-adv-x="792.08" d=" M472.59 292.27C472.59 279.6116335338782 482.8516335338782 269.35 495.51 269.35C508.1683664661218 269.35 518.43 279.6116335338782 518.43 292.27C518.43 304.9283664661218 508.1683664661218 315.19 495.51 315.19C482.8516335338782 315.19 472.59 304.9283664661218 472.59 292.27z M276.15 292.27C276.15 279.6116335338782 286.4116335338782 269.35 299.07 269.35C311.7283664661218 269.35 321.99 279.6116335338782 321.99 292.27C321.99 304.9283664661218 311.7283664661218 315.19 299.07 315.19C286.4116335338782 315.19 276.15 304.9283664661218 276.15 292.27z M500.79 599.22A58.24000000000001 58.24000000000001 0 0 0 442.55 658L444.69 883H105.78A34.12 34.12 0 0 1 71.66 848.88V151.06A34.12 34.12 0 0 1 105.78 116.94H686.3A34.12 34.12 0 0 1 720.42 151.06V599.22H500.79zM569.79 216.97H221.79A173.36 173.36 0 0 0 267.09 334.0600000000001L225.41 375.8A8 8 0 0 0 236.65 387L278.37 345.28A174 174 0 0 0 514.15 344.49L556.66 387A8 8 0 0 0 567.9 375.8L525.3 333.2A173.34 173.34 0 0 0 569.83 217z M498.76 858.73L498.76 666.81L690.69 666.81L498.76 858.73z" />
    <glyph glyph-name="file-app"
      unicode="&#xE039;"
      horiz-adv-x="792.08" d=" M500.79 599.22A58.24000000000001 58.24000000000001 0 0 0 442.55 658L444.69 883H105.78A34.12 34.12 0 0 1 71.66 848.88V151.06A34.12 34.12 0 0 1 105.78 116.94H686.3A34.12 34.12 0 0 1 720.42 151.06V599.22H500.79zM227.55 325Q227.3 344.75 227.55 364.5C227.62 371.05 230.4 373.9600000000001 236.69 373.99C261.27 374.0900000000001 285.85 373.99 310.43 373.99A38 38 0 0 0 315.04 373.23C311.28 367 290.6600000000001 332 283 320A11.8 11.8 0 0 0 274.77 315.3400000000001C262.5 314.8300000000001 250.2 315.0400000000001 237.91 315.1600000000001C230.74 315.24 227.63 318.14 227.55 325zM283.4700000000001 229.2200000000001Q272.3800000000001 221.52 260.86 214.4400000000001C258.86 213.21 255.4700000000001 212.0400000000001 253.86 212.9200000000001A4 4 0 0 0 252.4 215.5700000000001A15.140000000000002 15.140000000000002 0 0 0 252.16 220.8000000000001C253.21 229.5800000000001 254.05 237.1800000000001 255.11 244.7400000000001C255.87 250.1900000000002 260.48 252.5700000000002 265.37 250.0500000000001C271.37 246.9400000000001 277.37 243.6500000000001 283.19 240.1600000000001S289.23 233.24 283.4700000000001 229.24zM295.0900000000001 244.13C290.0100000000001 246.77 286.0900000000001 248.77 282.2700000000001 250.79C260.42 262.19 262.7600000000001 262.41 274.1300000000001 281.4Q315.79 351 357.24 420.68C363.24 430.81 366.33 431.68 376.83 426.01C380.89 423.81 384.91 421.55 388.94 419.29C397.42 414.55 398.44 411.05 393.57 402.9C369.48 362.51 309.51 261.62 303.21 251.8399999999999C301.27 248.81 297.87 246.7200000000001 295.08 244.15zM356.29 315.64C357.5800000000001 318.4 378.11 353.38 387.29 369.14C389.4500000000001 372.86 392.05 374.3 396.29 374.14C403.29 373.8400000000001 410.38 374.37 417.3900000000001 373.88C419.7400000000001 373.7200000000001 423.0700000000001 372.0800000000001 424.0300000000001 370.16C432.5000000000001 353.28 449.11 317.51 449.5800000000001 315.66H356.2800000000001zM484.59 294C478.59 294.4 474.33 297.68 471.59 302.89C462.1799999999999 321.02 452.23 338.89 443.64 357.42C426 395.4700000000001 409 433.8200000000001 392 472.21C388.75 479.58 386.74 487.58 384.9 495.46A8.29 8.29 0 0 0 385.49 499.8700000000001A4.28 4.28 0 0 0 390.88 502.5400000000001A7 7 0 0 0 394.4699999999999 500.4100000000001C402.5599999999999 489.2000000000001 410.76 477.9800000000001 417.7699999999999 466.08C446.2 417.8000000000001 474.2199999999999 369.2800000000001 502.3299999999999 320.8100000000001C504.1699999999999 317.6300000000001 505.5399999999999 314.1800000000001 506.9599999999999 311.2100000000001A51.09 51.09 0 0 0 505.2399999999999 306.2100000000001C502.37 300 491.42 293.53 484.59 294zM503.1799999999999 255.7100000000001C499.1 261.7100000000001 494.8199999999999 267.5400000000001 491.4499999999999 273.89C490.17 276.31 489.92 281.5800000000001 491.4499999999999 282.75C496.9599999999999 287.1 503.3999999999999 290.28 509.7099999999999 294.03C513.15 291.68 516.3799999999999 290.54 517.8399999999999 288.26C521.7399999999999 282.26 525.54 275.92 528.0099999999999 269.26C529.0799999999999 266.36 527.8199999999998 261.3400000000001 525.7399999999999 258.86C523.0899999999999 255.7000000000001 518.7399999999999 253.66 514.7399999999999 252.02C510.22 250.14 506 251.5900000000001 503.18 255.7000000000001zM553.4399999999999 204.37C546.8699999999999 207.4500000000001 540.4399999999999 209.85 534.7199999999999 213.3200000000001C529.7199999999999 216.3200000000001 524.7199999999999 219.87 521.16 224.3200000000001C515.37 231.6600000000001 516.93 239.4300000000001 523.88 244.48C531.82 250.24 541.63 249.79 547.26 243.41C553.57 236.25 557.13 214 553.44 204.36zM564.56 325.73C564.4799999999999 318.3300000000001 561.4499999999999 315.28 554.17 315.1800000000001C544.0699999999999 315.0400000000001 533.9599999999999 314.9200000000001 523.88 315.3100000000001C521.54 315.4000000000001 518.22 316.98 517.14 318.8800000000001C507.72 335.4800000000002 488.71 371.4500000000002 487.76 374.0700000000002H515.76C528.27 374.0700000000002 540.76 374.0700000000002 553.3 374.0700000000002C561.81 374.0700000000002 564.51 371.5300000000002 564.5799999999999 363.2800000000002C564.67 350.75 564.69 338.23 564.56 325.7200000000001z M498.76 858.73L498.76 666.81L690.69 666.81L498.76 858.73z" />
    <glyph glyph-name="file-audio"
      unicode="&#xE03A;"
      horiz-adv-x="792.08" d=" M500.79 600.9A58.24000000000001 58.24000000000001 0 0 0 442.55 659.7L444.69 884.7H105.78A34.12 34.12 0 0 1 71.66 850.5799999999999V152.73A34.12 34.12 0 0 1 105.78 118.61H686.3A34.12 34.12 0 0 1 720.42 152.73V600.9H500.79zM532.79 284.9700000000001C528.54 231.16 479 231.16 479 231.16S431.8 225.02 426.13 271.75S471.13 324.75 484.66 323.67C493.39 322.9599999999999 494.1 328.3 494.1 328.3V425C444.32 428.86 391.37 412.73 366.42 403.73V251C362.17 197.1900000000001 312.61 197.1900000000001 312.61 197.1900000000001S265.41 191.0500000000001 259.74 237.7800000000001S304.74 290.7800000000001 318.27 289.7000000000001C327 288.99 327.71 294.3300000000001 327.71 294.3300000000001V480.39C437.81 538.69 532.8 514.39 532.8 514.39V285z M498.76 860.41L498.76 668.48L690.69 668.48L498.76 860.41z" />
    <glyph glyph-name="file-certificate"
      unicode="&#xE03B;"
      horiz-adv-x="792.08" d=" M500.79 599.22A58.24000000000001 58.24000000000001 0 0 0 442.55 658L444.69 883H105.78A34.12 34.12 0 0 1 71.66 848.88V151.06A34.12 34.12 0 0 1 105.78 116.94H686.3A34.12 34.12 0 0 1 720.42 151.06V599.22H500.79zM451.23 219.22L423.4100000000001 184L396 287.12L368.67 184L340.85 219.1900000000001L293.3200000000001 188.0600000000001L338.2700000000001 327.6600000000001L337.3800000000001 327.6600000000001A16.21 16.21 0 0 0 320.4400000000001 344.6000000000002L320.6700000000001 349.6000000000002A16.21 16.21 0 0 1 311.9200000000001 364.7500000000001L307.4300000000001 367.0700000000002A16.21 16.21 0 0 0 301.2300000000001 390.2200000000002L304 394.5A16.21 16.21 0 0 1 304 412L301.27 416.25A16.21 16.21 0 0 0 307.47 439.4L311.96 441.7200000000001A16.21 16.21 0 0 1 320.71 456.87L320.48 461.87A16.21 16.21 0 0 0 337.42 478.8100000000001L342.42 478.58A16.21 16.21 0 0 1 357.57 487.33L359.89 491.8200000000001A16.21 16.21 0 0 0 383.0399999999999 498.02L387.2899999999999 495.29A16.21 16.21 0 0 1 404.7799999999999 495.29L409.0399999999999 498.02A16.21 16.21 0 0 0 432.1799999999999 491.8200000000001L434.4999999999999 487.33A16.21 16.21 0 0 1 449.6499999999999 478.58L454.6499999999999 478.8100000000001A16.21 16.21 0 0 0 471.5899999999999 461.87L471.3599999999998 456.87A16.21 16.21 0 0 1 480.1099999999998 441.7200000000001L484.5999999999999 439.4A16.21 16.21 0 0 0 490.7999999999998 416.25L488.13 412A16.21 16.21 0 0 1 488.13 394.51L490.86 390.26A16.21 16.21 0 0 0 484.66 367.11L480.17 364.79A16.21 16.21 0 0 1 471.42 349.64L471.65 344.64A16.21 16.21 0 0 0 454.71 327.7L453.8200000000001 327.7L498.77 188.0999999999999z M498.76 858.73L498.76 666.81L690.69 666.81L498.76 858.73z" />
    <glyph glyph-name="file-com"
      unicode="&#xE03C;"
      horiz-adv-x="792.08" d=" M422.75 380.9Q404.68 380.9 395.5 368.74T386.32 332.66Q386.32 308.73 395.4 296.66T422.55 284.55Q458.78 284.55 458.78 332.69T422.75 380.9z M500.79 599.22A58.24000000000001 58.24000000000001 0 0 0 442.55 658L444.69 883H105.78A34.12 34.12 0 0 1 71.66 848.88V151.06A34.12 34.12 0 0 1 105.78 116.94H686.3A34.12 34.12 0 0 1 720.42 151.06V599.22H500.79zM206.93 323.67L110 280.9V304.24L176.8 331.6800000000001L110 362.6800000000001V386.0700000000001L207 337.6300000000001V323.6300000000001zM294.14 284.31Q309.14 284.31 330.57 291.83V266.44Q312.99 259.1199999999999 291.31 259.1199999999999Q260.1600000000001 259.1199999999999 243.65 278.0199999999999T227.15 332.2699999999999Q227.15 354.5399999999999 235.26 371.2699999999999A58.58 58.58 0 0 0 258.54 397Q273.7200000000001 405.9400000000001 294.1400000000001 405.9400000000001Q314.9400000000001 405.9400000000001 335.9400000000001 395.8800000000001L326.1700000000001 371.2700000000001A162 162 0 0 1 310.0600000000001 377.9100000000001A48.080000000000005 48.080000000000005 0 0 1 294.1400000000001 380.7400000000001Q277.0500000000001 380.7400000000001 267.6800000000001 367.9000000000001T258.3100000000001 332.1100000000002Q258.3 284.3200000000001 294.14 284.3200000000001zM472.95 278.16Q455.37 259.16 422.56 259.16T372.17 278.16Q354.5900000000001 297.16 354.5900000000001 332.8499999999999T372.2200000000001 387.29Q389.85 406.0899999999999 422.7600000000001 406.0899999999999T473.1 387.1399999999999Q490.53 368.1899999999999 490.53 332.6499999999999T472.94 278.16zM672.75 261.07H644.53V328.65Q644.53 333.43 644.68 339.65T646 372.85H645.12L608.3 261.0700000000001H580.56L546.1899999999999 373.0700000000001H545.31Q547.16 338.8900000000001 547.17 327.4600000000001V261.0500000000001H520.11V403.85H561.32L595.11 294.6700000000001H595.7L631.5400000000001 403.8500000000002H672.7500000000001V261.0700000000001z M498.76 858.73L498.76 666.81L690.69 666.81L498.76 858.73z" />
    <glyph glyph-name="file-crx"
      unicode="&#xE03D;"
      horiz-adv-x="792.08" d=" M500.79 599.22A58.24000000000001 58.24000000000001 0 0 0 442.55 658L444.69 883H105.78A34.12 34.12 0 0 1 71.66 848.88V151.06A34.12 34.12 0 0 1 105.78 116.94H686.3A34.12 34.12 0 0 1 720.42 151.06V599.22H500.79zM330.42 477.38A150.75 150.75 0 0 0 470.75 472.38C493.6 459.1 511.66 439.9500000000001 524.95 417.3H396C378.42 417.3 362.69 413.68 348.83 402.95A76.61 76.61 0 0 1 321 361.0800000000001L277.49 434.3200000000001C291.3 452.92 310.1 467.4299999999999 330.42 477.38zM452.29 342.3300000000001A56.25 56.25 0 1 0 396 398.5800000000001A56.25 56.25 0 0 0 452.29 342.3300000000001zM282.6600000000001 244.18Q246 286.0700000000001 246 342.3300000000001C246 368.5 251.86 394.2800000000001 264.75 417.3300000000001L326.31 309.5A78.09 78.09 0 0 1 354.44 277.86A74.32 74.32 0 0 1 396 265.56C405.56 265.56 412.87 268.08 417.24 269.3699999999999L373.73 194.0799999999999Q319.28 202.29 282.6600000000001 244.18zM502.66 236.8599999999999Q459.29 192.9099999999999 397.7700000000001 192.3299999999999L459.29 298.33A76.72 76.72 0 0 1 472.77 342.33C472.77 363.81 462.77 383.33 447.5700000000001 398.58H534.73C542.78 381.58 546.01 361.4599999999999 546.01 342.33Q546 280.8 502.69 236.86z M498.76 858.73L498.76 666.81L690.69 666.81L498.76 858.73z" />
    <glyph glyph-name="file-database"
      unicode="&#xE03E;"
      horiz-adv-x="792.08" d=" M500.79 599.22A58.24000000000001 58.24000000000001 0 0 0 442.55 658L444.69 883H105.78A34.12 34.12 0 0 1 71.66 848.88V151.06A34.12 34.12 0 0 1 105.78 116.94H686.3A34.12 34.12 0 0 1 720.42 151.06V599.22H500.79zM569.33 233.7000000000001C569.33 200.6 491.7500000000001 173.7700000000001 396.0400000000001 173.7700000000001S222.75 200.6 222.75 233.7000000000001V293.63C222.75 282.7100000000001 231.19 272.48 245.94 263.63C275.94 245.7200000000001 331.94 233.63 396.04 233.63S516.18 245.68 546.14 263.63C560.89 272.4500000000001 569.33 282.63 569.33 293.63V233.7000000000001zM569.33 308.3000000000001A21.93 21.93 0 0 0 568 301A28.809999999999995 28.809999999999995 0 0 0 564.06 293.67C557.9599999999999 285.28 546.75 277.5999999999999 531.64 271.04C499.92 257.2100000000001 451 248.37 396 248.37S292.1600000000001 257.2100000000001 260.4100000000001 271C245.3 277.56 234.0900000000001 285.24 227.99 293.63A28.82 28.82 0 0 0 224 301A21.94 21.94 0 0 0 222.71 308.3300000000001V368.23C222.71 357.3100000000001 231.15 347.0800000000001 245.9 338.23A126.39999999999999 126.39999999999999 0 0 1 260.37 330.9C292.12 317.11 341.07 308.27 396 308.27S499.88 317.11 531.63 330.9A126.39999999999999 126.39999999999999 0 0 1 546.1 338.23C560.85 347.0500000000001 569.2900000000001 357.23 569.2900000000001 368.23V308.3zM569.33 382.9000000000001A21.93 21.93 0 0 0 568.0400000000001 375.5700000000001A28.799999999999997 28.799999999999997 0 0 0 564.1 368.24C558 359.85 546.7900000000001 352.17 531.6800000000001 345.61A196.42000000000002 196.42000000000002 0 0 0 511.6800000000001 338.28C481 328.75 440.4700000000001 323 396 323S311 328.79 280.38 338.3A196.44999999999996 196.44999999999996 0 0 0 260.38 345.63C245.27 352.19 234.06 359.88 227.96 368.26A28.809999999999995 28.809999999999995 0 0 0 224.02 375.5900000000001A21.93 21.93 0 0 0 222.73 382.9200000000001V442.8300000000001C222.73 475.9300000000001 300.31 502.76 396.02 502.76S569.31 475.9300000000001 569.31 442.8300000000001V382.9z M498.76 858.73L498.76 666.81L690.69 666.81L498.76 858.73z" />
    <glyph glyph-name="file-dmg"
      unicode="&#xE03F;"
      horiz-adv-x="792.08" d=" M500.79 599.22A58.24000000000001 58.24000000000001 0 0 0 442.55 658L444.69 883H105.78A34.12 34.12 0 0 1 71.66 848.88V151.06A34.12 34.12 0 0 1 105.78 116.94H686.3A34.12 34.12 0 0 1 720.42 151.06V599.22H500.79zM538.21 276.5700000000001L532.27 256.2100000000001A10.26 10.26 0 0 0 522.42 248.8200000000001H494.48C477.38 222.5300000000001 439.75 204.2700000000001 396.0700000000001 204.2700000000001S314.7500000000001 222.5300000000001 297.6600000000001 248.8200000000001H269.3A10.26 10.26 0 0 0 259.4100000000001 256.3400000000001L253.73 276.8000000000001A40.57 40.57 0 0 0 253.0000000000001 295.4000000000001L282.1 445.0800000000002A10.26 10.26 0 0 0 292.17 453.3800000000001H500A10.26 10.26 0 0 0 510.07 445.0800000000002L539.12 295.6700000000002A40.57 40.57 0 0 0 538.21 276.5700000000001z M498.76 858.73L498.76 666.81L690.69 666.81L498.76 858.73z M520.51 274.14H271.62A5 5 0 0 1 266.62 269.14V267.69A5 5 0 0 1 271.62 262.69H290.82A56.25999999999999 56.25999999999999 0 0 0 288.69 270.9599999999999H364.36A26.6 26.6 0 0 1 372.6500000000001 262.69A45.54 45.54 0 0 1 419.48 262.69A26.59 26.59 0 0 1 427.7700000000001 270.9599999999999H503.4400000000001A56.25999999999999 56.25999999999999 0 0 0 501.3100000000001 262.69H520.5100000000001A5 5 0 0 1 525.5100000000001 267.69V269.14A5 5 0 0 1 520.51 274.14z" />
    <glyph glyph-name="file-document"
      unicode="&#xE040;"
      horiz-adv-x="792.08" d=" M500.79 599.22A58.24000000000001 58.24000000000001 0 0 0 442.55 658L444.69 883H105.78A34.12 34.12 0 0 1 71.66 848.88V151.06A34.12 34.12 0 0 1 105.78 116.94H686.3A34.12 34.12 0 0 1 720.42 151.06V599.22H500.79zM433.32 209.55A24.930000000000003 24.930000000000003 0 0 0 408.39 184.62H251.12A24.930000000000003 24.930000000000003 0 0 0 226.19 209.55V221A24.930000000000003 24.930000000000003 0 0 0 251.12 245.93H408.38A24.930000000000003 24.930000000000003 0 0 0 433.32 221V209.59zM545.46 303.06A24.930000000000003 24.930000000000003 0 0 0 520.5300000000001 278.13H251.12A24.930000000000003 24.930000000000003 0 0 0 226.19 303.06V314.48A24.930000000000003 24.930000000000003 0 0 0 251.12 339.41H520.52A24.930000000000003 24.930000000000003 0 0 0 545.4499999999999 314.48V303.0700000000001zM545.46 396.57A24.930000000000003 24.930000000000003 0 0 0 520.5300000000001 371.64H251.12A24.930000000000003 24.930000000000003 0 0 0 226.19 396.57V408A24.930000000000003 24.930000000000003 0 0 0 251.12 432.93H520.52A24.930000000000003 24.930000000000003 0 0 0 545.45 408V396.5900000000001zM545.46 490.0799999999999A24.930000000000003 24.930000000000003 0 0 0 520.5300000000001 465.15H251.12A24.930000000000003 24.930000000000003 0 0 0 226.19 490.08V501.51A24.930000000000003 24.930000000000003 0 0 0 251.12 526.44H520.52A24.930000000000003 24.930000000000003 0 0 0 545.4499999999999 501.51V490.1z M498.76 858.73L498.76 666.8L690.69 666.8L498.76 858.73z" />
    <glyph glyph-name="file-email"
      unicode="&#xE041;"
      horiz-adv-x="792.08" d=" M500.79 599.22A58.24000000000001 58.24000000000001 0 0 0 442.55 658L444.69 883H105.78A34.12 34.12 0 0 1 71.66 848.88V151.06A34.12 34.12 0 0 1 105.78 116.94H686.3A34.12 34.12 0 0 1 720.42 151.06V599.22H500.79zM213.36 500.42H551.93A5.41 5.41 0 0 0 555.54 490.99L415.15 364.88S404.15 353.88 382.64 353.88S350.13 364.88 350.13 364.88L209.75 491A5.41 5.41 0 0 0 213.36 500.42zM569.1 232.28A5.41 5.41 0 0 0 563.69 226.87H201.59A5.41 5.41 0 0 0 196.18 232.28V460.5A5.41 5.41 0 0 0 205.09 464.62L312.0900000000001 373.4600000000001L247.0900000000001 292.4600000000001L328.6600000000001 356.86S345.2200000000001 331.1 382.6600000000001 331.1S436.6600000000001 356.86 436.6600000000001 356.86L518.23 292.4600000000001L453.23 373.4600000000001L560.23 464.62A5.41 5.41 0 0 0 569.14 460.5V232.28z M498.76 858.73L498.76 666.8L690.69 666.8L498.76 858.73z" />
    <glyph glyph-name="file-excel"
      unicode="&#xE042;"
      horiz-adv-x="792.08" d=" M500.79 599.22A58.24000000000001 58.24000000000001 0 0 0 442.55 658L444.69 883H105.78A34.12 34.12 0 0 1 71.66 848.88V151.06A34.12 34.12 0 0 1 105.78 116.94H686.3A34.12 34.12 0 0 1 720.42 151.06V599.22H500.79zM382.35 177.77H121.46V246.11H382.36V177.76zM382.35 273.8399999999999H121.46V342.18H382.36V273.83zM382.35 369.9099999999999H121.46V438.25H382.36V369.9zM670.62 177.77H409.73V246.11H670.63V177.76zM670.62 273.8399999999999H409.73V342.18H670.63V273.83zM670.62 369.9099999999999H409.73V438.25H670.63V369.9z M498.76 858.73L498.76 666.81L690.69 666.81L498.76 858.73z" />
    <glyph glyph-name="file-executable"
      unicode="&#xE043;"
      horiz-adv-x="792.08" d=" M-853.4335030927255 487.8421256107852C-882.1004782797194 471.36432835739 -891.9817593572257 434.7672593759031 -875.5039621038304 406.100284188909C-859.0261648504353 377.433309001915 -822.4290958689483 367.552027924409 -793.7621206819542 384.0298251778042C-765.0951454949602 400.5076224311994 -755.2138644174543 437.1046914126862 -771.6916616708494 465.7716665996802C-788.1694589242446 494.4386417866742 -824.7665279057314 504.3199228641803 -853.4335030927255 487.8421256107852z M500.79 599.22A58.24000000000001 58.24000000000001 0 0 0 442.55 658L444.69 883H105.78A34.12 34.12 0 0 1 71.66 848.88V151.06A34.12 34.12 0 0 1 105.78 116.94H686.3A34.12 34.12 0 0 1 720.42 151.06V599.22H500.79zM540.41 290.75L512.52 247.67L467.36 261.1L437 242.5900000000001L428.14 196.24L377.07 191.1900000000001L359.47 234.9200000000001L326 247.12L284.18 225.12L248.39 261.9L271.7 303L260.4 336.6900000000001L217.05 355.5900000000001L223.49 406.5L270.18 414L289.51 443.86L277.2 489.49L321 516.1800000000001L356 484.4L391.4 487.9L419.34 525.9L467.54 508.3L464.54 461.16L489.35 435.67L536.43 437.4699999999999L552.7199999999999 388.81L514.0799999999999 361.81L509.6199999999999 326.52z M498.76 858.73L498.76 666.8L690.69 666.8L498.76 858.73z" />
    <glyph glyph-name="file-icon"
      unicode="&#xE044;"
      horiz-adv-x="792.1" d=" M444.7 883.1H105.8C87 883.1 71.7 867.8 71.7 849V151.1C71.7 132.3000000000001 87 117 105.8 117H686.3C705.0999999999999 117 720.4 132.3 720.4 151.1V599.2H500.8C468.4 599.2 442.3 625.5999999999999 442.6 658L444.7 883.1z M498.8 858.7L690.7 666.8L498.8 666.8z" />
    <glyph glyph-name="file-ics"
      unicode="&#xE045;"
      horiz-adv-x="792.08" d=" M352.9 325.29H386.48V298.04H352.9V325.29z M403.32 330.92H445.32V292.43H403.32V330.92z M346.76 365.8400000000001H393.84V342.14H346.76V365.8400000000001z M346.76 281.2000000000001H393.84V257.5H346.76V281.2000000000001z M402.57 286.17A8.45 8.45 0 0 0 399.57 282.64L398.2 281.7100000000001V257.5H445.28V288H403.4z M302.6600000000001 330.92H336.05V292.43H302.6600000000001V330.92z M302.6600000000001 335.3300000000001H336L336.83 337.1700000000001A8.47 8.47 0 0 0 340.68 341.1700000000001L342.37 342.0400000000001V365.8400000000001H302.6600000000001V335.3400000000001z M336.8 286.17L336 288H302.6600000000001V257.5H342.3400000000001V281.26L340.6400000000001 282.13A8.48 8.48 0 0 0 336.8 286.17z M275.64 392.15V237.24C276.04 230.24 282.89 230.24 283.64 230.3H508.32C509.69 230.3 516.06 230.53 516.45 237.42V392.15H275.64zM500.07 255.29A8.46 8.46 0 0 0 491.62 246.8499999999999H300.45A8.46 8.46 0 0 0 292.01 255.29V368A8.46 8.46 0 0 0 300.45 376.4400000000001H491.63A8.46 8.46 0 0 0 500.08 368V255.29z M398.25 341.62L399.62 340.6900000000001A8.45 8.45 0 0 0 402.62 337.1700000000001L403.45 335.3300000000001H445.37V365.8300000000001H398.25V341.61z M500.79 599.22A58.24000000000001 58.24000000000001 0 0 0 442.55 658L444.69 883H105.78A34.12 34.12 0 0 1 71.66 848.88V151.06A34.12 34.12 0 0 1 105.78 116.94H686.3A34.12 34.12 0 0 1 720.42 151.06V599.22H500.79zM479.22 494.9A5.54 5.54 0 0 0 480.22 498.02A5.58 5.58 0 0 0 489.5 498.02H489.5A5.530000000000001 5.530000000000001 0 0 0 490.5 494.91V451.91A5.599999999999999 5.599999999999999 0 0 0 479.31 451.91V494.91zM301.6600000000001 494.9A5.52 5.52 0 0 0 302.6600000000001 498.02A5.58 5.58 0 0 0 311.94 498.02H311.94A5.530000000000001 5.530000000000001 0 0 0 312.94 494.91V451.91A5.599999999999999 5.599999999999999 0 0 0 301.75 451.91V494.91zM471.66 476.51V450.75A13.16 13.16 0 0 1 497.98 450.75V476.51H506.75A40.84 40.84 0 0 0 525.09 472.3199999999999A35.27 35.27 0 0 0 543.72 449A41.529999999999994 41.529999999999994 0 0 0 544.94 438.48V234C544.94 233.68 544.5500000000001 201.73 510.9400000000001 201.73H281.1C247.5300000000001 201.73 247.1 233.6700000000001 247.1 234V438.49A41.73 41.73 0 0 0 248.36 449A35.28 35.28 0 0 0 267 472.33A40.84 40.84 0 0 0 285.34 476.5200000000001H294.11V450.7600000000001A13.16 13.16 0 0 1 320.43 450.7600000000001V476.51 M449.74 365.8400000000001H489.42V335.3400000000001H449.74V365.8400000000001z M449.74 330.92H489.42V292.43H449.74V330.92z M449.74 288.01H489.42V257.51H449.74V288.01z M498.76 858.73L498.76 666.81L690.69 666.81L498.76 858.73z" />
    <glyph glyph-name="file-image"
      unicode="&#xE046;"
      horiz-adv-x="1000" d=" M958.3333333333331 250V750C958.3333333333331 795.8333333333334 920.8333333333334 833.3333333333334 875 833.3333333333334H125C79.1666666666667 833.3333333333334 41.6666666666667 795.8333333333334 41.6666666666667 750V250C41.6666666666667 204.1666666666666 79.1666666666667 166.6666666666668 125 166.6666666666668H875C920.8333333333334 166.6666666666668 958.3333333333331 204.1666666666666 958.3333333333331 250zM354.1666666666667 479.1666666666667L458.3333333333333 354.1666666666668L604.1666666666666 541.6666666666667L791.6666666666666 291.6666666666668H208.3333333333333L354.1666666666667 479.1666666666667z" />
    <glyph glyph-name="file-jar"
      unicode="&#xE047;"
      horiz-adv-x="792.08" d=" M480.68 361.24A2.34 2.34 0 0 1 478.88 359.16C476.39 332.26 466.1 310 459.79 298.55A2.34 2.34 0 0 1 463.11 295.45C511.51 326.3599999999999 514.9200000000001 337.4999999999999 514.7 354.45C514.53 368.11 487.69 362.85 480.68 361.24z M500.79 599.22A58.24000000000001 58.24000000000001 0 0 0 442.55 658L444.69 883H105.78A34.12 34.12 0 0 1 71.66 848.88V151.06A34.12 34.12 0 0 1 105.78 116.94H686.3A34.12 34.12 0 0 1 720.42 151.06V599.22H500.79zM392.88 508.55S377.06 478.45 402.3 459.3100000000001C416.94 448.2100000000001 419.43 415.0700000000001 391.6 410.0700000000001C391.6 410.0700000000001 411.6 424.3400000000001 386.6 452.1700000000001S392.88 508.55 392.88 508.55zM347.88 508.55S332.06 478.45 357.3 459.3100000000001C371.94 448.2100000000001 374.43 415.0700000000001 346.6 410.0700000000001C346.6 410.0700000000001 366.6 424.3400000000001 341.6 452.1700000000001S347.92 508.55 347.92 508.55zM456.72 199.55H308.23S270.43 210.3299999999999 257.38 238.8H507.61C494.56 210.36 456.76 199.5800000000001 456.76 199.5800000000001zM444.0200000000001 262.3399999999999L440.1800000000001 258.4999999999999A11.27 11.27 0 0 0 432.1800000000001 255.2H311A11.18 11.18 0 0 0 303.36 258.2C293.87 267.06 268.36 298.1299999999999 257.77 382.94C257.77 382.94 254.56 396.4999999999999 265.62 396.4999999999999H475.46S485.81 396.4999999999999 481.88 385.08H504S535.4 382.2299999999999 534.68 357.2499999999999S522.19 300.9 444.06 262.37z M498.76 858.73L498.76 666.81L690.69 666.81L498.76 858.73z" />
    <glyph glyph-name="file-locked"
      unicode="&#xE048;"
      horiz-adv-x="851" d=" M689.2 591.6H657.5V759.9C657.5 829.5 600.9 886.1 531.3 886.1H319.7C250.1 886.1 193.5 829.5 193.5 759.9V591.6H161.8C126.4 591.6 97.7 562.9000000000001 97.7 527.5V178C97.7 142.6 126.4 113.9 161.8 113.9H689.2C724.6 113.9 753.3000000000001 142.6 753.3000000000001 178V527.5C753.3000000000001 562.9 724.6 591.6 689.2 591.6zM450.4 341.6V228.7000000000001H383.6V341.6C358.6 353.9 341.3 379.6 341.3 409.4C341.3 451.1999999999999 375.2 485.1 417 485.1S492.7 451.2 492.7 409.4C492.6 379.7 475.4 354 450.4 341.6zM583.3000000000001 591.6H267.7V759.9C267.7 788.6 291 811.9 319.7 811.9H531.3C560 811.9 583.3 788.6 583.3 759.9V591.6z" />
    <glyph glyph-name="file-misc"
      unicode="&#xE049;"
      horiz-adv-x="792.08" d=" M444.7 883.06H105.78A34.12 34.12 0 0 1 71.66 848.94V151.06A34.12 34.12 0 0 1 105.78 116.94H686.3A34.12 34.12 0 0 1 720.42 151.06V599.22H500.79A58.24000000000001 58.24000000000001 0 0 0 442.55 658z M498.76 858.73L690.69 666.8L498.76 666.8L498.76 858.73z" />
    <glyph glyph-name="file-pdf"
      unicode="&#xE04A;"
      horiz-adv-x="792.08" d=" M401.14 500.62A15.33 15.33 0 0 1 399.7 506.62C398.65 508.81 396.96 510.97 394.62 509.93C390.29 508.01 390.93 489.93 394.62 473.71C394.61 473.7 402.17 476.1 401.14 500.62z M272.89 206.85A6.74 6.74 0 0 1 280.56 198.71C290.7 200.36 312.31 208.59 331.15 247.0900000000001C331.15 247.1 277.49 225.53 272.89 206.85z M369.29 282.67S436.92 311.04 456.15 312.16C456.15 312.16 412.0800000000001 366.33 404.87 390.37C404.87 390.37 386.92 313.4400000000001 369.29 282.67z M496.54 302.55S508.4 294.7 514.1700000000001 293.26C514.17 293.25 519 305.43 496.54 302.55z M500.79 599.22A58.24000000000001 58.24000000000001 0 0 0 442.55 658L444.69 883H105.78A34.12 34.12 0 0 1 71.66 848.88V151.06A34.12 34.12 0 0 1 105.78 116.94H686.3A34.12 34.12 0 0 1 720.42 151.06V599.22H500.79zM540.79 289.7200000000001S523 269.7200000000001 498.16 280.1S470.9 298.7000000000001 470.9 298.7000000000001S382.9 273.7000000000001 358.08 258.9600000000001C358.08 258.9600000000001 313.53 176.4200000000001 274.43 181.23S249.43 208.64 249.43 208.64S250.87 227.07 342.7 271.4600000000001C342.7 271.4600000000001 382.44 361.36 390.14 424.98C390.14 424.98 376.5199999999999 452.38 375.3999999999999 493.25S399.3999999999999 529.49 399.3999999999999 529.49S419.75 533 419.2699999999999 496.78A390.60999999999996 390.60999999999996 0 0 0 412.5399999999999 430.4300000000001S458.8499999999999 338.6 479.5399999999999 319.2100000000001C479.5399999999999 319.2100000000001 522.6499999999999 328.5 537.54 316S540.77 289.73 540.77 289.73z M498.76 858.73L498.76 666.8L690.69 666.8L498.76 858.73z M280.57 198.72A6.74 6.74 0 0 0 272.9 206.86C277.49 225.54 331.16 247.11 331.16 247.11C312.31 208.59 290.7 200.37 280.57 198.72zM394.57 509.92C396.91 510.92 398.57 508.81 399.65 506.61A15.33 15.33 0 0 0 401.09 500.61C402.09 476.09 394.56 473.6900000000001 394.56 473.6900000000001C390.93 489.88 390.29 508 394.61 509.92zM369.29 282.67C386.92 313.44 404.87 390.3599999999999 404.87 390.3599999999999C412.08 366.3599999999999 456.15 312.1499999999999 456.15 312.1499999999999C436.92 311 369.29 282.67 369.29 282.67zM514.1600000000001 293.25C508.3900000000001 294.6900000000001 496.5300000000001 302.54 496.5300000000001 302.54C519 305.43 514.17 293.25 514.17 293.25z" />
    <glyph glyph-name="file-photoshop"
      unicode="&#xE04B;"
      horiz-adv-x="792.08" d=" M302.1600000000001 450.24C290.4100000000001 450.67 278.2700000000001 450.24 278.2700000000001 450.24V355.9C284.4900000000001 355.3 288.3900000000001 355.5900000000001 297.6 355.7C328.3 356.07 347.25 374.7 347.25 402.9799999999999C347.26 428.3400000000001 331.64 449.16 302.1600000000001 450.24z M500.79 599.22A58.24000000000001 58.24000000000001 0 0 0 442.55 658L444.69 883H105.78A34.12 34.12 0 0 1 71.66 848.88V151.06A34.12 34.12 0 0 1 105.78 116.94H686.3A34.12 34.12 0 0 1 720.42 151.06V599.22H500.79zM381 341.38C361.29 321.3300000000001 338.32 309.4600000000001 299.13 307.82C288.3 307.3699999999999 278.28 307.26 278.28 307.26V219.46H221V492.67S263.83 493.8 299.0900000000001 493.8C334.7200000000001 493.8 360.0900000000001 485.42 377.17 470.6900000000001C393.4700000000001 456.7700000000001 404.4600000000001 433.0400000000001 404.4600000000001 406.0300000000001S396.1600000000001 356.92 381 341.38zM483.65 218.38C463.7 219.01 441.6 226.89 426.34 235.2200000000001V280.62H426.34C437.88 273.54 465.1 262.9400000000001 483.65 262.9400000000001C502.65 262.9400000000001 510.44 269.62 510.44 280.0400000000001S504.26 301.4300000000001 480.76 309.35C439.12 323.53 423.05 340.5 423.46 364.25C423.46 402.62 455.61 431.38 505.46 431.38C528.96 431.38 547.73 423.7000000000001 560.09 417.4500000000001V371.4500000000001C551.01 376.4500000000001 524.84 387.6400000000001 507.53 387.6400000000001C492.27 387.6400000000001 483.62 381.3900000000001 483.62 370.9700000000002C483.62 361.3800000000001 491.46 356.3700000000001 516.19 347.6100000000002C554.5200000000001 334.2700000000001 570.6 314.6800000000002 571.0100000000001 284.6100000000002C571 246.67 541.79 216.5 483.65 218.3300000000001z M498.76 858.73L498.76 666.8L690.69 666.8L498.76 858.73z" />
    <glyph glyph-name="file-plugin"
      unicode="&#xE04C;"
      horiz-adv-x="792.08" d=" M500.79 599.22A58.24000000000001 58.24000000000001 0 0 0 442.55 658L444.69 883H105.78A34.12 34.12 0 0 1 71.66 848.88V151.06A34.12 34.12 0 0 1 105.78 116.94H686.3A34.12 34.12 0 0 1 720.42 151.06V599.22H500.79zM544.91 315.2200000000001A21.13 21.13 0 0 0 544.91 272.9600000000001H484V210.2000000000001H430.59V232.63H307.43A35.32 35.32 0 0 0 272.11 267.9500000000001V295H260.48A34.44 34.44 0 0 0 226 329.4400000000001V355.2100000000001A34.44 34.44 0 0 0 260.44 389.6500000000001H272.07V416.7100000000001A35.32 35.32 0 0 0 307.43 452H430.59V474.45H484V410.7700000000001H544.88A21.13 21.13 0 0 0 544.88 368.5100000000001H484V315.1700000000001H544.88z M498.76 858.73L498.76 666.81L690.69 666.81L498.76 858.73z" />
    <glyph glyph-name="file-powerpoint"
      unicode="&#xE04D;"
      horiz-adv-x="792.08" d=" M500.79 599.22A58.24000000000001 58.24000000000001 0 0 0 442.55 658L444.69 883H105.78A34.12 34.12 0 0 1 71.66 848.88V151.06A34.12 34.12 0 0 1 105.78 116.94H686.3A34.12 34.12 0 0 1 720.42 151.06V599.22H500.79zM411.9100000000001 566.33C452.75 566.33 487.65 546.1800000000001 508.08 510.8100000000001L411.9100000000001 455.2900000000001V566.2900000000001zM507.29 496.4200000000001A106.16 106.16 0 0 0 522.1700000000001 440.9000000000001H411.1700000000001zM396 538.7V427.7000000000001H507A111 111 0 1 0 396 538.7zM567.37 184.25H224.71V222.61H567.37V184.25zM567.37 246.48H224.71V284.8400000000001H567.37V246.48z M498.76 858.73L498.76 666.8L690.69 666.8L498.76 858.73z" />
    <glyph glyph-name="file-programming"
      unicode="&#xE04E;"
      horiz-adv-x="792.08" d=" M500.79 599.22A58.24000000000001 58.24000000000001 0 0 0 442.55 658L444.69 883H105.78A34.12 34.12 0 0 1 71.66 848.88V151.06A34.12 34.12 0 0 1 105.78 116.94H686.3A34.12 34.12 0 0 1 720.42 151.06V599.22H500.79zM305.7200000000001 397.3300000000001L199.76 349L305.76 305.93V255.51L132.94 332.2100000000001V361.61L305.7200000000001 448.0800000000001V397.3200000000001zM379.55 221.6500000000001H320.42L413.56 478.5H472.69zM658.46 332.2100000000001L485.68 255.48V305.89L591.6800000000001 348.9600000000001L485.6800000000001 397.3200000000001V448.0800000000001L658.46 361.61V332.2200000000001z M498.76 858.73L498.76 666.8L690.69 666.8L498.76 858.73z" />
    <glyph glyph-name="file-rar"
      unicode="&#xE04F;"
      horiz-adv-x="792.08" d=" M500.79 599.22A58.24000000000001 58.24000000000001 0 0 0 442.55 658L444.69 883H105.78A34.12 34.12 0 0 1 71.66 848.88V151.06A34.12 34.12 0 0 1 105.78 116.94H686.3A34.12 34.12 0 0 1 720.42 151.06V599.22H500.79zM460.36 282.11H435.69V153.9100000000001H335.69V282.11H311V431.4400000000001H335.67V559.64H435.67V431.4400000000001H460.34V282.11z M498.76 858.73L498.76 666.8L690.69 666.8L498.76 858.73z M335.38 407.0800000000001H335.69V306.4700000000001H335.38V407.0800000000001z M435.69 407.0800000000001H436V306.4700000000001H435.69V407.0800000000001z M396.31 367.4A10.62 10.62 0 1 0 375.06 367.4V407.0800000000001H335.69V306.4700000000001H435.69V407.0800000000001H396.31V367.4z" />
    <glyph glyph-name="file-vcf"
      unicode="&#xE050;"
      horiz-adv-x="792.08" d=" M500.79 599.22A58.24000000000001 58.24000000000001 0 0 0 442.55 658L444.69 883H105.78A34.12 34.12 0 0 1 71.66 848.88V151.06A34.12 34.12 0 0 1 105.78 116.94H686.3A34.12 34.12 0 0 1 720.42 151.06V599.22H500.79zM562.4 263.31C562.4 245.4 548.49 230.83 531.4 230.83H506.78A9.710000000000003 9.710000000000003 0 0 0 497.07 240.54V260.64A1.7800000000000002 1.7800000000000002 0 0 1 495.93 262.54H454.18A1.7800000000000002 1.7800000000000002 0 0 1 453.03 260.64V240.55A9.710000000000003 9.710000000000003 0 0 0 443.3200000000001 230.8399999999999H348.76A9.710000000000003 9.710000000000003 0 0 0 339.05 240.55V260.64A1.7800000000000002 1.7800000000000002 0 0 1 337.9000000000001 262.54H296.1600000000001A1.7800000000000002 1.7800000000000002 0 0 1 295.0100000000001 260.64V240.55A9.710000000000003 9.710000000000003 0 0 0 285.3000000000001 230.8399999999999H260.67C243.58 230.8399999999999 229.67 245.41 229.67 263.32V469.1900000000001C229.67 487.1 243.58 501.6700000000001 260.67 501.6700000000001H531.41C548.5 501.6700000000001 562.41 487.1 562.41 469.1900000000001V263.3200000000001z M255.66 420.5H415.98V392.81H255.6600000000001V420.5z M255.66 379.64H415.98V351.95H255.6600000000001V379.64z M255.66 461.36H415.98V433.67H255.6600000000001V461.36z M446.53 443.4600000000001C446.53 423.1303983587285 463.0103983587285 406.6500000000001 483.34 406.6500000000001C503.6696016412715 406.6500000000001 520.15 423.1303983587285 520.15 443.4600000000001C520.15 463.7896016412716 503.6696016412715 480.27 483.34 480.27C463.0103983587285 480.27 446.53 463.7896016412716 446.53 443.4600000000001z M483.34 399.48C480.34 399.48 431.87 395.29 431.27 340.8300000000001V302H535.41V340.8300000000001C534.81 395.29 486.33 399.48 483.34 399.48z M498.76 858.73L498.76 666.8L690.69 666.8L498.76 858.73z" />
    <glyph glyph-name="file-vector"
      unicode="&#xE051;"
      horiz-adv-x="792.08" d=" M500.79 599.22A58.24000000000001 58.24000000000001 0 0 0 442.55 658L444.69 883H105.78A34.12 34.12 0 0 1 71.66 848.88V151.06A34.12 34.12 0 0 1 105.78 116.94H686.3A34.12 34.12 0 0 1 720.42 151.06V599.22H500.79zM580.54 349.2200000000001A20.87 20.87 0 0 0 569.67 352.28L542.67 325.28A31 31 0 0 0 499.45 282L472.45 255A21.06 21.06 0 1 0 465.38 262.0700000000001L492.38 289.0700000000001A31 31 0 0 0 509.38 337.0700000000001A143.44 143.44 0 0 1 399.45 447A31 31 0 0 0 339.63 447A143.44 143.44 0 0 1 229.7 337.11A31 31 0 1 0 219.7 338.11A153.47 153.47 0 0 0 338.6 457.0599999999999A31 31 0 0 0 400.48 457.0599999999999A153.47 153.47 0 0 0 519.39 338.14A30.83 30.83 0 0 0 535.63 332.36L562.63 359.36A21 21 0 1 0 580.54 349.2000000000001z M498.76 858.73L498.76 666.81L690.69 666.81L498.76 858.73z" />
    </font>
</defs>
</svg>
