<?xml version="1.0" standalone="no"?>
<!DOCTYPE svg PUBLIC "-//W3C//DTD SVG 1.1//EN" "http://www.w3.org/Graphics/SVG/1.1/DTD/svg11.dtd">
<svg xmlns="http://www.w3.org/2000/svg">
<defs >
<font id="Quattrocento" horiz-adv-x="464" ><font-face
    font-family="Quattrocento"
    units-per-em="1000"
    panose-1="2 2 8 2 3 0 0 0 4 4"
    ascent="848"
    descent="-260"
    alphabetic="0" />
<glyph unicode=" " glyph-name="space" horiz-adv-x="240" />
<glyph unicode="!" glyph-name="exclam" horiz-adv-x="268" d="M196 683Q196 674 196 667T195 654Q195 643 194 632T192 603T188 554T184 473T179 350T173 172L168 165L93 139L87 143Q85 242 83 314T78 438T74 524T70 581T67 617T65 641L69 650L191 686L196 683ZM66
53Q66 65 71 77T85 98T105 113T130 119Q155 119 175 99T196 53Q196 40 191 29T176 8T154 -6T130 -11Q104 -11 85 8T66 53Z" />
<glyph unicode="&quot;" glyph-name="quotedbl" horiz-adv-x="340" d="M69 516L67 521Q66 569 64 619T55 717L56 721L153 730L155 726Q149 683 146 632T143 530L141 526L69 516ZM202 516L200 521Q199 569 197 619T188 717L190 721L286 730L288 726Q282 683 279
632T276 530L274 526L202 516Z" />
<glyph unicode="#" glyph-name="numbersign" horiz-adv-x="625" d="M276 4Q291 49 305 101T331 207H237Q226 153 219 101T206 4L203 0H87L86 4Q101 49 115 101T141 207H41L56 290H159L178 379H70L85 461H195Q205 506 212 556T224 650L226 654H342L344 650Q328
607 315 557T291 461H385Q395 506 402 556T414 650L416 654H532L534 650Q518 607 505 557T481 461H587L572 379H464L445 290H556L541 207H427Q416 153 409 101T396 4L393 0H277L276 4ZM255 290H349L368 379H273L255 290Z" />
<glyph unicode="$" glyph-name="dollar" horiz-adv-x="535" d="M173 509Q173 468 207 443T318 392Q352 380 384 363T441 320T481 259T497 176Q497 135 482 105T441 53T385 20T321 3Q323 -26 325 -54T331 -110L329 -114H213L212 -110Q215 -84 216 -56T220 2Q169
7 130 19T51 49L47 62L64 189H109L114 183Q119 127 152 101T253 75Q321 75 350 100T380 163Q380 193 368 214T337 249T292 274T240 294Q200 309 167 326T110 366T73 420T60 495Q60 533 72 561T106 609T157 639T222 654Q220 683 218 711T212 764L213 768H329L331
764Q324 713 322 653Q360 649 389 640T445 619L449 608L435 509H387L382 514Q380 535 370 548T345 567T314 576T284 579Q224 579 199 561T173 509Z" />
<glyph unicode="%" glyph-name="percent" horiz-adv-x="835" d="M195 660Q232 660 260 646T309 607T339 549T350 477Q350 439 340 406T310 347T261 307T192 292Q154 292 126 306T79 344T50 401T40 473Q40 514 50 548T81 607T130 646T195 660ZM195 350Q231 350
252 385T274 477Q274 535 252 568T193 602Q157 602 137 569T116 477Q116 412 139 381T195 350ZM641 369Q678 369 706 355T755 316T785 258T796 186Q796 148 786 115T756 56T707 16T638 1Q600 1 572 15T525 53T496 110T486 182Q486 223 496 257T527 316T576 355T641
369ZM641 59Q677 59 698 94T720 186Q720 244 698 277T639 311Q603 311 583 278T562 186Q562 121 585 90T641 59ZM132 23Q160 56 184 86T231 146T278 208T329 278L449 443Q486 494 526 550T601 669L606 673H722L721 669Q671 613 632 561T558 461L425 278Q398 240
375 208T332 146T292 86T252 23L247 19H131L132 23Z" />
<glyph unicode="&amp;" glyph-name="ampersand" horiz-adv-x="742" d="M469 233Q469 260 461 289T439 339Q420 337 412 331T396 315L382 337Q382 346 388 361T406 391T435 417T477 428Q486 428 502 427T537 424T578 421T619 420Q638 420 655 421T685 431L698 408Q698
405 693 393T678 367T650 342T608 331Q598 331 576 332T531 336Q538 318 544 295T550 252Q550 219 544 189T528 132Q563 93 597 71T681 46L686 41L689 -2L686 -6Q676 -6 661 -6T629 -8T600 -9T581 -10Q551 -10 522 9T467 54Q429 23 380 7T277 -10Q233 -10 192 1T119
36T68 93T49 172Q49 202 58 232T83 288T124 336T180 370Q148 412 133 443T118 513Q118 548 130 576T163 623T212 653T274 663Q296 663 319 658T362 641T396 610T416 564L419 554L407 483H354L350 487Q345 540 329 561T280 582Q251 582 234 565T216 526Q216 507
222 490T236 455Q243 440 257 420T296 369T361 295T459 188Q469 209 469 233ZM404 121Q364 165 323 208T239 301Q202 289 182 258T161 182Q161 156 172 136T202 102T243 81T289 74Q320 74 350 86T404 121Z" />
<glyph unicode="&apos;" glyph-name="quotesingle" horiz-adv-x="207" d="M69 516L67 521Q66 569 64 619T55 717L56 721L153 730L155 726Q149 683 146 632T143 530L141 526L69 516Z" />
<glyph unicode="(" glyph-name="parenleft" horiz-adv-x="309" d="M286 740V735Q248 687 221 635T179 523Q165 468 162 417T159 327Q159 288 162 241T178 142T216 33T286 -81V-86L241 -117Q145 -31 92 84T39 327Q39 455 92 569T241 771L286 740Z" />
<glyph unicode=")" glyph-name="parenright" horiz-adv-x="309" d="M68 771Q164 683 217 569T270 327Q270 199 217 84T68 -117L23 -86V-81Q68 -24 93 32T131 141T147 241T150 327Q150 365 147 416T130 523Q116 582 89 634T23 735V740L68 771Z" />
<glyph unicode="*" glyph-name="asterisk" horiz-adv-x="450" d="M393 492Q376 470 367 455T349 416Q347 416 345 415T341 414Q320 435 300 452T249 494Q252 468 255 450T261 419T267 396T274 374L267 369Q251 370 244 370T223 370Q211 370 202 370T177 369L172
374Q176 388 179 400T186 427T191 458T198 497Q181 482 169 472T148 453T131 436T113 417Q111 417 108 417T103 418Q92 439 83 454T57 490Q57 492 58 496T60 502Q92 510 118 518T174 538Q153 545 141 550T118 558T96 565T67 572L59 584Q76 604 87 618T108 653L121
652Q125 647 130 642T143 629T164 609T199 578Q193 613 189 637T174 694L179 704Q193 702 201 702T224 702Q237 702 246 702T267 704Q269 702 269 699T272 693Q264 664 259 639T248 579Q277 604 294 620T331 657Q336 656 338 656T342 655Q352 637 361 622T387 586Q386
584 385 580T383 574Q350 565 326 558T271 538Q289 532 302 527T329 518T356 509T391 500L393 492Z" />
<glyph unicode="+" glyph-name="plus" horiz-adv-x="488" d="M290 280H442L432 198H290V41H198V198H47L56 280H198V427H290V280Z" />
<glyph unicode="," glyph-name="comma" horiz-adv-x="244" d="M69 -117L53 -106L51 -92Q62 -67 68 -39T74 1Q74 17 66 32T58 70Q58 82 66 91T87 106T114 115T142 118Q155 118 163 112T175 98T181 81T182 65Q182 38 171 9T144 -47T112 -92T83 -117H69Z" />
<glyph unicode="-" glyph-name="hyphen" horiz-adv-x="468" d="M406 280L390 198H62L77 280H406Z" />
<glyph unicode="." glyph-name="period" horiz-adv-x="244" d="M57 53Q57 65 62 77T76 98T96 113T121 119Q146 119 166 99T187 53Q187 40 182 29T167 8T145 -6T121 -11Q95 -11 76 8T57 53Z" />
<glyph unicode="/" glyph-name="slash" horiz-adv-x="463" d="M34 -53Q67 14 98 94T156 249L223 433Q232 458 244 491T267 559T289 631T307 698L310 702H428L429 698Q412 667 397 631T368 560T342 491T321 433L253 249Q225 174 198 94T155 -53L152 -57H34V-53Z" />
<glyph unicode="0" glyph-name="zero" horiz-adv-x="638" d="M319 665Q382 665 431 638T515 565T567 457T585 329Q585 263 568 202T516 93T431 18T314 -11Q249 -11 201 16T120 88T71 194T54 322Q54 393 72 455T124 564T207 638T319 665ZM318 72Q354 72 381 92T428
147T458 228T468 328Q468 382 458 428T427 509T379 562T315 582Q280 582 254 563T209 510T182 430T172 329Q172 269 183 222T213 141T259 90T318 72Z" />
<glyph unicode="1" glyph-name="one" horiz-adv-x="396" d="M43 534L46 540Q98 566 144 593T235 663H242L274 654Q273 646 273 636T272 614T271 593T270 577Q269 561 269 547T268 514T267 468T267 399V278Q267 236 267 210T267 165T268 133T271 102Q273 81 280
71T295 53Q304 46 323 42T357 38L362 33L364 0L362 -4Q355 -4 341 -3T311 -2T281 -1T260 0H163Q156 0 142 0T112 -1T82 -3T61 -4L59 0L61 34L64 38Q80 38 100 41T129 53Q137 60 144 71T153 102Q154 115 155 127T156 156T157 196T157 254V397Q157 425 157 443T157
473T155 494T153 514L46 487L43 491V534Z" />
<glyph unicode="2" glyph-name="two" horiz-adv-x="564" d="M64 536L67 545Q80 568 100 589T148 628T211 655T292 665Q397 665 443 619T489 493Q489 446 467 407T411 323Q386 290 352 252T288 179T236 118T214 81L216 78H274Q331 78 365 79T418 87T446 108T462
147L467 153H514L496 4L487 -6Q480 -6 452 -5T391 -3T327 -1T282 0H183Q154 0 118 -2T50 -6L40 15V38Q61 65 97 106T173 194T253 288T322 373Q348 408 362 438T376 505Q376 541 350 561T286 582Q216 582 172 549T124 448L120 444H76L64 536Z" />
<glyph unicode="3" glyph-name="three" horiz-adv-x="547" d="M118 167Q119 149 128 132T156 102T201 80T263 72Q297 72 319 82T354 109T373 146T379 185Q379 208 373 231T353 272T319 301T271 312H239L234 316L231 374L236 379H254Q273 379 291 389T322 416T344
454T353 495Q353 530 330 556T260 583Q227 583 205 574T169 549T148 510T137 458L133 454H80L68 536L70 545Q81 566 99 587T143 626T202 654T278 665Q312 665 345 656T403 627T445 579T461 511Q461 480 453 455T432 411T404 380T374 361V357Q430 346 462 299T495
189Q495 145 478 108T429 45T352 4T253 -11Q118 -11 52 80L51 89L62 171H115L118 167Z" />
<glyph unicode="4" glyph-name="four" horiz-adv-x="540" d="M29 215L22 255Q40 287 64 326T114 406T166 487T215 561T255 620T282 656L387 665H395L407 644Q405 630 405 609T403 577Q402 561 402 547T401 514T400 468T400 399V285H485L489 279L478 208L471 203H400Q400
183 400 169T400 143T401 123T404 102Q406 81 413 71T429 53Q437 46 456 42T491 38L495 33L497 0L495 -4Q488 -4 474 -3T445 -2T415 -1T394 0H298Q291 0 275 0T242 -1T208 -3T185 -4L184 0L188 34L192 38Q200 38 210 39T231 42T250 46T263 53Q272 60 279 71T287
102Q289 121 290 145T291 203H72L29 215ZM288 541Q274 526 253 496T209 430T164 356T127 285H291V397Q291 413 291 432T291 471T290 509T288 541Z" />
<glyph unicode="5" glyph-name="five" horiz-adv-x="535" d="M376 201Q376 234 366 254T339 287T301 303T259 308Q223 308 188 300T124 275H114L77 320L75 327L107 646L113 654H213Q242 654 297 655T425 662L434 654L449 526L443 519H405L399 524Q395 542 390
552T368 568T322 575T240 576H210Q204 576 204 571L184 377Q203 387 227 392T278 397Q319 397 357 388T424 357T471 299T489 209Q489 156 471 115T421 46T343 4T244 -11Q170 -11 125 11T50 70L49 80L60 171H116L119 167Q121 126 154 99T254 72Q288 72 311 82T349
111T369 152T376 201Z" />
<glyph unicode="6" glyph-name="six" horiz-adv-x="551" d="M164 350Q183 382 221 398T306 414Q357 414 394 396T456 348T493 281T505 204Q505 165 493 127T455 58T388 8T286 -11Q224 -11 181 11T112 73T73 170T61 298Q61 337 65 379T79 463T105 540T148 604T209
648T293 665Q311 665 334 663T382 654T430 638T469 614L454 531H416Q407 545 393 555T362 571T330 579T300 582Q264 582 237 565T193 518T168 449T159 368Q159 364 159 360T160 351L164 350ZM284 325Q229 325 203 292T176 205Q176 182 181 158T199 114T232 81T285
68Q339 68 367 104T395 197Q395 218 391 240T374 281T340 312T284 325Z" />
<glyph unicode="7" glyph-name="seven" horiz-adv-x="526" d="M246 0Q215 0 178 -1T105 -6L98 4Q112 28 138 76T194 184T255 307T311 426T352 520T368 572L363 576H248Q198 576 167 575T118 569T92 553T81 524L75 519H37L32 526L47 654L55 662Q183 656 258 655T360
654H517L522 651L517 626Q510 618 496 592T463 530T424 449T382 358T342 267T307 187Q289 144 275 101T250 7L246 0Z" />
<glyph unicode="8" glyph-name="eight" horiz-adv-x="571" d="M283 665Q325 665 361 655T425 623T467 571T483 500Q483 470 477 448T459 411T434 385T406 369L396 365Q428 355 451 336T488 293T510 241T517 186Q517 150 506 115T467 52T396 7T285 -11Q220 -11
176 6T105 51T67 114T55 186Q55 247 82 295T166 365V369Q135 380 112 411T89 501Q89 540 103 570T142 622T204 654T283 665ZM284 320Q252 320 231 307T196 273T177 228T171 181Q171 154 181 134T207 100T245 80T288 73Q309 73 329 79T366 99T391 132T401 179Q401
203 395 228T374 273T338 307T284 320ZM367 504Q367 544 342 564T285 584Q255 584 230 565T205 506Q205 453 227 426T286 399Q304 399 318 407T344 429T361 463T367 504Z" />
<glyph unicode="9" glyph-name="nine" horiz-adv-x="551" d="M387 304Q368 272 330 256T245 240Q194 240 157 258T95 306T58 373T46 450Q46 489 58 527T96 596T163 646T265 665Q327 665 370 643T439 581T478 484T490 356Q490 317 486 275T472 191T446 114T403
50T342 6T258 -11Q240 -11 217 -9T169 0T121 16T82 40L97 123H135Q144 109 158 99T189 83T221 75T251 72Q287 72 314 89T358 136T383 205T392 286Q392 290 392 294T391 303L387 304ZM267 329Q322 329 348 362T375 449Q375 471 370 495T352 540T318 573T266 586Q212
586 184 550T156 457Q156 436 160 414T177 373T211 342T267 329Z" />
<glyph unicode=":" glyph-name="colon" horiz-adv-x="255" d="M63 389Q63 401 68 413T82 434T102 449T127 455Q152 455 172 435T193 389Q193 376 188 365T173 344T151 330T127 325Q101 325 82 344T63 389ZM63 53Q63 65 68 77T82 98T102 113T127 119Q152 119 172
99T193 53Q193 40 188 29T173 8T151 -6T127 -11Q101 -11 82 8T63 53Z" />
<glyph unicode=";" glyph-name="semicolon" horiz-adv-x="262" d="M80 -117L64 -106L62 -92Q73 -67 79 -39T85 1Q85 17 77 32T69 70Q69 82 77 91T98 106T125 115T153 118Q166 118 174 112T186 98T192 81T193 65Q193 38 182 9T155 -47T123 -92T94 -117H80ZM68 389Q68
401 73 413T87 434T107 449T132 455Q157 455 177 435T198 389Q198 376 193 365T178 344T156 330T132 325Q106 325 87 344T68 389Z" />
<glyph unicode="&lt;" glyph-name="less" horiz-adv-x="413" d="M161 238Q186 220 208 206T251 178T296 151T346 121V114L331 53L326 52Q257 103 185 149T41 238V243Q113 285 185 331T326 429L331 428L345 367V360Q318 345 296 331T252 304T208 276T161 243V238Z" />
<glyph unicode="=" glyph-name="equal" horiz-adv-x="486" d="M415 356L399 274H71L86 356H415ZM415 204L399 122H71L86 204H415Z" />
<glyph unicode="&gt;" glyph-name="greater" horiz-adv-x="413" d="M252 243Q227 261 205 275T162 303T118 331T68 360V367L82 428L87 429Q156 378 228 332T372 243V238Q300 196 228 150T87 52L82 53L67 114V121Q94 137 117 150T161 177T205 205T252 238V243Z" />
<glyph unicode="?" glyph-name="question" horiz-adv-x="422" d="M226 192L220 185L155 169L149 173Q148 193 147 216T146 250Q146 290 165 324T208 393T250 463T270 543Q270 580 250 597T210 614Q186 614 166 606T130 584T106 552T94 512L92 509H54L42 612L44
621Q54 638 73 650T117 670T166 682T213 686Q234 686 262 679T316 654T359 605T377 526Q377 495 367 467T340 412T306 361T271 315T243 272T230 234L226 192ZM123 53Q123 65 128 77T142 98T162 113T187 119Q212 119 232 99T253 53Q253 40 248 29T233 8T211 -6T187
-11Q161 -11 142 8T123 53Z" />
<glyph unicode="@" glyph-name="at" horiz-adv-x="721" d="M417 324Q411 330 392 330Q369 330 351 318T321 286T301 243T294 200Q294 177 305 162T327 146Q340 146 350 154T369 174T383 200T392 229L417 324ZM573 -23Q563 -32 542 -45T490 -71T423 -92T345 -101Q285
-101 232 -81T139 -25T76 64T52 180Q52 237 72 301T136 421T245 512T404 548Q474 548 525 526T610 469T660 390T676 301Q676 257 662 216T620 144T556 93T472 74Q436 74 418 94T399 147Q382 113 357 93T305 73Q290 73 275 80T248 103T229 140T221 193Q221 238 238
274T282 335T344 375T412 389Q436 389 464 381T510 356L476 208Q474 197 473 188T472 173Q472 162 478 154T501 145Q518 145 533 158T558 192T575 241T581 297Q581 329 571 361T540 419T484 461T403 477Q341 477 294 451T214 382T166 286T149 180Q149 125 166 86T211
21T277 -17T355 -29Q396 -29 431 -23T495 -7T545 13T577 31L587 12L573 -23Z" />
<glyph unicode="A" glyph-name="A" horiz-adv-x="699" d="M386 665L558 211Q567 186 574 169T585 140T593 121T600 107Q612 82 624 69T649 49T675 41T701 40L706 36L709 -2L707 -6Q700 -6 686 -5T657 -3T629 -1T608 0H535Q528 0 512 -1T479 -3T445 -5T422 -6L420
-2L423 36L427 40Q453 40 466 46T480 82Q480 98 475 127T449 201L428 249H253L233 201Q215 157 206 126T197 82Q197 58 207 49T243 40L248 36L251 -2L249 -6Q242 -6 227 -5T196 -3T164 -1T142 0H83Q76 0 62 -1T33 -3T5 -5T-16 -6L-17 -2L-15 36L-10 40Q3 40 16
42T42 51T67 70T93 103Q96 109 102 121T121 166T157 257T218 414L304 635L375 665H386ZM270 322H401L337 499L270 322Z" />
<glyph unicode="B" glyph-name="B" horiz-adv-x="615" d="M154 0Q147 0 131 -1T98 -3T65 -5T42 -6L40 -2L43 36L48 40Q60 40 76 41T101 49Q109 55 116 68T126 107Q127 122 127 152T128 241V451Q128 471 128 496T126 547Q124 574 117 586T101 604Q92 612 83 613T48
614L43 618L40 656L42 660Q49 660 60 659T84 657T110 655T134 654H210Q221 654 235 654T263 655T290 655T309 656Q363 656 401 645T464 614T499 566T511 504Q511 474 502 451T477 411T441 381T400 359Q482 346 527 304T572 188Q572 138 554 103T504 45T426 11T327
0H154ZM239 302Q239 281 239 252T239 196T240 147T242 117Q244 90 253 84T277 78H298Q322 78 350 82T404 99T446 132T463 186Q463 214 450 235T414 272T361 294T294 302H239ZM265 369Q297 369 316 373T359 394Q381 408 395 434T409 497Q409 535 379 555T294 576H244Q241
532 240 511T239 472V410Q239 387 241 378T256 369H265Z" />
<glyph unicode="C" glyph-name="C" horiz-adv-x="650" d="M543 507Q540 529 524 544T485 569T433 582T376 586Q287 586 238 541Q200 507 183 451T166 328Q166 265 183 217T231 137T304 88T396 71Q439 71 495 80T602 117L614 95L590 51Q538 19 486 4T378 -11Q303
-11 242 13T138 81T70 187T46 324Q46 394 67 456T131 565T236 638T382 665Q402 665 429 664T486 658T546 645T605 623L608 614L595 503H546L543 507Z" />
<glyph unicode="D" glyph-name="D" horiz-adv-x="753" d="M126 547Q124 572 117 585T101 604Q92 612 83 613T48 614L43 618L40 656L42 660Q49 660 62 659T90 657T119 655T145 654H242Q254 654 272 654T310 656T346 657T376 658Q454 658 515 632T619 560T683 455T706
328Q706 262 685 203T621 98T516 25T370 -2Q362 -2 346 -2T311 -1T275 -1T247 0H154Q147 0 131 -1T98 -3T65 -5T42 -6L40 -2L43 36L48 40Q60 40 76 41T101 49Q109 55 116 68T126 107Q126 114 126 123T127 147T128 181T128 231V394Q128 404 128 424T128 468T128
513T126 547ZM337 78Q397 78 443 97T520 151T568 230T585 328Q585 382 568 427T519 506T439 557T332 576H244Q242 547 242 528T240 488T239 445T239 385V261Q239 201 239 168T242 117Q245 91 255 85T291 78H337Z" />
<glyph unicode="E" glyph-name="E" horiz-adv-x="575" d="M328 654Q342 654 369 654T426 656T478 657T506 658L512 648L507 519H462L458 523Q456 542 453 553T434 569T388 575T300 576H243L242 567Q241 553 241 541T240 513T239 474T239 415V381Q263 382 285 382T326
382T358 385T378 394Q388 404 388 422L393 427L430 429L434 427Q432 404 431 387T429 348Q429 324 430 304T434 259L430 257L392 259L388 262Q388 287 379 299Q371 310 334 311T250 313H239V231Q239 202 239 183T240 151T242 125T244 97Q245 78 264 78H309Q366
78 398 80T448 89T472 111T486 149L490 153H537L518 6L510 -4Q505 -4 486 -4T442 -2T394 -1T356 0H154Q147 0 131 -1T98 -3T65 -5T42 -6L40 -2L43 36L48 40Q64 40 78 41T101 50Q109 57 116 68T126 107Q126 114 126 123T127 147T128 181T128 231V394Q128 429 128
453T128 494T128 523T126 547Q124 574 117 586T101 604Q92 612 78 613T48 614L43 618L40 656L42 660Q49 660 65 659T99 657T135 655T164 654H328Z" />
<glyph unicode="F" glyph-name="F" horiz-adv-x="533" d="M126 547Q124 576 117 587T101 604Q92 612 78 613T48 614L43 618L40 656L42 660Q49 660 65 659T98 657T131 655T154 654H328Q342 654 369 654T426 656T478 657T506 658L512 648L507 519H462L458 523Q456
542 453 553T434 569T388 575T300 576H244L242 537Q242 527 242 519T241 499T240 472T239 381Q263 382 285 382T326 382T359 385T379 394Q388 403 388 423L393 428L430 430L434 428Q433 415 432 406T431 387T430 369T429 348Q429 324 430 303T434 257L430 255L392
257L388 260Q388 286 378 299Q373 304 360 307T329 311T287 313T239 313V251Q239 215 239 193T239 155T240 130T242 107Q244 78 252 67T269 50Q278 42 295 41T329 40L334 36L337 -2L335 -6Q328 -6 311 -5T274 -3T238 -1T213 0H154Q147 0 131 -1T98 -3T65 -5T42
-6L40 -2L43 36L48 40Q64 40 78 41T101 50Q109 57 116 68T126 107Q126 114 126 123T127 147T128 181T128 231V394Q128 429 128 453T128 494T127 523T126 547Z" />
<glyph unicode="G" glyph-name="G" horiz-adv-x="702" d="M609 25Q559 10 504 0T389 -11Q302 -11 238 15T131 88T67 195T46 324Q46 396 68 458T135 566T244 638T395 665Q414 665 439 663T493 656T550 643T607 621L609 612L592 503H547L543 506Q538 540 503 561T390
583Q342 583 306 575T238 542Q216 525 202 502T180 450T169 391T166 329Q166 268 182 220T228 139T296 89T382 71Q396 71 412 72T445 77T473 84T491 92Q497 95 498 100T499 113Q499 120 499 136T497 161Q495 187 487 200T472 218Q463 226 445 227T411 228L406 232L403
274L405 278Q412 278 427 277T459 275T491 273T514 272H584Q591 272 603 273T628 275T653 277T672 278L674 274L672 230L667 226Q638 226 627 210T613 161Q611 141 611 119T610 85Q610 70 610 53T613 30L609 25Z" />
<glyph unicode="H" glyph-name="H" horiz-adv-x="774" d="M732 -6Q725 -6 709 -5T676 -3T643 -1T620 0H561Q554 0 538 -1T505 -3T472 -5T449 -6L447 -2L450 36L454 40Q470 40 484 41T508 50Q517 57 522 68T532 107Q533 114 533 123T534 147T535 181T535 231V311H239V251Q239
215 239 193T239 155T240 130T242 107Q244 79 251 68T266 50Q275 43 289 42T320 40L324 36L327 -2L325 -6Q318 -6 302 -5T269 -3T236 -1T213 0H154Q147 0 131 -1T98 -3T65 -5T42 -6L40 -2L43 36L48 40Q64 40 78 41T101 50Q109 57 116 68T126 107Q126 114 126 123T127
147T128 181T128 231V394Q128 429 128 453T128 494T127 523T125 547Q123 573 116 585T101 604Q92 611 78 612T48 614L43 618L40 656L42 660Q49 660 65 659T98 657T131 655T154 654H213Q220 654 236 655T269 657T302 659T325 660L327 656L324 618L320 614Q306 614
291 613T266 604Q258 597 251 586T242 547Q241 533 241 521T240 493T239 454T239 395V385H535V394Q535 429 535 453T535 494T534 523T532 547Q530 575 523 586T508 604Q499 611 485 612T454 614L450 618L447 656L449 660Q456 660 472 659T505 657T538 655T561 654H620Q627
654 643 655T676 657T709 659T732 660L734 656L731 618L726 614Q710 614 696 613T673 604Q665 597 659 586T648 547Q647 533 647 521T646 493T646 454T646 395V251Q646 215 646 193T646 155T646 130T648 107Q650 79 657 68T673 50Q682 43 696 42T726 40L731 36L734
-2L732 -6Z" />
<glyph unicode="I" glyph-name="I" horiz-adv-x="367" d="M327 656L324 618L320 614Q304 614 290 613T266 604Q257 597 250 586T242 547Q241 533 241 521T240 493T239 454T239 395V251Q239 215 239 193T239 155T240 130T242 107Q244 79 251 68T266 50Q275 43 289
42T320 40L324 36L327 -2L325 -6Q318 -6 302 -5T269 -3T236 -1T213 0H154Q147 0 131 -1T98 -3T65 -5T42 -6L40 -2L43 36L48 40Q64 40 78 41T101 50Q109 57 115 68T126 107Q126 114 126 123T127 147T128 181T128 231V394Q128 429 128 453T128 494T127 523T125 547Q123
573 116 585T101 604Q92 611 78 612T48 614L43 618L40 656L42 660Q49 660 65 659T98 657T131 655T154 654H213Q220 654 236 655T269 657T302 659T325 660L327 656Z" />
<glyph unicode="J" glyph-name="J" horiz-adv-x="346" d="M317 656L314 618L310 614Q294 614 280 613T256 604Q247 597 240 586T232 547Q231 535 231 525T230 500T229 466T229 415V231Q229 195 229 171T229 129T228 100T228 76Q227 -34 188 -88T77 -153Q66 -155
54 -155T31 -156L23 -153L21 -101L25 -96Q30 -96 45 -96T65 -95Q83 -95 93 -81T109 -49Q112 -37 114 -7T117 61T118 139T118 211V414Q118 444 118 465T118 501T117 526T115 547Q113 574 106 586T91 604Q82 612 68 613T38 614L33 618L30 656L32 660Q39 660 55 659T88
657T121 655T144 654H203Q210 654 226 655T259 657T292 659T315 660L317 656Z" />
<glyph unicode="K" glyph-name="K" horiz-adv-x="696" d="M580 592Q571 586 554 570T515 533T471 486T425 438L357 366Q395 310 430 254T513 145Q533 122 552 105T594 75T641 54T698 40L704 36L706 -2L704 -6Q689 -6 672 -6T638 -8T605 -9T580 -10Q554 -10 532
-4T490 18T448 58T402 119Q396 128 382 150T350 200T316 254T286 302Q274 291 262 281T239 259V251Q239 209 239 187T239 151T240 129T242 107Q244 78 251 67T266 50Q275 42 289 41T320 40L324 36L327 -2L325 -6Q318 -6 302 -5T269 -3T236 -1T213 0H154Q147 0 131
-1T98 -3T65 -5T42 -6L40 -2L43 36L48 40Q64 40 78 41T101 50Q109 57 116 68T126 107Q126 114 126 123T127 147T128 181T128 231V394Q128 429 128 453T128 494T128 523T126 547Q124 574 117 586T101 604Q92 612 78 613T48 614L43 618L40 656L42 660Q49 660 65 659T98
657T131 655T154 654H213Q220 654 236 655T269 657T302 659T325 660L327 656L324 618L320 614Q306 614 291 613T266 604Q258 597 251 586T242 547Q241 535 241 524T240 497T239 461T239 411V363Q259 373 285 393T337 438Q356 456 376 477T412 519T439 555T449 577Q449
588 445 594T433 605T415 611T395 615L390 619V657L395 661Q415 657 437 656T483 655H572Q584 655 592 655T609 656T628 658T652 661L656 657V619L652 615Q638 613 617 607T580 592Z" />
<glyph unicode="L" glyph-name="L" horiz-adv-x="529" d="M125 547Q123 564 118 580T101 605Q93 610 81 612T48 614L43 618L40 656L42 660Q51 659 66 658T98 656T130 655T154 654H213Q222 654 236 654T267 656T299 658T325 660L327 656L324 618L320 614Q295 614
284 612T265 604Q244 590 241 547Q240 537 240 527T239 500T239 458T239 395V261Q239 222 239 198T239 157T240 128T243 98Q244 78 266 78H359Q392 78 411 79T442 87T459 106T470 139L473 143H519L501 6L493 -4Q485 -3 468 -3T432 -2T395 -1T366 0H154Q147 0 132
0T99 -2T66 -4T42 -6L40 -2L43 36L48 40Q86 40 100 51Q108 58 115 73T125 108Q126 118 126 135T127 172T128 207T128 231V394Q128 449 128 490T125 547Z" />
<glyph unicode="M" glyph-name="M" horiz-adv-x="945" d="M921 -6Q914 -6 898 -5T865 -3T832 -1T809 0H750Q743 0 727 -1T694 -3T661 -5T638 -6L635 -2L638 36L642 40H653Q682 40 698 49T715 88L693 415Q691 438 691 455T686 492Q680 474 667 441T638 366T602
275T564 180T529 89T500 13H418L243 489Q243 465 241 450T237 410L225 246Q223 213 222 192T220 155T219 129T219 107Q219 78 225 67T240 50Q248 42 258 41T285 40L289 36L292 -2L290 -6Q283 -6 270 -5T242 -3T215 -1T194 0H135Q128 0 113 -1T80 -3T47 -5T24 -6L22
-2L25 36L31 40Q46 40 60 41T84 50Q92 57 100 68T113 107Q115 119 118 140T125 211L139 394Q142 429 143 453T145 494T146 523T147 547Q147 576 139 587T122 604Q113 612 99 613T69 614L64 618L61 656L63 660Q70 660 86 659T119 657T152 655T175 654H252Q259 654
270 655T292 658L297 655Q298 641 304 616T320 561T342 498T366 432L429 270Q440 243 451 213T471 156Q474 160 487 191T518 268T556 369T595 479T627 579T645 654L650 658Q658 656 667 655T684 654H770Q777 654 793 655T826 657T859 659T882 660L884 656L881 618L876
614Q861 614 847 613T823 604Q815 598 807 586T798 547Q798 533 798 521T799 493T801 454T806 395L818 251Q821 215 823 193T826 155T829 130T832 107Q836 78 844 67T860 50Q869 42 883 41T914 40L919 36L922 -2L921 -6Z" />
<glyph unicode="N" glyph-name="N" horiz-adv-x="781" d="M753 656L751 618L746 614Q731 614 717 613T693 604Q685 597 677 586T665 547Q664 533 664 521T663 493T662 454T662 395V239Q662 183 662 147T663 86T665 40T669 -4L661 -9L538 -4L528 8L219 474Q221
456 221 417T222 325V251Q222 239 222 220T222 179T223 139T225 107Q227 82 236 69T255 50Q263 42 276 41T309 40L314 36L317 -2L315 -6Q307 -6 293 -5T263 -3T233 -1T211 0H152Q145 0 129 -1T96 -3T63 -5T40 -6L38 -2L41 36L46 40Q64 40 76 41T99 50Q106 55 116
66T129 107Q130 114 130 123T131 147T131 181T131 231V394Q131 429 131 453T131 494T131 523T129 547Q127 568 118 583T99 604Q90 612 77 613T46 614L41 618L38 656L40 660Q47 660 60 659T88 657T115 655T136 654H221Q229 654 241 655T262 658L267 655Q270 641
282 617T311 562T349 498T389 431Q425 371 453 327T503 249T541 194T568 156Q568 182 568 207T569 258V394Q569 429 569 453T569 494T568 523T566 547Q564 564 558 578T537 604Q528 612 514 613T483 614L479 618L476 656L478 660Q485 660 498 659T524 657T551 655T571
654H658Q665 654 678 654T705 656T732 658T752 660L753 656Z" />
<glyph unicode="O" glyph-name="O" horiz-adv-x="737" d="M369 665Q446 665 506 638T607 565T669 457T691 329Q691 263 670 202T608 93T505 18T362 -11Q284 -11 225 16T127 88T67 194T47 322Q47 393 69 455T132 564T233 638T369 665ZM368 72Q417 72 455 92T520
147T560 228T574 328Q574 382 560 428T518 509T451 562T363 582Q315 582 278 563T216 510T178 430T165 329Q165 269 180 222T222 141T286 90T368 72Z" />
<glyph unicode="P" glyph-name="P" horiz-adv-x="581" d="M325 -6Q318 -6 302 -5T269 -3T236 -1T213 0H154Q147 0 131 -1T98 -3T65 -5T42 -6L40 -2L43 36L48 40Q60 40 76 41T101 49Q109 55 116 68T126 107Q126 114 126 123T127 147T128 181T128 231V451Q128 471
128 496T126 547Q124 573 117 585T101 604Q92 612 83 613T48 614L43 618L40 656L42 660Q49 660 60 659T84 657T110 655T134 654H210Q221 654 235 654T263 655T290 655T310 656Q377 656 423 643T499 605T541 548T555 474Q555 407 531 364T470 296T386 262T295 252H239Q239
232 239 210T239 168T240 131T242 107Q244 78 252 67T266 50Q275 42 284 41T320 40L324 36L327 -2L325 -6ZM290 326Q374 326 410 364T446 469Q446 523 405 549T291 576H244Q241 532 240 511T239 472V363Q239 350 240 343T245 332T256 327T277 326H290Z" />
<glyph unicode="Q" glyph-name="Q" horiz-adv-x="737" d="M369 665Q446 665 506 638T607 565T669 458T691 330Q691 266 672 207T616 101T523 24T396 -10Q447 -11 486 -22T559 -47T628 -72T701 -83Q715 -83 734 -80T776 -63L779 -65L793 -93L792 -97Q769 -126 736
-146T662 -166Q628 -166 593 -151T518 -117T437 -83T349 -67Q310 -67 274 -80T220 -108L217 -107L206 -68L207 -65Q229 -50 266 -32T346 -11Q272 -10 216 17T123 89T66 195T47 322Q47 393 69 455T132 564T233 638T369 665ZM368 72Q417 72 455 92T520 147T560 228T574
328Q574 382 560 428T518 509T451 562T363 582Q315 582 278 563T216 510T178 430T165 329Q165 270 180 223T222 142T286 90T368 72Z" />
<glyph unicode="R" glyph-name="R" horiz-adv-x="664" d="M325 -6Q317 -5 303 -4T272 -2T240 -1T213 0H154Q142 0 126 0T94 -2T64 -4T42 -6L40 -2L43 36L48 40Q86 40 100 49Q121 63 126 107Q127 124 127 159T128 231V451Q128 486 127 506T124 547Q120 574 116
586T102 605Q94 610 83 612T48 614L43 618L40 656L42 660Q68 657 93 656T134 654H210Q233 654 262 655T314 656Q433 656 494 612T555 479Q555 416 519 365T410 275Q444 224 467 192T508 141Q531 114 551 96T590 66T631 48T678 40L684 36L686 -2L684 -6Q646 -8 618
-9T577 -11Q524 -11 483 18T394 119Q383 135 371 155T346 194T322 232T304 263H239Q239 229 239 205T239 162T241 131T243 107Q247 61 265 49Q272 44 283 42T320 40L324 36L327 -2L325 -6ZM290 337Q363 337 404 372T446 469Q446 525 409 550T291 576H244Q241 536
240 514T239 472V374Q239 353 244 345T263 337H290Z" />
<glyph unicode="S" glyph-name="S" horiz-adv-x="560" d="M162 503Q162 477 176 459T214 428T270 402T338 377Q374 363 407 348T465 310T506 257T522 183Q522 139 505 104T457 43T380 3T278 -11Q218 -11 158 4T51 45L47 58L70 192H115L120 186Q126 117 166 88T277
59Q346 59 377 83T408 156Q408 187 395 207T359 241T302 266T229 292Q193 305 162 320T109 357T73 409T60 481Q60 569 117 617T293 665Q347 665 394 653T473 623L477 612L461 498H413L408 503Q402 545 372 568T288 591Q228 591 195 567T162 503Z" />
<glyph unicode="T" glyph-name="T" horiz-adv-x="587" d="M450 -6Q443 -6 428 -5T396 -3T364 -1T342 0H245Q238 0 223 -1T192 -3T160 -5T138 -6L136 -2L139 36L144 40Q159 40 179 41T209 50Q217 57 225 68T236 107Q237 114 237 123T238 147T239 181T239 231V414Q239
469 238 512T236 576H225Q187 576 162 576T122 574T100 570T89 565Q78 560 71 549T62 523L58 519H15L22 653L26 662L32 665Q40 662 67 660T126 656T187 655T230 654H356Q369 654 398 654T460 656T519 659T554 665L560 662L564 653L572 519H528L524 523Q522 538
515 549T497 565Q494 569 487 571T464 575T425 576T362 576H351Q350 552 350 512T349 415V251Q349 215 349 193T349 155T350 130T352 107Q354 78 363 67T380 50Q384 46 391 44T408 41T426 40T444 40L449 36L452 -2L450 -6Z" />
<glyph unicode="U" glyph-name="U" horiz-adv-x="731" d="M712 656L709 618L705 614Q691 614 676 613T651 604Q643 597 636 586T626 547Q626 535 626 523T625 494T624 453T624 394V222Q624 173 608 131T559 57T480 7T371 -11Q296 -11 246 7T165 56T122 130T109
222V394Q109 429 109 453T109 494T109 523T107 547Q105 574 98 586T82 604Q73 612 59 613T29 614L24 618L21 656L23 660Q30 660 46 659T79 657T112 655T135 654H194Q201 654 217 655T250 657T283 659T306 660L308 656L305 618L301 614Q287 614 272 613T247 604Q239
597 232 586T223 547Q222 533 222 521T221 493T220 454T220 395V250Q220 157 256 118T369 78Q403 78 432 87T482 118T515 171T527 250V395Q527 431 527 454T527 493T526 521T524 547Q522 576 515 587T499 604Q491 612 477 613T446 614L441 618L438 656L440 660Q447
660 461 659T490 657T520 655T541 654H603Q610 654 625 655T656 657T688 659T710 660L712 656Z" />
<glyph unicode="V" glyph-name="V" horiz-adv-x="724" d="M296 -11L140 423Q129 453 122 473T109 507T99 530T92 547Q81 572 70 585T46 605T22 613T-4 614L-9 618L-11 656L-10 660Q-3 659 10 658T39 656T68 655T89 654H163Q170 654 186 655T219 657T253 659T276
660L278 656L275 618L270 614Q241 614 225 608T209 572Q209 549 224 508T263 403L324 239Q341 199 352 163T374 102Q382 125 396 160T426 239L487 403Q510 466 525 507T541 572Q541 601 525 607T480 614L475 618L473 656L475 660Q482 659 497 658T528 656T559 655T581
654H640Q647 654 660 655T689 657T718 659T739 660L741 656L738 618L733 614Q720 614 708 613T685 606T662 586T638 547Q636 542 634 537T627 522T614 492T593 441T561 359T514 240Q500 205 485 168T457 97T434 37T420 0L308 -11H296Z" />
<glyph unicode="W" glyph-name="W" horiz-adv-x="1131" d="M718 -11L571 405L511 240Q498 204 483 167T455 96T431 37T417 0L305 -11H293L137 423Q126 453 119 473T106 507T96 530T89 547Q78 572 67 585T43 605T19 613T-7 614L-12 618L-14 656L-13 660Q-6 659
7 658T36 656T65 655T86 654H160Q167 654 183 655T216 657T250 659T273 660L275 656L272 618L267 614Q238 614 222 608T206 572Q206 549 221 508T260 403L321 239Q338 199 349 163T371 102Q379 125 393 160T423 239L484 403Q517 490 517 540Q517 580 499 597T428
614L423 618L421 656L422 660Q429 659 444 658T476 656T508 655T531 654H605Q612 654 626 655T656 657T686 659T708 660L710 656L707 618L702 614Q673 614 657 608T641 572Q641 549 652 508T685 403L742 239Q756 198 768 163T792 104Q799 127 811 162T838 239L895
403Q917 465 930 507T943 572Q943 601 927 607T882 614L877 618L875 656L877 660Q884 659 899 658T930 656T961 655T983 654H1042Q1049 654 1062 655T1091 657T1120 659T1141 660L1143 656L1140 618L1135 614Q1122 614 1110 613T1087 606T1064 586T1040 547Q1038
542 1036 537T1030 522T1018 492T999 441T969 359T926 240Q914 205 901 168T875 97T854 37T842 0L730 -11H718Z" />
<glyph unicode="X" glyph-name="X" horiz-adv-x="710" d="M556 528Q526 488 505 461T467 413T438 376T411 342L414 339Q449 291 481 249T538 175T579 122T601 97Q610 87 617 79T634 63T658 50T695 40L704 33V-1L698 -7Q678 -4 655 -2T613 1H523Q500 1 469 -1T410
-7L405 -1V34L410 40Q433 42 452 51T471 78Q471 87 460 107T431 153T392 207T349 261Q329 237 310 212T273 165T244 126T226 98Q222 88 222 80Q222 71 224 65T234 55T257 47T297 40L303 34V0L297 -6Q268 -1 241 -1T191 0H104Q81 0 58 -1T6 -6L1 0V33L9 40Q31 43
47 47T76 60T102 81T132 114Q144 129 162 151T201 201T248 260T298 324L293 330Q261 376 219 432T129 557Q121 568 113 578T96 595Q85 604 70 608T34 614L26 618V656L32 660Q55 656 77 655T120 654H213Q236 654 266 655T324 660L329 656V618L324 614Q304 613 289
611T265 602Q257 598 256 594T254 585Q254 580 258 573T263 561Q279 534 292 515T316 479T340 445T366 407Q402 451 427 490T460 546Q462 551 466 558T471 574Q471 586 465 593T449 603T427 609T404 614L399 618V656L404 660Q434 655 453 655T496 654H594Q618 654
637 655T685 660L689 656V618L685 614Q663 611 646 605T614 588T586 564T556 528Z" />
<glyph unicode="Y" glyph-name="Y" horiz-adv-x="653" d="M469 -6Q462 -6 446 -5T413 -3T380 -1T357 0H298Q291 0 275 -1T242 -3T208 -5T185 -6L184 -2L186 36L191 40Q206 40 220 41T244 50Q253 57 260 68T269 107Q270 114 270 123T271 147T272 181T272 231V250Q272
278 264 295T248 327Q215 381 176 439T94 557Q87 568 78 578T62 595Q51 604 36 608T0 614L-8 618V656L-3 660Q22 657 42 655T86 652H168Q191 652 221 654T280 660L284 656V618L280 614Q260 613 245 611T221 602Q211 595 211 584Q211 578 213 572T219 561L338 372L450
545Q460 562 460 580Q460 592 453 598T436 607T413 611T389 615L385 619V657L389 661Q418 656 437 656T481 655H569Q593 655 613 656T661 661L665 657V619L661 615Q638 612 622 607T593 593T568 570T540 535Q510 491 489 460T452 404T423 358T396 314Q392 308 387
294T382 264V249Q382 213 382 191T382 154T383 129T385 107Q387 79 394 68T410 50Q418 43 432 42T463 40L468 36L471 -2L469 -6Z" />
<glyph unicode="Z" glyph-name="Z" horiz-adv-x="635" d="M52 526L68 654L76 662Q203 656 288 655T400 654H496Q502 654 512 654T534 656T557 658T578 662L586 641L581 616Q564 598 532 557T461 464T381 352T305 240T245 144T214 81L219 78H279Q362 78 411 79T488
87T526 108T543 147L549 153H596L578 4L569 -6Q564 -6 545 -6T500 -4T443 -3T386 -2T336 -1T305 0H145Q123 0 96 -2T42 -6L32 15V38Q51 57 82 95T149 182T223 287T295 396T355 495T396 571L391 576H269Q219 576 188 575T139 569T113 553T102 524L96 519H58L52 526Z"
/>
<glyph unicode="[" glyph-name="bracketleft" horiz-adv-x="307" d="M278 751L276 713L271 709Q260 709 243 708T219 699Q210 692 203 681T194 642Q192 614 192 574T191 462V251Q191 215 191 178T191 107T192 49T194 12Q196 -17 203 -28T219 -45Q226 -53 243 -54T271
-55L276 -59L278 -97L277 -101Q268 -101 251 -100T216 -98T180 -96T154 -95H78L76 -91Q84 -24 86 56T88 211V481Q88 506 88 538T87 607T83 678T76 745L78 749H154Q163 749 180 750T215 752T251 754T277 755L278 751Z" />
<glyph unicode="\" glyph-name="backslash" horiz-adv-x="463" d="M428 -57H310L307 -53Q291 14 264 94T209 249L142 433Q133 458 121 491T94 559T65 631T34 698V702H152L155 698Q162 667 172 631T195 560T219 491T240 433L306 249Q333 174 364 94T429 -53L428 -57Z" />
<glyph unicode="]" glyph-name="bracketright" horiz-adv-x="308" d="M31 755Q40 755 57 754T92 752T128 750T154 749H230L232 745Q227 714 225 679T222 607T220 539T220 481V211Q220 137 222 57T232 -91L230 -95H154Q145 -95 128 -96T93 -98T57 -100T31 -101L30
-97L32 -59L37 -55Q48 -55 65 -54T89 -45Q97 -39 104 -28T114 12Q115 24 115 49T116 107T117 177T117 251V462Q117 534 117 574T114 642Q112 670 105 681T89 699Q82 706 65 707T37 709L32 713L30 751L31 755Z" />
<glyph unicode="^" glyph-name="asciicircum" horiz-adv-x="348" d="M178 673L288 574L291 567L282 538L275 535L174 576L73 535L66 538L57 567L60 574L170 673H178Z" />
<glyph unicode="_" glyph-name="underscore" horiz-adv-x="481" d="M457 0V-82H24V0H457Z" />
<glyph unicode="`" glyph-name="grave" horiz-adv-x="219" d="M185 519L-16 596Q-20 605 -20 615Q-20 641 -7 659T35 680L216 579L219 572L193 522L185 519Z" />
<glyph unicode="a" glyph-name="a" horiz-adv-x="517" d="M312 7Q315 16 316 33T321 64L320 67Q308 52 293 38T258 13T218 -4T172 -11Q136 -11 109 0T64 29T37 71T27 121Q27 160 44 189T89 236Q115 253 150 262T218 277T278 283T314 285H328Q327 316 324 333T316
363Q307 383 287 391T238 400Q221 400 202 398T165 388T136 369T121 336L117 333H85L76 427L79 433Q85 439 102 446T143 459T195 470T253 475Q292 475 326 466T384 437T423 390T437 323Q437 282 437 253T435 199T434 151T433 98Q435 75 438 65T448 49Q456 41 472
40T503 38L506 34L508 0L507 -4Q490 -2 468 -1T427 0Q399 0 371 0T318 -3L312 7ZM312 115Q315 120 318 127T323 144L328 229H319Q288 229 258 225T204 210T165 179T150 127Q150 100 163 84T200 68Q217 68 234 72T267 84T294 99T312 115Z" />
<glyph unicode="b" glyph-name="b" horiz-adv-x="621" d="M198 80Q198 60 202 44T210 17L204 0H158Q148 0 130 0T90 -1T51 -3T22 -4L21 0L23 34L26 38Q40 38 54 39T76 49Q84 56 88 67T92 98V111Q92 120 92 128T93 148T93 181T94 234V464Q94 505 94 532T93 578T92
611T90 642Q89 653 83 662T73 674Q60 685 46 687T15 690L11 694V727L15 731H65Q88 731 117 731T166 735L201 740L207 721Q205 717 204 707T201 684T200 661T199 644Q199 628 199 616T199 586T198 544T198 476Q198 433 197 414T195 382L198 380Q227 422 269 448T364
475Q421 475 462 455T531 402T571 327T584 238Q584 170 563 123T510 46T439 3T365 -11Q317 -11 275 10T201 82L198 80ZM467 235Q467 265 460 293T437 344T399 380T343 394Q309 394 283 383T238 355T209 320T197 289V178Q199 165 208 147T235 111T279 81T341 69Q374
69 398 83T437 121T460 174T467 235Z" />
<glyph unicode="c" glyph-name="c" horiz-adv-x="496" d="M417 323L413 326Q413 349 400 363T367 386T327 397T289 400Q253 400 226 386T182 349T157 296T148 234Q148 200 157 169T186 114T234 76T304 61Q338 61 376 68T444 91L461 67L446 39Q435 31 418 23T378
7T331 -6T280 -11Q231 -11 187 6T109 55T55 131T35 230Q35 285 55 330T110 407T191 457T291 475Q315 475 339 472T386 463T427 452T456 439L459 430L448 323H417Z" />
<glyph unicode="d" glyph-name="d" horiz-adv-x="623" d="M413 17Q413 24 416 43T422 78L421 82Q395 36 349 13T253 -11Q198 -11 158 9T90 62T50 138T37 227Q37 294 58 341T113 418T185 461T262 475Q307 475 351 454T423 385L425 389Q423 418 423 448T423 508Q423
539 423 559T423 594T422 619T420 642Q419 652 413 661T404 673Q390 684 377 687T345 690L341 694V727L345 731H402Q425 731 450 731T496 735L531 740L537 721Q535 717 534 707T532 684T531 661T530 644Q530 629 530 616T529 585T529 542T528 476V258Q528 216 528
191T529 148T530 119T532 88Q534 70 537 62T548 49Q556 41 570 40T596 38L600 34L602 0L600 -4Q583 -2 563 -1T525 0Q498 0 471 0T420 -3L413 17ZM153 228Q153 198 160 170T183 119T221 83T277 69Q311 69 337 80T382 108T411 143T423 174V285Q421 298 412 316T385
352T341 381T279 394Q246 394 222 380T183 342T160 289T153 228Z" />
<glyph unicode="e" glyph-name="e" horiz-adv-x="507" d="M469 255L445 237Q391 237 339 236T231 235H149Q148 228 148 222T148 209Q148 183 157 157T185 111T235 78T308 65Q339 65 373 73T438 96L455 89V53L445 42Q421 23 375 6T274 -11Q221 -11 178 6T103 56T54
132T36 230Q36 285 54 330T103 407T177 457T269 475Q295 475 327 468T390 442T444 387T477 293L469 255ZM270 400Q221 400 192 371T154 302H204Q239 302 273 303T342 305Q355 305 361 312T367 328Q367 358 338 379T270 400Z" />
<glyph unicode="f" glyph-name="f" horiz-adv-x="335" d="M315 400H208V258Q208 220 208 195T208 153T210 123T212 98Q214 83 220 70T234 49Q242 41 256 40T280 38L285 33L287 0L285 -4Q279 -4 266 -3T239 -2T212 -1T193 0H129Q122 0 108 0T77 -1T47 -3T25 -4L24
0L26 34L29 38Q44 38 58 40T81 51Q87 57 91 66T98 94T101 146T102 234V400H48L44 405V448L48 452L102 467V524Q102 626 149 685T289 745Q312 745 339 736T395 705L400 695L388 608H352Q350 637 327 654T275 671Q250 671 237 663T217 641T209 609T208 573V467L315
473L320 469V405L315 400Z" />
<glyph unicode="g" glyph-name="g" horiz-adv-x="490" d="M137 136Q86 156 63 199T40 294Q40 331 53 364T90 421T149 460T228 474Q254 474 279 469T324 455Q366 456 402 460T471 473L476 469L469 394L464 389L389 397L388 394Q404 376 413 346T422 289Q422 256
410 226T373 174T313 138T230 124Q224 124 215 124T200 125Q183 118 175 106T166 86Q166 64 213 58L310 48Q343 44 371 34T421 8T455 -32T467 -87Q467 -116 454 -145T415 -198Q389 -220 343 -234T237 -248Q183 -248 144 -237T78 -206T38 -162T25 -111Q25 -69 52
-37T123 9L124 12Q100 21 86 34T71 68Q71 94 92 110T137 132V136ZM232 193Q252 193 267 201T294 222T310 252T316 289Q316 309 310 329T293 365T265 392T226 403Q205 403 190 394T165 369T149 335T144 298Q144 279 149 260T166 226T193 202T232 193ZM200 -22Q178
-23 162 -30T135 -48T119 -73T113 -100Q113 -129 148 -147T243 -166Q297 -166 334 -149T371 -97Q371 -78 362 -66T338 -47T305 -35T267 -29L200 -22Z" />
<glyph unicode="h" glyph-name="h" horiz-adv-x="627" d="M419 17Q423 30 425 51T428 88Q430 126 431 164T432 228Q432 251 431 278T424 325Q416 357 390 372T332 388Q303 388 279 377T236 350T208 317T198 288Q198 237 198 208T198 159T199 128T202 98Q204 77
210 67T224 49Q232 41 243 40T269 38L274 33L276 0L274 -4Q267 -4 253 -3T223 -2T193 -1T172 0H118Q111 0 97 0T67 -1T37 -3T15 -4L14 0L16 34L19 38Q35 38 47 39T68 49Q76 56 81 67T88 98Q89 110 90 122T91 150T92 189T92 244V464Q92 503 92 530T92 576T91 611T89
642Q88 652 83 660T74 672Q64 683 48 686T15 690L11 694V727L15 731H71Q94 731 120 731T166 735L201 740L207 721Q205 716 204 705T202 680T201 654T201 634Q201 608 200 574T198 495Q198 453 198 420T195 372L198 370Q210 388 226 406T263 440T308 465T361 475Q392
475 422 467T476 442T517 399T538 337Q541 311 541 278T542 223V102Q542 79 548 67T560 49Q569 41 583 40T613 38L616 34L618 0L616 -4Q595 -2 570 -1T520 0Q469 0 426 -3L419 17Z" />
<glyph unicode="i" glyph-name="i" horiz-adv-x="306" d="M288 -4Q281 -4 267 -3T237 -2T207 -1T186 0H132Q125 0 111 0T81 -1T51 -3T29 -4L28 0L30 34L33 38Q48 38 64 39T88 49Q95 56 98 67T103 98Q104 105 104 112T105 127T106 146T106 173V286Q106 305 106
316T106 336T105 350T103 366Q101 376 97 385T90 397Q80 410 65 412T34 414L30 418V452L34 455H85Q108 455 134 455T180 459L215 464L221 445Q219 441 218 433T216 415T215 396T214 380Q214 372 214 366T213 351T213 329T212 297V185Q212 165 212 153T213 131T214
115T216 98Q218 77 220 67T231 49Q239 41 253 40T283 38L288 33L290 0L288 -4ZM85 613Q85 625 90 637T104 658T124 673T149 679Q174 679 194 659T215 613Q215 600 210 589T195 568T173 554T149 549Q123 549 104 568T85 613Z" />
<glyph unicode="j" glyph-name="j" horiz-adv-x="277" d="M17 452L21 455H72Q95 455 121 455T168 459L203 464L208 445Q206 441 205 431T204 409T203 386T202 368Q202 359 202 348T201 321T200 280T200 222V-4Q200 -64 190 -108T158 -182T105 -230T30 -257Q20
-259 12 -259T-6 -260L-14 -258L-16 -219L-12 -214Q8 -214 23 -211T54 -190Q77 -169 83 -137T91 -62Q91 -56 91 -37T92 7T93 60T93 114T94 158T94 184Q94 194 94 217T94 268T93 321T91 365Q90 376 86 385T78 397Q68 410 53 412T21 414L17 418V452ZM75 613Q75 625
80 637T94 658T114 673T139 679Q164 679 184 659T205 613Q205 600 200 589T185 568T163 554T139 549Q113 549 94 568T75 613Z" />
<glyph unicode="k" glyph-name="k" horiz-adv-x="542" d="M17 727L21 731H71Q94 731 120 731T166 735L202 740L208 721Q206 717 205 707T203 684T202 661T201 644Q201 628 201 614T200 581T199 535T198 466V275L304 374Q315 385 315 395Q315 411 269 419L265 423V455L269
459Q288 457 307 455T346 453H407Q424 453 441 455T475 459L478 455V421L473 416Q465 414 453 411T430 402Q415 393 400 381T369 355T338 327T309 300L287 280L417 120Q433 100 447 86T476 61T508 45T548 38L551 34L553 0L551 -4Q526 -6 497 -6T437 -7Q415 -7 396
6T363 37L204 233L198 227Q198 193 199 158T202 98Q203 77 206 67T217 49Q225 41 239 40T269 38L274 33L276 0L274 -4Q266 -4 252 -3T223 -2T194 -1T172 0H118Q111 0 97 0T67 -1T37 -3T15 -4L14 0L16 34L19 38Q35 38 50 39T74 49Q82 56 84 67T89 98Q90 109 90 120T91
147T92 183T92 234V454Q92 495 92 523T92 573T91 610T89 642Q88 653 84 661T76 674Q66 685 52 687T21 690L17 694V727Z" />
<glyph unicode="l" glyph-name="l" horiz-adv-x="298" d="M278 -4Q271 -4 257 -3T227 -2T197 -1T176 0H122Q115 0 101 0T71 -1T41 -3T19 -4L18 0L20 34L23 38Q38 38 54 39T78 49Q85 56 88 67T93 98Q94 105 94 112T95 127T96 146T96 173V562Q96 581 96 592T96 612T95
626T93 642Q91 652 87 661T80 673Q70 686 55 688T24 690L20 694V728L24 731H75Q98 731 124 731T170 735L205 740L211 721Q209 717 208 709T206 691T205 672T204 656Q204 648 204 642T203 627T203 605T202 573V185Q202 165 202 153T203 131T204 115T206 98Q208 77
210 67T221 49Q229 41 243 40T273 38L278 33L280 0L278 -4Z" />
<glyph unicode="m" glyph-name="m" horiz-adv-x="964" d="M30 452L34 455H84Q107 455 133 455T180 459L215 464L221 445Q219 440 218 432T215 413T212 394T211 377L214 375Q225 395 239 413T273 445T316 467T371 475Q426 475 469 447T532 369Q543 387 558 406T593
440T638 465T696 475Q727 475 756 467T809 442T850 399T874 336Q879 310 879 281T880 223V98Q880 78 885 69T896 52Q903 42 918 40T950 38L954 34L956 0L954 -4Q936 -2 915 -1T874 0Q813 0 764 -3L757 17Q760 30 762 51T766 88Q767 101 767 122T769 164T770 204T771
233Q771 253 770 283T763 335Q755 361 733 374T684 388Q658 388 637 381T598 362T570 337T552 311Q554 289 554 267T555 223V98Q555 77 559 67T572 49Q581 41 594 40T623 38L628 33L630 0L628 -4Q621 -4 607 -3T577 -2T547 -1T526 0H472Q465 0 451 0T421 -1T391
-3T369 -4L367 0L369 34L373 38Q389 38 403 39T426 49Q434 56 437 67T442 98Q442 110 443 129T444 169T445 206T446 233Q446 243 446 256T445 284T443 311T438 335Q429 361 408 374T359 388Q326 388 299 377T253 350T223 317T212 287V195Q212 173 212 159T213 135T214
117T216 98Q218 77 225 67T243 47Q251 40 261 39T284 38L289 33L291 0L289 -4Q282 -4 268 -3T238 -2T208 -1T186 0H132Q125 0 111 0T81 -1T51 -3T29 -4L28 0L30 34L33 38Q49 38 62 40T84 50Q91 57 96 67T103 98Q104 114 105 130T106 183V266Q106 287 106 301T106
327T105 347T103 366Q101 376 97 385T90 397Q80 410 65 412T34 414L30 418V452Z" />
<glyph unicode="n" glyph-name="n" horiz-adv-x="639" d="M214 373Q237 417 277 446T371 475Q402 475 432 467T486 442T527 399T549 336Q552 310 552 281T553 223Q554 189 554 161T554 98Q554 75 559 64T573 48Q584 42 596 40T625 38L628 34L630 0L628 -4Q607
-2 582 -1T532 0Q508 0 484 0T439 -3L432 17Q435 30 437 56T441 98Q443 136 444 169T445 228Q445 251 444 278T437 325Q429 357 405 372T348 388Q318 388 293 377T251 351T223 318T213 288V185Q213 165 213 153T213 131T214 115T216 98Q218 77 224 67T239 49Q247
41 258 40T284 38L289 33L291 0L289 -4Q282 -4 268 -3T238 -2T208 -1T187 0H132Q125 0 111 0T81 -1T51 -3T29 -4L28 0L30 34L33 38Q49 38 61 39T82 49Q89 56 95 67T103 98Q104 105 104 112T105 127T106 146T106 173V276Q106 295 106 308T106 331T105 349T103 366Q101
376 97 385T90 397Q80 410 65 412T34 414L30 418V452L34 455H85Q108 455 134 455T181 459L216 464L222 445Q214 434 213 415T211 375L214 373Z" />
<glyph unicode="o" glyph-name="o" horiz-adv-x="563" d="M281 475Q340 475 386 455T463 400T511 320T528 227Q528 181 513 138T467 62T390 9T283 -11Q220 -11 173 10T96 65T50 142T35 232Q35 281 52 325T100 402T177 455T281 475ZM282 58Q313 58 336 72T376 110T399
164T407 227Q407 258 399 289T374 346T333 387T278 403Q246 403 223 388T184 349T162 295T154 234Q154 202 162 171T187 115T228 74T282 58Z" />
<glyph unicode="p" glyph-name="p" horiz-adv-x="624" d="M204 386Q236 434 280 454T371 475Q406 475 444 463T514 422T566 347T587 232Q587 186 574 143T533 65T463 10T364 -11Q310 -11 269 16T198 87L195 85Q197 68 197 49T198 -8Q198 -41 198 -64T198 -104T199
-133T201 -159Q203 -179 205 -190T216 -207Q224 -215 241 -217T274 -219L277 -222L279 -257L278 -260Q271 -260 256 -260T225 -259T194 -258T172 -257H120Q113 -257 99 -257T69 -258T39 -259T18 -260L16 -257L18 -223L23 -219Q38 -219 52 -218T75 -207Q83 -201
85 -190T90 -159Q91 -142 91 -128T92 -95T93 -52T94 15V186Q94 227 94 253T94 299T92 333T90 366Q89 377 85 385T78 397Q69 409 54 411T22 414L18 418V452L22 455H40Q52 455 68 455T101 455T135 456T165 459L200 464L206 445Q203 438 202 420T201 388L204 386ZM471
235Q471 265 464 293T441 344T403 380T347 394Q313 394 287 383T242 355T213 320T201 289V178Q203 165 212 147T239 111T283 81T345 69Q378 69 402 83T441 121T464 174T471 235Z" />
<glyph unicode="q" glyph-name="q" horiz-adv-x="620" d="M423 388Q423 401 420 419T414 445L420 464L455 459Q468 457 484 457T518 456T551 455T580 455H598L602 452V418L598 414Q581 414 566 412T542 397Q539 394 535 386T530 366Q529 348 528 333T527 299T526
254T526 186V15Q526 -26 526 -51T527 -95T528 -127T530 -159Q532 -179 534 -190T545 -207Q553 -216 567 -217T597 -219L602 -223L604 -257L602 -260Q595 -260 581 -260T551 -259T521 -258T500 -257H448Q441 -257 427 -257T397 -258T367 -259T345 -260L344 -257L346
-222L349 -219Q365 -219 380 -217T404 -207Q412 -201 414 -190T419 -159Q420 -146 420 -134T421 -104T422 -64T422 -8Q422 29 422 48T425 85L422 87Q393 43 352 16T256 -11Q199 -11 158 9T90 62T50 137T37 226Q37 294 58 341T111 418T181 461T255 475Q302 475 345
455T420 386L423 388ZM151 228Q151 198 158 170T181 119T219 83T275 69Q309 69 335 80T380 108T409 143T421 174V285Q419 298 410 316T383 352T339 381T277 394Q244 394 220 380T181 342T158 289T151 228Z" />
<glyph unicode="r" glyph-name="r" horiz-adv-x="440" d="M203 354Q213 373 225 394T254 433T290 463T337 475Q345 475 356 474T379 469T402 462T419 453L426 447L414 339H371Q368 351 356 363T317 376Q294 376 275 365T242 336T220 300T212 264V195Q212 157 212
138T214 105Q216 83 219 70T231 49Q235 45 243 43T261 39T278 38T292 38L297 33L299 0L297 -4Q291 -4 277 -3T247 -2T217 -1T197 0H133Q126 0 112 0T81 -1T51 -3T29 -4L28 0L30 34L33 38Q50 38 65 39T88 49Q96 56 99 67T105 105Q106 117 106 137T106 193V266Q106
287 106 301T106 327T105 347T103 366Q101 376 97 385T90 397Q80 410 65 412T34 414L30 418V452L34 455H52Q74 455 109 455T170 459L205 464L211 445Q205 426 203 402T200 355L203 354Z" />
<glyph unicode="s" glyph-name="s" horiz-adv-x="427" d="M263 280Q305 270 331 253T370 216T388 175T393 136Q393 104 380 77T343 31T283 0T204 -11Q158 -11 118 -2T55 21L43 34L58 157H91L94 153Q94 109 121 84T201 58Q229 58 248 63T279 77T296 96T301 116Q301
123 300 131T294 147T279 164T250 179L154 203Q121 211 100 226T67 259T50 299T45 341Q45 374 58 399T93 441T146 466T211 475Q255 475 292 465T349 442L362 430L351 333H320L316 336Q316 358 305 372T277 395T242 407T210 411Q170 411 153 394T136 356Q136 338
147 321T192 296L263 280Z" />
<glyph unicode="t" glyph-name="t" horiz-adv-x="337" d="M308 400H198Q198 342 198 293T197 207T197 147T196 119Q196 80 211 67T246 54Q261 54 280 57T312 65L318 54L308 21Q281 6 253 -2T200 -11Q139 -11 113 17T87 89Q87 98 88 124T90 191T92 285T93 400H41L37
405V449L41 453L93 467Q93 499 92 532T88 598L95 604L109 605Q116 605 128 606T155 608T181 612T200 616L209 612Q204 587 201 546T198 467L308 473L313 469V405L308 400Z" />
<glyph unicode="u" glyph-name="u" horiz-adv-x="625" d="M423 86Q396 43 356 16T255 -11Q227 -11 201 -4T153 18T115 57T92 117Q90 126 89 137T87 165T86 208T85 272V362Q85 373 80 384T72 398Q62 410 47 412T16 414L13 418V452L16 455H65Q88 455 114 455T160
459L195 464L201 445Q199 441 198 431T196 408T195 385T195 368Q195 355 195 337T194 299T193 261T192 231Q192 205 194 179T202 130Q212 95 232 79T290 62Q320 62 343 72T384 96T412 126T426 156V256Q426 302 425 327T421 366Q419 379 416 387T409 398Q398 410
381 412T354 414L350 418V452L354 455H372Q382 455 398 455T433 455T468 456T497 459L532 464L538 445Q533 416 531 369Q530 344 530 329T529 303T529 288T529 277V195Q529 140 532 98Q534 79 537 68T548 49Q557 41 569 40T598 38L602 34L604 0L602 -3Q583 -1 565
-1T523 0Q499 0 472 0T420 -3L414 17Q417 28 420 46T426 84L423 86Z" />
<glyph unicode="v" glyph-name="v" horiz-adv-x="570" d="M237 -5L227 0L158 160Q150 178 144 192T128 225T107 271T77 342Q70 359 67 365T59 380Q49 396 37 405T3 416L-3 421V455L1 459Q18 457 37 455T72 453H151Q166 453 187 455T227 459L231 455V423L227 419Q208
417 195 408T181 381Q181 369 188 344T206 289T227 232T244 188L288 68L338 189Q344 204 354 229T374 281T391 334T398 376Q398 402 384 409T351 419L347 423V455L351 459Q370 455 387 454T419 453H500Q517 453 533 455T569 459L573 455V421L567 416Q550 414 538
407T514 380Q502 360 484 323T447 246T414 173T394 128L340 0L237 -5Z" />
<glyph unicode="w" glyph-name="w" horiz-adv-x="873" d="M550 -5L538 -1L479 162Q467 194 458 222T435 282Q428 262 421 242T408 205T398 175T392 158L341 0L238 -5L228 0L158 160Q153 170 145 190T126 236T103 289T79 342Q69 363 59 380Q49 396 37 405T3 416L-3
421V455L1 459Q18 457 37 455T72 453H151Q166 453 187 455T227 459L231 455V423L227 419Q208 417 195 408T181 380Q181 368 189 339T209 278T230 218T245 179L289 74L327 179Q337 206 346 236T361 293T372 344T376 380Q376 391 370 398T356 409T340 414T325 416L319
421V455L323 459Q340 457 359 455T394 453H473Q488 453 509 455T549 459L553 455V423L549 419Q530 417 517 408T503 380Q503 368 511 339T529 278T548 218T562 179L601 74L641 179Q648 197 658 223T678 277T694 332T701 380Q701 402 686 409T654 419L650 423V455L654
459Q673 455 690 454T722 453H803Q820 453 836 455T872 459L876 455V421L870 416Q853 414 841 406T817 380Q800 353 782 315T747 240T718 171T701 128L653 0L550 -5Z" />
<glyph unicode="x" glyph-name="x" horiz-adv-x="561" d="M269 180L214 102Q207 91 201 81T194 61Q194 52 202 45T230 34L234 30V-2L230 -5Q209 -2 196 -1T166 0H86Q69 0 53 -2T16 -6L12 -2V32L17 38Q54 38 80 57T130 109L223 235L102 380Q89 395 74 404T36 416L30
421V455L34 459Q51 457 71 455T109 453H187Q203 453 223 455T264 459L268 455V423L264 419Q239 414 228 408T216 391Q216 377 242 337L288 282Q323 337 337 359T351 386Q351 405 343 410T312 419L308 423V455L312 458Q333 455 346 454T376 453H456Q473 453 489
455T526 459L530 455V421L524 419Q487 419 461 398T412 344L334 228L457 84Q469 70 492 57T548 38L554 33V-1L550 -5Q533 -3 513 -1T475 1H397Q381 1 360 -1T319 -5L315 -1V31L319 35Q353 38 353 63Q353 81 334 103L269 180Z" />
<glyph unicode="y" glyph-name="y" horiz-adv-x="570" d="M297 -116Q285 -146 266 -170T221 -213T168 -242T111 -258Q103 -260 93 -260T62 -260L55 -258L52 -207L56 -202H70Q82 -202 96 -200T123 -190Q152 -176 176 -150T210 -100L238 -25L158 158Q153 169 142
197T117 258T88 325T59 380Q49 396 37 405T3 416L-3 421V455L1 459Q18 457 37 455T72 453H151Q166 453 187 455T227 459L231 455V423L227 419Q208 417 195 408T181 380Q181 368 189 341T209 282T231 225T245 189L288 68L338 189Q345 205 355 229T374 281T391 334T398
380Q398 402 383 409T351 419L347 423V455L351 459Q370 455 387 454T419 453H500Q517 453 533 455T569 459L573 455V421L567 416Q550 414 538 406T514 380Q499 356 481 319T445 243T413 174T395 131L297 -116Z" />
<glyph unicode="z" glyph-name="z" horiz-adv-x="496" d="M43 320L51 455L54 461Q96 459 135 458T205 456T259 455T291 455H376Q385 455 405 456T443 461L449 453L446 437Q435 424 417 400T377 343T332 275T286 203T245 135T214 78L218 74H249Q301 74 330 76T376
85T400 108T417 151L420 155H462L446 6L441 -4Q438 -4 422 -4T383 -3T332 -2T280 -1T237 -1T213 0H181Q170 0 152 0T112 -1T71 -2T39 -4L32 4V18Q45 31 64 57T107 116T154 186T200 260T238 328T264 384L260 388H185Q155 388 138 385T111 373T98 351T91 319L87 315H50L43
320Z" />
<glyph unicode="{" glyph-name="braceleft" horiz-adv-x="290" d="M253 729Q234 727 223 719T207 699T200 671T198 637Q198 628 198 609T199 569T199 528T200 494Q200 463 194 436T173 386T131 349T66 327Q105 321 131 306T172 268T194 219T200 160Q200 147 200
127T199 85T199 45T198 17Q198 -1 199 -16T206 -44T223 -65T253 -75L251 -106Q201 -106 171 -96T125 -67T103 -22T97 36Q97 47 97 66T98 106T98 149T99 184Q99 202 98 224T90 265T69 297T27 312V342Q54 343 68 357T90 391T98 433T99 473Q99 488 99 508T98 550T98
589T97 618Q97 649 102 675T124 720T171 749T251 760L253 729Z" />
<glyph unicode="|" glyph-name="bar" horiz-adv-x="269" d="M75 -110Q83 -43 85 37T87 192V500Q87 525 87 557T86 626T82 697T75 764L76 768H192L194 764Q189 733 187 698T184 626T182 558T182 500V192Q182 118 184 38T194 -110L192 -114H76L75 -110Z" />
<glyph unicode="}" glyph-name="braceright" horiz-adv-x="290" d="M39 760Q89 760 119 750T165 721T187 676T193 618Q193 607 193 589T192 550T192 509T191 473Q191 455 192 433T200 391T221 357T263 342V312Q236 311 222 298T201 265T193 224T191 184Q191 170
191 149T192 107T192 66T193 36Q193 4 188 -22T166 -66T119 -95T39 -106L37 -75Q56 -73 67 -65T83 -45T90 -17T92 17Q92 26 92 45T91 85T91 126T90 160Q90 191 96 218T117 268T159 305T224 327Q185 333 159 348T118 386T96 435T90 494Q90 507 90 527T91 569T91
609T92 637Q92 655 91 670T84 698T67 719T37 729L39 760Z" />
<glyph unicode="~" glyph-name="asciitilde" horiz-adv-x="489" d="M429 293Q429 289 424 274T406 241T376 210T331 196Q320 196 295 197T241 200T184 203T140 205Q115 205 105 199T85 180L62 197Q62 207 69 223T89 255T120 282T163 294Q176 294 197 293T243 290T294
287T342 285Q359 285 376 289T407 311L429 293Z" />
<glyph unicode="&#xa0;" glyph-name="uni00A0" horiz-adv-x="240" />
<glyph unicode="&#xa1;" glyph-name="exclamdown" horiz-adv-x="245" d="M182 -222L60 -186L56 -177Q57 -167 58 -154T61 -118T65 -61T69 25T73 149T78 321L84 325L159 299L164 292Q167 188 169 115T174 -9T179 -89T182 -138T185 -168T186 -190Q186 -195 186 -202T187
-219L182 -222ZM57 411Q57 437 76 456T121 475Q133 475 145 470T166 456T181 436T187 411Q187 386 167 366T121 345Q108 345 97 350T76 365T62 387T57 411Z" />
<glyph unicode="&#xa2;" glyph-name="cent" horiz-adv-x="515" d="M420 286L416 289Q416 312 403 326T370 349T330 360T292 363Q257 363 231 350T188 315T163 264T154 204Q154 176 163 150T192 105T240 73T310 61Q344 61 382 68T450 91L467 67L452 39Q435 27 405
14T337 -6Q339 -40 341 -72T348 -135L346 -139H230L229 -135Q233 -106 235 -74T239 -7Q198 -1 162 16T99 61T57 123T41 200Q41 251 56 291T98 361T161 408T239 433Q238 470 236 506T229 573L230 577H346L348 573Q343 542 341 507T337 435Q375 430 408 421T459 402L462
393L451 286H420Z" />
<glyph unicode="&#xa3;" glyph-name="sterling" horiz-adv-x="527" d="M148 327Q143 359 139 392T134 457Q134 553 180 609T311 665Q332 665 356 660T402 644T444 613T476 565L463 464H416L412 468Q407 525 388 553T323 582Q283 582 269 550T254 466Q254 437 257
401T263 327H372L362 255H265Q265 223 261 194T247 139T220 94T177 63L179 60Q250 48 286 46T333 44Q357 44 371 47T394 56T407 73T416 99L421 105H468L431 -49L422 -59Q400 -47 357 -38T262 -24T154 -17T53 -14L43 11V34Q76 60 97 85T131 135T148 186T153 239Q153
243 153 246T152 255H50L70 327H148Z" />
<glyph unicode="&#xa4;" glyph-name="currency" horiz-adv-x="596" d="M124 112Q85 163 85 230Q85 261 94 289T125 346L50 418L105 473L178 402Q208 422 236 431T297 441Q330 441 358 432T415 402L488 473L543 419L472 346Q492 317 501 289T511 228Q511 196 502
169T473 112L546 40L490 -15L416 56Q361 16 299 16Q268 16 240 25T180 56L107 -15L53 40L124 112ZM298 363Q271 363 247 353T204 324T176 282T165 229Q165 201 175 177T204 134T246 106T299 95Q327 95 351 105T393 134T421 176T431 229Q431 257 421 281T393 324T351
352T298 363Z" />
<glyph unicode="&#xa5;" glyph-name="yen" horiz-adv-x="742" d="M315 237V250Q315 269 311 283T301 309H148L163 391H250Q224 431 195 472T137 557Q130 568 121 578T105 595Q94 604 79 608T43 614L35 618V656L40 660Q65 657 85 655T129 652H211Q234 652 264 654T323
660L327 656V618L323 614Q303 613 288 611T264 602Q254 595 254 584Q254 578 256 572T262 561L381 372L493 545Q503 562 503 580Q503 592 496 598T479 607T456 611T432 615L428 619V657L432 661Q461 656 480 656T524 655H612Q636 655 656 656T704 661L708 657V619L704
615Q681 612 665 607T636 593T611 570T583 535Q548 485 526 451T486 391H602L586 309H436Q432 301 429 289T425 264V237H596L580 155H425L428 107Q430 79 437 68T453 50Q461 43 475 42T506 40L511 36L514 -2L512 -6Q505 -6 489 -5T456 -3T423 -1T400 0H341Q334
0 318 -1T285 -3T251 -5T228 -6L227 -2L229 36L234 40Q249 40 263 41T287 50Q296 57 303 68T312 107Q313 115 313 126T314 155H142L157 237H315Z" />
<glyph unicode="&#xa6;" glyph-name="brokenbar" horiz-adv-x="273" d="M77 384Q81 417 83 441T86 485T88 526T89 572V605Q89 619 89 634T88 667T84 709T77 764L78 768H194L196 764Q191 733 189 710T186 668T184 634T184 605V572Q184 546 184 526T186 486T189
441T196 384L194 380H78L77 384ZM77 -110Q81 -77 83 -53T86 -9T88 32T89 78V110Q89 124 89 139T88 172T84 215T77 270L78 274H194L196 270Q191 239 189 215T186 173T184 139T184 110V78Q184 52 184 32T186 -8T189 -53T196 -110L194 -114H78L77 -110Z" />
<glyph unicode="&#xa7;" glyph-name="section" horiz-adv-x="438" d="M43 367Q43 401 61 431T112 488Q104 505 102 518T100 544Q100 575 112 605T145 657T197 694T266 708Q287 708 309 699T349 668L351 660L302 570H297Q285 597 262 612T215 627Q200 627 188 620T176
597Q176 573 187 552T217 511T258 472T301 432Q325 409 343 391T373 356T391 320T397 279Q397 245 375 214T320 157Q328 140 330 127T332 102Q332 71 322 42T292 -9T246 -46T186 -60Q160 -60 132 -47T83 -2L81 6L140 76H145Q156 47 176 33T217 19Q232 19 244 26T256
49Q256 73 245 94T215 135T174 174T131 214Q107 236 90 254T63 290T48 326T43 367ZM120 398Q120 378 125 367T147 339T197 293T283 208Q296 221 304 232T312 248Q312 267 307 278T284 306T235 352T148 437Q136 425 128 414T120 398Z" />
<glyph unicode="&#xa8;" glyph-name="dieresis" horiz-adv-x="220" d="M-35 610Q-35 622 -30 634T-16 655T4 670T29 676Q54 676 74 656T95 610Q95 597 90 586T75 565T53 551T29 546Q3 546 -16 565T-35 610ZM125 610Q125 622 130 634T144 655T164 670T189 676Q214
676 234 656T255 610Q255 597 250 586T235 565T213 551T189 546Q163 546 144 565T125 610Z" />
<glyph unicode="&#xa9;" glyph-name="copyright" horiz-adv-x="717" d="M419 418Q416 444 396 452T353 460Q339 460 320 453T292 432Q283 420 277 401T271 355Q271 304 300 277T368 250Q388 250 412 254T464 278L473 248L466 215Q441 201 415 193T361 184Q322
184 290 196T236 231T201 284T188 353Q188 389 199 420T232 475T287 512T363 526Q383 526 416 519T479 500L480 493L472 413H425L419 418ZM358 654Q421 654 476 631T573 566T638 471T662 354Q662 291 638 236T573 140T475 76T353 52Q292 52 238 76T143 141T79 237T55
354Q55 416 78 470T143 566T240 630T358 654ZM358 595Q309 595 266 576T190 525T139 448T120 354Q120 304 138 260T189 182T263 130T354 111Q405 111 449 130T526 181T578 258T597 354Q597 404 578 448T527 524T451 576T358 595Z" />
<glyph unicode="&#xaa;" glyph-name="ordfeminine" horiz-adv-x="378" d="M207 445Q209 448 211 452T214 462L217 506Q196 506 177 505T144 498T122 482T113 455Q113 435 121 427T141 418Q168 418 183 426T207 445ZM212 406Q181 369 130 369Q93 369 71 391T49
451Q49 486 70 505T120 532T176 542T217 544Q216 565 212 577T201 596T185 604T164 606Q157 606 148 605T131 601T116 591T109 575L107 572H81L76 628L78 632Q81 635 90 639T113 648T143 655T176 658Q287 658 287 567Q287 544 287 527T286 496T286 468T285 438Q285
415 297 411T326 407L328 374Q317 375 306 375T280 376Q263 376 246 376T214 375L210 379Q212 385 213 391T214 403L212 406Z" />
<glyph unicode="&#xab;" glyph-name="guillemotleft" horiz-adv-x="531" d="M281 411Q237 367 205 327T141 240Q173 195 205 155T281 70L276 60H178L171 64Q159 83 147 101T119 139T84 184T39 240Q64 271 83 296T118 341T146 380T171 417L178 421H276L281 411ZM481
411Q437 367 405 327T341 240Q373 195 405 155T481 70L476 60H378L371 64Q359 83 347 101T319 139T284 184T239 240Q264 271 283 296T318 341T346 380T371 417L378 421H476L481 411Z" />
<glyph unicode="&#xac;" glyph-name="logicalnot" horiz-adv-x="624" d="M551 341V117H458V259H71V341H551Z" />
<glyph unicode="&#xad;" glyph-name="uni00AD" horiz-adv-x="468" d="M406 280L390 198H62L77 280H406Z" />
<glyph unicode="&#xae;" glyph-name="registered" horiz-adv-x="717" d="M208 201V232Q224 233 232 238T245 252T249 276T250 312V432Q250 458 243 477T208 498V532H344Q379 532 403 524T441 502T462 470T469 434Q469 411 465 395T453 368T436 350T416 338Q428
320 441 301T467 267T495 241T522 230V201Q506 199 502 199T489 199Q472 199 460 203T436 217T410 246T375 294L356 321H317Q317 268 325 250T359 231L361 201H208ZM351 368Q377 368 391 388T405 430Q405 454 390 469T352 484H317V381Q317 371 321 370T331 368H351ZM358
654Q421 654 476 631T573 566T638 471T662 354Q662 291 638 236T573 140T475 76T353 52Q292 52 238 76T143 141T79 237T55 354Q55 416 78 470T143 566T240 630T358 654ZM358 595Q309 595 266 576T190 525T139 448T120 354Q120 304 138 260T189 182T263 130T354
111Q405 111 449 130T526 181T578 258T597 354Q597 404 578 448T527 524T451 576T358 595Z" />
<glyph unicode="&#xb0;" glyph-name="degree" horiz-adv-x="369" d="M184 659Q218 659 244 649T287 620T313 577T322 526Q322 501 314 478T288 438T245 411T184 400Q148 400 122 410T80 439T56 480T48 529Q48 556 57 579T83 620T125 648T184 659ZM184 460Q216
460 232 479T248 526Q248 554 232 575T183 596Q150 596 135 576T120 530Q120 501 136 481T184 460Z" />
<glyph unicode="&#xb1;" glyph-name="plusminus" horiz-adv-x="462" d="M277 366H391L381 283H277V183H185V283H72L81 366H185V455H277V366ZM391 123L378 40H69L81 123H391Z" />
<glyph unicode="&#xb2;" glyph-name="twosuperior" horiz-adv-x="378" d="M67 606Q75 617 86 628T112 649T147 663T193 669Q250 669 277 642T305 572Q305 551 294 529T267 486T231 445T195 410T167 381T156 361H209Q230 361 245 362T269 368T284 385T293 418H322L313
308L308 303Q305 303 289 303T254 304T218 305T193 306H119Q107 306 92 305T63 303L58 319V341Q77 363 107 393T167 455T217 517T238 571Q238 592 223 605T186 619Q148 619 131 601T111 552H73L67 606Z" />
<glyph unicode="&#xb3;" glyph-name="threesuperior" horiz-adv-x="353" d="M98 403Q102 373 122 360T168 346Q197 346 220 363T243 409Q243 437 227 456T177 475H135L141 516Q184 517 204 535T225 575Q225 595 208 607T169 620Q147 620 128 607T108 572Q108 565
109 562H67L62 606Q68 616 76 627T98 647T129 661T173 667Q200 667 221 660T258 640T280 611T288 577Q288 555 278 535T241 500Q276 492 291 468T306 415Q306 394 297 373T269 335T226 308T168 297Q126 297 99 313T51 359L57 403H98Z" />
<glyph unicode="&#xb4;" glyph-name="acute" horiz-adv-x="219" d="M20 522L-6 572L-3 579L178 680Q206 678 219 660T233 615Q233 605 229 596L28 519L20 522Z" />
<glyph unicode="&#xb5;" glyph-name="mu" horiz-adv-x="661" d="M179 -131H170Q132 -131 106 -125T66 -106V-100Q80 -75 90 -42T107 25T117 89T121 139V217Q121 236 121 259T120 304T119 342T118 366Q118 378 115 385T107 398Q96 409 82 411T51 414L48 418V452L51
455H102Q125 455 151 455T197 459L232 464L238 455Q236 451 235 441T233 418T232 395T232 378Q232 364 232 348T231 315T230 283T229 257Q229 235 230 208T236 160Q245 113 271 90T330 67Q352 67 371 76T405 98T428 127T441 156V266Q441 287 441 301T441 326T439
346T437 366Q435 377 432 386T425 397Q415 410 400 412T369 414L365 418V452L369 455H387Q399 455 415 455T449 455T484 456T514 459L549 464L555 455Q553 451 552 441T550 418T549 395T549 378Q549 370 549 363T548 346T548 323T547 287V195Q547 173 547 159T548
135T549 117T550 98Q552 75 555 65T565 49Q573 41 588 40T620 38L624 34L626 0L624 -4Q606 -2 585 -1T544 0Q515 0 488 0T435 -3L429 7Q432 20 435 32T440 67Q420 25 389 7T312 -11Q300 -11 285 -9T255 -2T228 12T210 33L207 31Q200 -28 196 -62T184 -125L179 -131Z"
/>
<glyph unicode="&#xb6;" glyph-name="paragraph" horiz-adv-x="620" d="M206 -125L209 -87L214 -84Q230 -84 236 -82T247 -73Q255 -68 261 -57T272 -16Q273 -8 274 18T275 78T276 143T277 197V245Q241 247 199 257T120 290T60 352T36 454Q36 502 52 539T93 602T150
641T213 655Q222 655 237 655T269 655T303 654T333 654H466Q476 654 489 655T515 657T539 659T558 660L560 656L557 618L552 614Q536 614 530 611T519 603Q511 596 505 586T494 547Q492 530 492 510T491 451V231Q491 201 491 162T491 85T492 20T494 -16Q497 -42
504 -55T519 -74Q524 -81 534 -82T552 -84L557 -87L560 -125L558 -129Q551 -128 535 -128T502 -126T469 -125T446 -124H340Q332 -124 314 -124T274 -126T235 -127T208 -129L206 -125ZM346 -56H425L427 -52Q423 -27 421 -8T418 29T417 67T417 114V367Q417 411 418
469T427 582L425 586H346L344 582Q351 527 352 469T353 367V114Q353 82 353 60T352 21T349 -13T344 -52L346 -56Z" />
<glyph unicode="&#xb7;" glyph-name="middot" horiz-adv-x="255" d="M63 244Q63 256 68 268T82 289T102 304T127 310Q152 310 172 290T193 244Q193 231 188 220T173 199T151 185T127 180Q101 180 82 199T63 244Z" />
<glyph unicode="&#xb8;" glyph-name="cedilla" horiz-adv-x="202" d="M0 -178L13 -140H20Q32 -143 51 -149T89 -155Q111 -155 127 -150T143 -127Q143 -109 128 -103T91 -96Q79 -96 67 -98T43 -103L34 -77L85 0H139L114 -39Q117 -38 121 -38T128 -37Q170 -37 193
-60T217 -119Q217 -137 208 -154T182 -184T142 -205T92 -213Q68 -213 45 -205T1 -184L0 -178Z" />
<glyph unicode="&#xb9;" glyph-name="onesuperior" horiz-adv-x="300" d="M57 600L58 604Q93 617 123 630T183 665H187L201 660Q198 628 198 593T197 508V453Q197 432 197 419T197 396T197 379T199 363Q200 350 204 344T214 334Q219 330 230 328T251 325L254 297Q249
297 241 297T224 298T206 299T193 299H129Q124 299 116 299T98 299T80 298T67 297L70 325Q79 325 91 327T109 334Q114 338 117 344T123 363Q124 370 124 376T125 390T125 410T125 439V506Q125 523 125 533T125 551T125 563T123 576L57 559V600Z" />
<glyph unicode="&#xba;" glyph-name="ordmasculine" horiz-adv-x="370" d="M184 658Q218 658 244 646T288 614T315 566T324 510Q324 483 316 458T290 413T246 381T185 369Q149 369 123 381T80 413T55 460T46 513Q46 543 55 569T83 615T126 646T184 658ZM185 424Q219
424 236 450T254 510Q254 527 250 543T236 572T214 592T182 600Q147 600 131 574T114 514Q114 497 119 481T133 452T155 432T185 424Z" />
<glyph unicode="&#xbb;" glyph-name="guillemotright" horiz-adv-x="531" d="M255 421H353L360 417Q372 398 384 380T412 342T447 296T492 240Q467 209 448 185T413 140T385 101T360 64L353 60H255L250 70Q293 114 325 154T390 240Q358 286 326 326T250 411L255
421ZM55 421H153L160 417Q172 398 184 380T212 342T247 296T292 240Q267 209 248 185T213 140T185 101T160 64L153 60H55L50 70Q93 114 125 154T190 240Q158 286 126 326T50 411L55 421Z" />
<glyph unicode="&#xbc;" glyph-name="onequarter" horiz-adv-x="752" d="M53 600L54 604Q89 617 119 630T179 665H183L197 660Q194 628 194 593T193 508V453Q193 432 193 419T193 396T193 379T195 363Q196 350 200 344T210 334Q215 330 226 328T247 325L250 297Q245
297 237 297T220 298T202 299T189 299H125Q120 299 112 299T94 299T76 298T63 297L66 325Q75 325 87 327T105 334Q110 338 113 344T119 363Q120 370 120 376T121 390T121 410T121 439V506Q121 523 121 533T121 551T121 563T119 576L53 559V600ZM90 23Q118 56 142
86T189 146T236 208T287 278L407 443Q444 494 484 550T559 669L564 673H680L679 669Q629 613 590 561T516 461L383 278Q356 240 333 208T290 146T250 86T210 23L205 19H89L90 23ZM423 112L417 137L571 356L654 364L661 359Q661 351 661 342T659 312T658 256T657
161H703L695 109H657Q657 85 658 69T663 43T678 29T707 25L709 -2Q701 -2 682 -1T654 0H591Q587 0 579 0T561 -1T544 -1T531 -2L534 25Q554 25 565 29T581 43T587 69T588 109H428L423 112ZM485 161H588Q588 221 588 252T586 299L485 161Z" />
<glyph unicode="&#xbd;" glyph-name="onehalf" horiz-adv-x="775" d="M53 600L54 604Q89 617 119 630T179 665H183L197 660Q194 628 194 593T193 508V453Q193 432 193 419T193 396T193 379T195 363Q196 350 200 344T210 334Q215 330 226 328T247 325L250 297Q245
297 237 297T220 298T202 299T189 299H125Q120 299 112 299T94 299T76 298T63 297L66 325Q75 325 87 327T105 334Q110 338 113 344T119 363Q120 370 120 376T121 390T121 410T121 439V506Q121 523 121 533T121 551T121 563T119 576L53 559V600ZM90 23Q118 56 142
86T189 146T236 208T287 278L407 443Q444 494 484 550T559 669L564 673H680L679 669Q629 613 590 561T516 461L383 278Q356 240 333 208T290 146T250 86T210 23L205 19H89L90 23ZM477 300Q485 311 496 322T522 343T557 357T603 363Q660 363 687 336T715 266Q715
244 704 223T677 180T641 139T605 104T577 75T566 55H619Q640 55 655 56T679 62T694 79T703 112H732L723 2L718 -3Q715 -3 699 -3T664 -2T628 -1T603 0H529Q517 0 502 -1T473 -3L468 13V35Q487 57 517 87T577 149T627 211T648 265Q648 286 633 299T596 313Q558
313 541 295T521 246H483L477 300Z" />
<glyph unicode="&#xbe;" glyph-name="threequarters" horiz-adv-x="776" d="M95 403Q99 373 119 360T165 346Q194 346 217 363T240 409Q240 437 224 456T174 475H132L138 516Q181 517 201 535T222 575Q222 595 205 607T166 620Q144 620 125 607T105 572Q105 566
106 562H64L59 606Q65 616 73 627T95 647T126 661T170 667Q197 667 218 660T255 640T277 611T285 577Q285 555 275 535T238 500Q273 492 288 468T303 415Q303 394 294 373T266 335T223 308T165 297Q123 297 96 313T48 359L54 403H95ZM98 23Q126 56 150 86T197 146T244
208T295 278L415 443Q452 494 492 550T567 669L572 673H688L687 669Q637 613 598 561T524 461L391 278Q364 240 341 208T298 146T258 86T218 23L213 19H97L98 23ZM450 112L444 137L598 356L681 364L688 359Q688 351 688 342T686 312T685 256T684 161H730L722 109H684Q684
85 685 69T690 43T705 29T734 25L736 -2Q728 -2 709 -1T681 0H618Q614 0 606 0T588 -1T571 -1T558 -2L561 25Q581 25 592 29T608 43T614 69T615 109H455L450 112ZM512 161H615Q615 221 615 252T613 299L512 161Z" />
<glyph unicode="&#xbf;" glyph-name="questiondown" horiz-adv-x="417" d="M193 273L199 280L264 296L270 292Q271 272 272 249T273 215Q273 175 254 141T211 72T169 2T149 -78Q149 -115 169 -132T209 -149Q233 -149 253 -141T289 -119T313 -87T325 -47L327 -44H365L377
-147L375 -156Q365 -173 346 -185T302 -205T253 -217T206 -221Q185 -221 157 -214T103 -189T60 -140T42 -61Q42 -30 52 -2T79 53T113 104T148 150T176 193T189 231L193 273ZM296 412Q296 400 291 388T277 367T257 352T232 346Q207 346 187 366T166 412Q166 425
171 436T186 457T208 471T232 476Q258 476 277 457T296 412Z" />
<glyph unicode="&#xc0;" glyph-name="Agrave" horiz-adv-x="699" d="M386 665L558 211Q567 186 574 169T585 140T593 121T600 107Q612 82 624 69T649 49T675 41T701 40L706 36L709 -2L707 -6Q700 -6 686 -5T657 -3T629 -1T608 0H535Q528 0 512 -1T479 -3T445 -5T422
-6L420 -2L423 36L427 40Q453 40 466 46T480 82Q480 98 475 127T449 201L428 249H253L233 201Q215 157 206 126T197 82Q197 58 207 49T243 40L248 36L251 -2L249 -6Q242 -6 227 -5T196 -3T164 -1T142 0H83Q76 0 62 -1T33 -3T5 -5T-16 -6L-17 -2L-15 36L-10 40Q3
40 16 42T42 51T67 70T93 103Q96 109 102 121T121 166T157 257T218 414L304 635L375 665H386ZM270 322H401L337 499L270 322ZM418 689L217 766Q213 775 213 785Q213 811 226 829T268 850L449 749L452 742L426 692L418 689Z" />
<glyph unicode="&#xc1;" glyph-name="Aacute" horiz-adv-x="699" d="M386 665L558 211Q567 186 574 169T585 140T593 121T600 107Q612 82 624 69T649 49T675 41T701 40L706 36L709 -2L707 -6Q700 -6 686 -5T657 -3T629 -1T608 0H535Q528 0 512 -1T479 -3T445 -5T422
-6L420 -2L423 36L427 40Q453 40 466 46T480 82Q480 98 475 127T449 201L428 249H253L233 201Q215 157 206 126T197 82Q197 58 207 49T243 40L248 36L251 -2L249 -6Q242 -6 227 -5T196 -3T164 -1T142 0H83Q76 0 62 -1T33 -3T5 -5T-16 -6L-17 -2L-15 36L-10 40Q3
40 16 42T42 51T67 70T93 103Q96 109 102 121T121 166T157 257T218 414L304 635L375 665H386ZM270 322H401L337 499L270 322ZM246 692L220 742L223 749L404 850Q432 848 445 830T459 785Q459 775 455 766L254 689L246 692Z" />
<glyph unicode="&#xc2;" glyph-name="Acircumflex" horiz-adv-x="699" d="M386 665L558 211Q567 186 574 169T585 140T593 121T600 107Q612 82 624 69T649 49T675 41T701 40L706 36L709 -2L707 -6Q700 -6 686 -5T657 -3T629 -1T608 0H535Q528 0 512 -1T479 -3T445
-5T422 -6L420 -2L423 36L427 40Q453 40 466 46T480 82Q480 98 475 127T449 201L428 249H253L233 201Q215 157 206 126T197 82Q197 58 207 49T243 40L248 36L251 -2L249 -6Q242 -6 227 -5T196 -3T164 -1T142 0H83Q76 0 62 -1T33 -3T5 -5T-16 -6L-17 -2L-15 36L-10
40Q3 40 16 42T42 51T67 70T93 103Q96 109 102 121T121 166T157 257T218 414L304 635L375 665H386ZM270 322H401L337 499L270 322ZM343 850L453 751L456 744L447 715L440 712L339 753L238 712L231 715L222 744L225 751L335 850H343Z" />
<glyph unicode="&#xc3;" glyph-name="Atilde" horiz-adv-x="699" d="M386 665L558 211Q567 186 574 169T585 140T593 121T600 107Q612 82 624 69T649 49T675 41T701 40L706 36L709 -2L707 -6Q700 -6 686 -5T657 -3T629 -1T608 0H535Q528 0 512 -1T479 -3T445 -5T422
-6L420 -2L423 36L427 40Q453 40 466 46T480 82Q480 98 475 127T449 201L428 249H253L233 201Q215 157 206 126T197 82Q197 58 207 49T243 40L248 36L251 -2L249 -6Q242 -6 227 -5T196 -3T164 -1T142 0H83Q76 0 62 -1T33 -3T5 -5T-16 -6L-17 -2L-15 36L-10 40Q3
40 16 42T42 51T67 70T93 103Q96 109 102 121T121 166T157 257T218 414L304 635L375 665H386ZM270 322H401L337 499L270 322ZM495 801Q492 787 486 774T469 749T443 731T407 724Q367 724 326 731T252 738Q227 738 217 732T197 713L184 761Q188 774 195 788T212
812T238 830T275 837Q300 837 318 835T353 830T384 825T418 823Q435 823 452 827T483 849L495 801Z" />
<glyph unicode="&#xc4;" glyph-name="Adieresis" horiz-adv-x="699" d="M386 665L558 211Q567 186 574 169T585 140T593 121T600 107Q612 82 624 69T649 49T675 41T701 40L706 36L709 -2L707 -6Q700 -6 686 -5T657 -3T629 -1T608 0H535Q528 0 512 -1T479 -3T445
-5T422 -6L420 -2L423 36L427 40Q453 40 466 46T480 82Q480 98 475 127T449 201L428 249H253L233 201Q215 157 206 126T197 82Q197 58 207 49T243 40L248 36L251 -2L249 -6Q242 -6 227 -5T196 -3T164 -1T142 0H83Q76 0 62 -1T33 -3T5 -5T-16 -6L-17 -2L-15 36L-10
40Q3 40 16 42T42 51T67 70T93 103Q96 109 102 121T121 166T157 257T218 414L304 635L375 665H386ZM270 322H401L337 499L270 322ZM192 783Q192 795 197 807T211 828T231 843T256 849Q281 849 301 829T322 783Q322 770 317 759T302 738T280 724T256 719Q230 719
211 738T192 783ZM352 783Q352 795 357 807T371 828T391 843T416 849Q441 849 461 829T482 783Q482 770 477 759T462 738T440 724T416 719Q390 719 371 738T352 783Z" />
<glyph unicode="&#xc5;" glyph-name="Aring" horiz-adv-x="699" d="M339 795Q361 795 378 788T407 768T425 741T431 710Q431 690 422 673T394 644L558 211Q567 186 574 169T585 140T593 121T600 107Q612 82 624 69T649 49T675 41T701 40L706 36L709 -2L707 -6Q700
-6 686 -5T657 -3T629 -1T608 0H535Q528 0 512 -1T479 -3T445 -5T422 -6L420 -2L423 36L427 40Q453 40 466 46T480 82Q480 98 475 127T449 201L428 249H253L233 201Q215 157 206 126T197 82Q197 58 207 49T243 40L248 36L251 -2L249 -6Q242 -6 227 -5T196 -3T164
-1T142 0H83Q76 0 62 -1T33 -3T5 -5T-16 -6L-17 -2L-15 36L-10 40Q3 40 16 42T42 51T67 70T93 103Q96 109 102 121T121 166T157 257T218 414L304 635Q275 645 261 667T247 712Q247 744 271 769T339 795ZM270 322H401L337 499L270 322ZM340 674Q355 674 364 685T373
710Q373 724 364 737T338 751Q321 751 313 739T304 713Q304 699 314 687T340 674Z" />
<glyph unicode="&#xc6;" glyph-name="AE" horiz-adv-x="942" d="M339 660Q346 659 363 658T402 656T447 655T491 654H695Q709 654 736 654T793 656T845 657T873 658L879 648L874 519H829L825 523Q823 542 820 553T801 569T755 575T667 576H610L609 567Q608 553
608 541T607 513T606 474T606 415V381Q630 382 652 382T692 383T724 387T744 396Q749 401 752 407T755 422L760 427L797 429L801 427Q799 404 798 387T796 348Q796 324 797 304T801 259L797 257L759 259L755 262Q755 286 745 299Q737 310 700 311T617 313H606V231Q606
202 606 183T607 151T609 125T611 97Q612 78 631 78H676Q733 78 765 80T815 89T839 111T853 149L857 153H904L885 6L877 -4Q872 -4 853 -4T809 -2T761 -1T723 0H521Q496 0 466 -1T409 -2L407 1L410 36L415 40Q436 40 448 42T468 50Q476 57 483 71T492 105Q494 121
494 147T495 193V298H326Q283 229 259 189T222 126T206 93T203 72Q203 61 208 55T221 45T239 41T261 40L266 36L269 -2L266 -6Q259 -6 242 -5T205 -3T168 -1T143 0H74Q67 0 53 -1T24 -3T-5 -5T-26 -6V-2L-24 36L-19 40Q-1 42 22 45T60 59Q70 66 80 78T102 107Q105
112 118 133T151 187T195 261T246 346T298 435T348 520Q363 546 373 563T383 595Q383 598 383 601T378 606T367 611T344 614L340 618L337 656L339 660ZM497 576H493L361 366H495L497 576Z" />
<glyph unicode="&#xc7;" glyph-name="Ccedilla" horiz-adv-x="651" d="M235 -178L248 -140H255Q267 -143 286 -149T324 -155Q346 -155 362 -150T378 -127Q378 -109 363 -103T326 -96Q314 -96 302 -98T278 -103L269 -77L316 -6Q254 3 205 31T120 101T66 200T47
324Q47 394 68 456T132 565T237 638T383 665Q403 665 430 664T487 658T547 645T606 623L609 614L596 503H547L544 507Q541 529 525 544T486 569T434 582T377 586Q288 586 239 541Q201 507 184 451T167 328Q167 265 184 217T232 137T305 88T397 71Q440 71 496 80T603
117L615 95L591 51Q539 19 487 4T379 -11Q376 -11 373 -11T367 -10L349 -39Q352 -38 356 -38T363 -37Q405 -37 428 -60T452 -119Q452 -137 443 -154T417 -184T377 -205T327 -213Q303 -213 280 -205T236 -184L235 -178Z" />
<glyph unicode="&#xc8;" glyph-name="Egrave" horiz-adv-x="575" d="M328 654Q342 654 369 654T426 656T478 657T506 658L512 648L507 519H462L458 523Q456 542 453 553T434 569T388 575T300 576H243L242 567Q241 553 241 541T240 513T239 474T239 415V381Q263
382 285 382T326 382T358 385T378 394Q388 404 388 422L393 427L430 429L434 427Q432 404 431 387T429 348Q429 324 430 304T434 259L430 257L392 259L388 262Q388 287 379 299Q371 310 334 311T250 313H239V231Q239 202 239 183T240 151T242 125T244 97Q245 78
264 78H309Q366 78 398 80T448 89T472 111T486 149L490 153H537L518 6L510 -4Q505 -4 486 -4T442 -2T394 -1T356 0H154Q147 0 131 -1T98 -3T65 -5T42 -6L40 -2L43 36L48 40Q64 40 78 41T101 50Q109 57 116 68T126 107Q126 114 126 123T127 147T128 181T128 231V394Q128
429 128 453T128 494T128 523T126 547Q124 574 117 586T101 604Q92 612 78 613T48 614L43 618L40 656L42 660Q49 660 65 659T99 657T135 655T164 654H328ZM363 689L162 766Q158 775 158 785Q158 811 171 829T213 850L394 749L397 742L371 692L363 689Z" />
<glyph unicode="&#xc9;" glyph-name="Eacute" horiz-adv-x="575" d="M328 654Q342 654 369 654T426 656T478 657T506 658L512 648L507 519H462L458 523Q456 542 453 553T434 569T388 575T300 576H243L242 567Q241 553 241 541T240 513T239 474T239 415V381Q263
382 285 382T326 382T358 385T378 394Q388 404 388 422L393 427L430 429L434 427Q432 404 431 387T429 348Q429 324 430 304T434 259L430 257L392 259L388 262Q388 287 379 299Q371 310 334 311T250 313H239V231Q239 202 239 183T240 151T242 125T244 97Q245 78
264 78H309Q366 78 398 80T448 89T472 111T486 149L490 153H537L518 6L510 -4Q505 -4 486 -4T442 -2T394 -1T356 0H154Q147 0 131 -1T98 -3T65 -5T42 -6L40 -2L43 36L48 40Q64 40 78 41T101 50Q109 57 116 68T126 107Q126 114 126 123T127 147T128 181T128 231V394Q128
429 128 453T128 494T128 523T126 547Q124 574 117 586T101 604Q92 612 78 613T48 614L43 618L40 656L42 660Q49 660 65 659T99 657T135 655T164 654H328ZM184 692L158 742L161 749L342 850Q370 848 383 830T397 785Q397 775 393 766L192 689L184 692Z" />
<glyph unicode="&#xca;" glyph-name="Ecircumflex" horiz-adv-x="575" d="M328 654Q342 654 369 654T426 656T478 657T506 658L512 648L507 519H462L458 523Q456 542 453 553T434 569T388 575T300 576H243L242 567Q241 553 241 541T240 513T239 474T239 415V381Q263
382 285 382T326 382T358 385T378 394Q388 404 388 422L393 427L430 429L434 427Q432 404 431 387T429 348Q429 324 430 304T434 259L430 257L392 259L388 262Q388 287 379 299Q371 310 334 311T250 313H239V231Q239 202 239 183T240 151T242 125T244 97Q245 78
264 78H309Q366 78 398 80T448 89T472 111T486 149L490 153H537L518 6L510 -4Q505 -4 486 -4T442 -2T394 -1T356 0H154Q147 0 131 -1T98 -3T65 -5T42 -6L40 -2L43 36L48 40Q64 40 78 41T101 50Q109 57 116 68T126 107Q126 114 126 123T127 147T128 181T128 231V394Q128
429 128 453T128 494T128 523T126 547Q124 574 117 586T101 604Q92 612 78 613T48 614L43 618L40 656L42 660Q49 660 65 659T99 657T135 655T164 654H328ZM281 849L391 750L394 743L385 714L378 711L277 752L176 711L169 714L160 743L163 750L273 849H281Z" />
<glyph unicode="&#xcb;" glyph-name="Edieresis" horiz-adv-x="575" d="M328 654Q342 654 369 654T426 656T478 657T506 658L512 648L507 519H462L458 523Q456 542 453 553T434 569T388 575T300 576H243L242 567Q241 553 241 541T240 513T239 474T239 415V381Q263
382 285 382T326 382T358 385T378 394Q388 404 388 422L393 427L430 429L434 427Q432 404 431 387T429 348Q429 324 430 304T434 259L430 257L392 259L388 262Q388 287 379 299Q371 310 334 311T250 313H239V231Q239 202 239 183T240 151T242 125T244 97Q245 78
264 78H309Q366 78 398 80T448 89T472 111T486 149L490 153H537L518 6L510 -4Q505 -4 486 -4T442 -2T394 -1T356 0H154Q147 0 131 -1T98 -3T65 -5T42 -6L40 -2L43 36L48 40Q64 40 78 41T101 50Q109 57 116 68T126 107Q126 114 126 123T127 147T128 181T128 231V394Q128
429 128 453T128 494T128 523T126 547Q124 574 117 586T101 604Q92 612 78 613T48 614L43 618L40 656L42 660Q49 660 65 659T99 657T135 655T164 654H328ZM150 784Q150 796 155 808T169 829T189 844T214 850Q239 850 259 830T280 784Q280 771 275 760T260 739T238
725T214 720Q188 720 169 739T150 784ZM310 784Q310 796 315 808T329 829T349 844T374 850Q399 850 419 830T440 784Q440 771 435 760T420 739T398 725T374 720Q348 720 329 739T310 784Z" />
<glyph unicode="&#xcc;" glyph-name="Igrave" horiz-adv-x="367" d="M327 656L324 618L320 614Q304 614 290 613T266 604Q257 597 250 586T242 547Q241 533 241 521T240 493T239 454T239 395V251Q239 215 239 193T239 155T240 130T242 107Q244 79 251 68T266 50Q275
43 289 42T320 40L324 36L327 -2L325 -6Q318 -6 302 -5T269 -3T236 -1T213 0H154Q147 0 131 -1T98 -3T65 -5T42 -6L40 -2L43 36L48 40Q64 40 78 41T101 50Q109 57 115 68T126 107Q126 114 126 123T127 147T128 181T128 231V394Q128 429 128 453T128 494T127 523T125
547Q123 573 116 585T101 604Q92 611 78 612T48 614L43 618L40 656L42 660Q49 660 65 659T98 657T131 655T154 654H213Q220 654 236 655T269 657T302 659T325 660L327 656ZM267 688L66 765Q62 774 62 784Q62 810 75 828T117 849L298 748L301 741L275 691L267 688Z"
/>
<glyph unicode="&#xcd;" glyph-name="Iacute" horiz-adv-x="367" d="M327 656L324 618L320 614Q304 614 290 613T266 604Q257 597 250 586T242 547Q241 533 241 521T240 493T239 454T239 395V251Q239 215 239 193T239 155T240 130T242 107Q244 79 251 68T266 50Q275
43 289 42T320 40L324 36L327 -2L325 -6Q318 -6 302 -5T269 -3T236 -1T213 0H154Q147 0 131 -1T98 -3T65 -5T42 -6L40 -2L43 36L48 40Q64 40 78 41T101 50Q109 57 115 68T126 107Q126 114 126 123T127 147T128 181T128 231V394Q128 429 128 453T128 494T127 523T125
547Q123 573 116 585T101 604Q92 611 78 612T48 614L43 618L40 656L42 660Q49 660 65 659T98 657T131 655T154 654H213Q220 654 236 655T269 657T302 659T325 660L327 656ZM94 692L68 742L71 749L252 850Q280 848 293 830T307 785Q307 775 303 766L102 689L94 692Z"
/>
<glyph unicode="&#xce;" glyph-name="Icircumflex" horiz-adv-x="367" d="M327 656L324 618L320 614Q304 614 290 613T266 604Q257 597 250 586T242 547Q241 533 241 521T240 493T239 454T239 395V251Q239 215 239 193T239 155T240 130T242 107Q244 79 251 68T266
50Q275 43 289 42T320 40L324 36L327 -2L325 -6Q318 -6 302 -5T269 -3T236 -1T213 0H154Q147 0 131 -1T98 -3T65 -5T42 -6L40 -2L43 36L48 40Q64 40 78 41T101 50Q109 57 115 68T126 107Q126 114 126 123T127 147T128 181T128 231V394Q128 429 128 453T128 494T127
523T125 547Q123 573 116 585T101 604Q92 611 78 612T48 614L43 618L40 656L42 660Q49 660 65 659T98 657T131 655T154 654H213Q220 654 236 655T269 657T302 659T325 660L327 656ZM186 850L296 751L299 744L290 715L283 712L182 753L81 712L74 715L65 744L68 751L178
850H186Z" />
<glyph unicode="&#xcf;" glyph-name="Idieresis" horiz-adv-x="367" d="M327 656L324 618L320 614Q304 614 290 613T266 604Q257 597 250 586T242 547Q241 533 241 521T240 493T239 454T239 395V251Q239 215 239 193T239 155T240 130T242 107Q244 79 251 68T266
50Q275 43 289 42T320 40L324 36L327 -2L325 -6Q318 -6 302 -5T269 -3T236 -1T213 0H154Q147 0 131 -1T98 -3T65 -5T42 -6L40 -2L43 36L48 40Q64 40 78 41T101 50Q109 57 115 68T126 107Q126 114 126 123T127 147T128 181T128 231V394Q128 429 128 453T128 494T127
523T125 547Q123 573 116 585T101 604Q92 611 78 612T48 614L43 618L40 656L42 660Q49 660 65 659T98 657T131 655T154 654H213Q220 654 236 655T269 657T302 659T325 660L327 656ZM37 785Q37 797 42 809T56 830T76 845T101 851Q126 851 146 831T167 785Q167 772
162 761T147 740T125 726T101 721Q75 721 56 740T37 785ZM197 785Q197 797 202 809T216 830T236 845T261 851Q286 851 306 831T327 785Q327 772 322 761T307 740T285 726T261 721Q235 721 216 740T197 785Z" />
<glyph unicode="&#xd0;" glyph-name="Eth" horiz-adv-x="765" d="M130 370V394Q130 404 130 424T130 468T130 513T128 547Q126 572 119 585T103 604Q94 612 85 613T50 614L45 618L42 656L44 660Q51 660 64 659T92 657T121 655T147 654H244Q257 654 276 654T316
656T356 657T388 658Q466 658 527 632T631 560T695 455T718 328Q718 262 697 203T633 98T528 25T382 -2Q373 -2 355 -2T317 -1T279 -1T249 0H156Q149 0 133 -1T100 -3T67 -5T44 -6L42 -2L45 36L50 40Q62 40 78 41T103 49Q111 55 118 68T128 107Q128 114 128 123T129
147T130 181T130 231V288H31L46 370H130ZM349 78Q409 78 455 97T532 151T580 230T597 328Q597 382 580 427T531 506T451 557T344 576H246Q244 547 244 528T242 488T241 445T241 385V370H375L359 288H241V261Q241 201 241 168T244 117Q247 91 257 85T293 78H349Z"
/>
<glyph unicode="&#xd1;" glyph-name="Ntilde" horiz-adv-x="781" d="M753 656L751 618L746 614Q731 614 717 613T693 604Q685 597 677 586T665 547Q664 533 664 521T663 493T662 454T662 395V239Q662 183 662 147T663 86T665 40T669 -4L661 -9L538 -4L528 8L219
474Q221 456 221 417T222 325V251Q222 239 222 220T222 179T223 139T225 107Q227 82 236 69T255 50Q263 42 276 41T309 40L314 36L317 -2L315 -6Q307 -6 293 -5T263 -3T233 -1T211 0H152Q145 0 129 -1T96 -3T63 -5T40 -6L38 -2L41 36L46 40Q64 40 76 41T99 50Q106
55 116 66T129 107Q130 114 130 123T131 147T131 181T131 231V394Q131 429 131 453T131 494T131 523T129 547Q127 568 118 583T99 604Q90 612 77 613T46 614L41 618L38 656L40 660Q47 660 60 659T88 657T115 655T136 654H221Q229 654 241 655T262 658L267 655Q270
641 282 617T311 562T349 498T389 431Q425 371 453 327T503 249T541 194T568 156Q568 182 568 207T569 258V394Q569 429 569 453T569 494T568 523T566 547Q564 564 558 578T537 604Q528 612 514 613T483 614L479 618L476 656L478 660Q485 660 498 659T524 657T551
655T571 654H658Q665 654 678 654T705 656T732 658T752 660L753 656ZM546 805Q543 791 537 778T520 753T494 735T458 728Q418 728 377 735T303 742Q278 742 268 736T248 717L235 765Q239 778 246 792T263 816T289 834T326 841Q351 841 369 839T404 834T435 829T469
827Q486 827 503 831T534 853L546 805Z" />
<glyph unicode="&#xd2;" glyph-name="Ograve" horiz-adv-x="737" d="M369 665Q446 665 506 638T607 565T669 457T691 329Q691 263 670 202T608 93T505 18T362 -11Q284 -11 225 16T127 88T67 194T47 322Q47 393 69 455T132 564T233 638T369 665ZM368 72Q417 72
455 92T520 147T560 228T574 328Q574 382 560 428T518 509T451 562T363 582Q315 582 278 563T216 510T178 430T165 329Q165 269 180 222T222 141T286 90T368 72ZM419 688L218 765Q214 774 214 784Q214 810 227 828T269 849L450 748L453 741L427 691L419 688Z" />
<glyph unicode="&#xd3;" glyph-name="Oacute" horiz-adv-x="737" d="M369 665Q446 665 506 638T607 565T669 457T691 329Q691 263 670 202T608 93T505 18T362 -11Q284 -11 225 16T127 88T67 194T47 322Q47 393 69 455T132 564T233 638T369 665ZM368 72Q417 72
455 92T520 147T560 228T574 328Q574 382 560 428T518 509T451 562T363 582Q315 582 278 563T216 510T178 430T165 329Q165 269 180 222T222 141T286 90T368 72ZM306 692L280 742L283 749L464 850Q492 848 505 830T519 785Q519 775 515 766L314 689L306 692Z" />
<glyph unicode="&#xd4;" glyph-name="Ocircumflex" horiz-adv-x="737" d="M369 665Q446 665 506 638T607 565T669 457T691 329Q691 263 670 202T608 93T505 18T362 -11Q284 -11 225 16T127 88T67 194T47 322Q47 393 69 455T132 564T233 638T369 665ZM368 72Q417
72 455 92T520 147T560 228T574 328Q574 382 560 428T518 509T451 562T363 582Q315 582 278 563T216 510T178 430T165 329Q165 269 180 222T222 141T286 90T368 72ZM378 849L488 750L491 743L482 714L475 711L374 752L273 711L266 714L257 743L260 750L370 849H378Z"
/>
<glyph unicode="&#xd5;" glyph-name="Otilde" horiz-adv-x="737" d="M369 665Q446 665 506 638T607 565T669 457T691 329Q691 263 670 202T608 93T505 18T362 -11Q284 -11 225 16T127 88T67 194T47 322Q47 393 69 455T132 564T233 638T369 665ZM368 72Q417 72
455 92T520 147T560 228T574 328Q574 382 560 428T518 509T451 562T363 582Q315 582 278 563T216 510T178 430T165 329Q165 269 180 222T222 141T286 90T368 72ZM524 803Q521 789 515 776T498 751T472 733T436 726Q396 726 355 733T281 740Q256 740 246 734T226
715L213 763Q217 776 224 790T241 814T267 832T304 839Q329 839 347 837T382 832T413 827T447 825Q464 825 481 829T512 851L524 803Z" />
<glyph unicode="&#xd6;" glyph-name="Odieresis" horiz-adv-x="737" d="M369 665Q446 665 506 638T607 565T669 457T691 329Q691 263 670 202T608 93T505 18T362 -11Q284 -11 225 16T127 88T67 194T47 322Q47 393 69 455T132 564T233 638T369 665ZM368 72Q417
72 455 92T520 147T560 228T574 328Q574 382 560 428T518 509T451 562T363 582Q315 582 278 563T216 510T178 430T165 329Q165 269 180 222T222 141T286 90T368 72ZM223 785Q223 797 228 809T242 830T262 845T287 851Q312 851 332 831T353 785Q353 772 348 761T333
740T311 726T287 721Q261 721 242 740T223 785ZM383 785Q383 797 388 809T402 830T422 845T447 851Q472 851 492 831T513 785Q513 772 508 761T493 740T471 726T447 721Q421 721 402 740T383 785Z" />
<glyph unicode="&#xd7;" glyph-name="multiply" horiz-adv-x="465" d="M232 187L119 74L67 126L180 239L67 351L119 403L232 291L346 405L398 353L284 239L398 124L347 73L232 187Z" />
<glyph unicode="&#xd8;" glyph-name="Oslash" horiz-adv-x="738" d="M369 665Q423 665 469 651T552 612Q571 635 588 657T618 699L622 702L713 641L712 637Q689 617 667 594T621 546Q656 501 673 446T691 329Q691 263 670 202T608 93T505 18T362 -11Q308 -11 264
2T184 38Q143 -12 118 -48L114 -50L32 30L33 34Q50 50 70 69T110 108Q78 153 63 207T47 322Q47 393 69 455T132 564T233 638T369 665ZM191 193Q266 275 341 362T490 537Q464 558 433 570T363 582Q315 582 278 563T216 510T178 430T165 329Q165 251 191 193ZM368
72Q417 72 455 92T520 147T560 228T574 328Q574 401 546 462Q468 374 393 288T247 114Q298 72 368 72Z" />
<glyph unicode="&#xd9;" glyph-name="Ugrave" horiz-adv-x="732" d="M712 656L709 618L705 614Q691 614 676 613T651 604Q643 597 636 586T626 547Q626 535 626 523T625 494T624 453T624 394V222Q624 173 608 131T559 57T480 7T371 -11Q296 -11 246 7T165 56T122
130T109 222V394Q109 429 109 453T109 494T109 523T107 547Q105 574 98 586T82 604Q73 612 59 613T29 614L24 618L21 656L23 660Q30 660 46 659T79 657T112 655T135 654H194Q201 654 217 655T250 657T283 659T306 660L308 656L305 618L301 614Q287 614 272 613T247
604Q239 597 232 586T223 547Q222 533 222 521T221 493T220 454T220 395V250Q220 157 256 118T369 78Q403 78 432 87T482 118T515 171T527 250V395Q527 431 527 454T527 493T526 521T524 547Q522 576 515 587T499 604Q491 612 477 613T446 614L441 618L438 656L440
660Q447 660 461 659T490 657T520 655T541 654H603Q610 654 625 655T656 657T688 659T710 660L712 656ZM442 689L241 766Q237 775 237 785Q237 811 250 829T292 850L473 749L476 742L450 692L442 689Z" />
<glyph unicode="&#xda;" glyph-name="Uacute" horiz-adv-x="732" d="M712 656L709 618L705 614Q691 614 676 613T651 604Q643 597 636 586T626 547Q626 535 626 523T625 494T624 453T624 394V222Q624 173 608 131T559 57T480 7T371 -11Q296 -11 246 7T165 56T122
130T109 222V394Q109 429 109 453T109 494T109 523T107 547Q105 574 98 586T82 604Q73 612 59 613T29 614L24 618L21 656L23 660Q30 660 46 659T79 657T112 655T135 654H194Q201 654 217 655T250 657T283 659T306 660L308 656L305 618L301 614Q287 614 272 613T247
604Q239 597 232 586T223 547Q222 533 222 521T221 493T220 454T220 395V250Q220 157 256 118T369 78Q403 78 432 87T482 118T515 171T527 250V395Q527 431 527 454T527 493T526 521T524 547Q522 576 515 587T499 604Q491 612 477 613T446 614L441 618L438 656L440
660Q447 660 461 659T490 657T520 655T541 654H603Q610 654 625 655T656 657T688 659T710 660L712 656ZM288 690L262 740L265 747L446 848Q474 846 487 828T501 783Q501 773 497 764L296 687L288 690Z" />
<glyph unicode="&#xdb;" glyph-name="Ucircumflex" horiz-adv-x="731" d="M712 656L709 618L705 614Q691 614 676 613T651 604Q643 597 636 586T626 547Q626 535 626 523T625 494T624 453T624 394V222Q624 173 608 131T559 57T480 7T371 -11Q296 -11 246 7T165
56T122 130T109 222V394Q109 429 109 453T109 494T109 523T107 547Q105 574 98 586T82 604Q73 612 59 613T29 614L24 618L21 656L23 660Q30 660 46 659T79 657T112 655T135 654H194Q201 654 217 655T250 657T283 659T306 660L308 656L305 618L301 614Q287 614 272
613T247 604Q239 597 232 586T223 547Q222 533 222 521T221 493T220 454T220 395V250Q220 157 256 118T369 78Q403 78 432 87T482 118T515 171T527 250V395Q527 431 527 454T527 493T526 521T524 547Q522 576 515 587T499 604Q491 612 477 613T446 614L441 618L438
656L440 660Q447 660 461 659T490 657T520 655T541 654H603Q610 654 625 655T656 657T688 659T710 660L712 656ZM374 851L484 752L487 745L478 716L471 713L370 754L269 713L262 716L253 745L256 752L366 851H374Z" />
<glyph unicode="&#xdc;" glyph-name="Udieresis" horiz-adv-x="731" d="M712 656L709 618L705 614Q691 614 676 613T651 604Q643 597 636 586T626 547Q626 535 626 523T625 494T624 453T624 394V222Q624 173 608 131T559 57T480 7T371 -11Q296 -11 246 7T165 56T122
130T109 222V394Q109 429 109 453T109 494T109 523T107 547Q105 574 98 586T82 604Q73 612 59 613T29 614L24 618L21 656L23 660Q30 660 46 659T79 657T112 655T135 654H194Q201 654 217 655T250 657T283 659T306 660L308 656L305 618L301 614Q287 614 272 613T247
604Q239 597 232 586T223 547Q222 533 222 521T221 493T220 454T220 395V250Q220 157 256 118T369 78Q403 78 432 87T482 118T515 171T527 250V395Q527 431 527 454T527 493T526 521T524 547Q522 576 515 587T499 604Q491 612 477 613T446 614L441 618L438 656L440
660Q447 660 461 659T490 657T520 655T541 654H603Q610 654 625 655T656 657T688 659T710 660L712 656ZM228 782Q228 794 233 806T247 827T267 842T292 848Q317 848 337 828T358 782Q358 769 353 758T338 737T316 723T292 718Q266 718 247 737T228 782ZM388 782Q388
794 393 806T407 827T427 842T452 848Q477 848 497 828T518 782Q518 769 513 758T498 737T476 723T452 718Q426 718 407 737T388 782Z" />
<glyph unicode="&#xdd;" glyph-name="Yacute" horiz-adv-x="653" d="M469 -6Q462 -6 446 -5T413 -3T380 -1T357 0H298Q291 0 275 -1T242 -3T208 -5T185 -6L184 -2L186 36L191 40Q206 40 220 41T244 50Q253 57 260 68T269 107Q270 114 270 123T271 147T272 181T272
231V250Q272 278 264 295T248 327Q215 381 176 439T94 557Q87 568 78 578T62 595Q51 604 36 608T0 614L-8 618V656L-3 660Q22 657 42 655T86 652H168Q191 652 221 654T280 660L284 656V618L280 614Q260 613 245 611T221 602Q211 595 211 584Q211 578 213 572T219
561L338 372L450 545Q460 562 460 580Q460 592 453 598T436 607T413 611T389 615L385 619V657L389 661Q418 656 437 656T481 655H569Q593 655 613 656T661 661L665 657V619L661 615Q638 612 622 607T593 593T568 570T540 535Q510 491 489 460T452 404T423 358T396
314Q392 308 387 294T382 264V249Q382 213 382 191T382 154T383 129T385 107Q387 79 394 68T410 50Q418 43 432 42T463 40L468 36L471 -2L469 -6ZM286 689L260 739L263 746L444 847Q472 845 485 827T499 782Q499 772 495 763L294 686L286 689Z" />
<glyph unicode="&#xde;" glyph-name="Thorn" horiz-adv-x="587" d="M239 540H291Q363 540 413 526T495 486T541 424T556 345Q556 282 530 242T464 179T374 147T276 138H239V104Q239 83 246 70T263 50Q272 43 288 42T320 40L324 36L327 -2L325 -6Q318 -6 302 -5T269
-3T236 -1T213 0H154Q147 0 131 -1T98 -3T65 -5T42 -6L40 -2L43 36L48 40Q63 40 77 41T101 50Q109 57 116 68T126 107Q126 113 126 121T127 140T128 169T128 211V414Q128 449 128 473T128 514T128 543T126 567Q124 584 116 592T100 605Q92 610 78 612T48 614L43
618L40 656L42 660Q49 660 65 659T98 657T131 655T154 654H213Q220 654 236 655T269 657T302 659T325 660L327 656L324 618L320 614Q304 614 290 612T265 605Q251 597 245 589T239 570V540ZM239 462V212H311Q384 212 415 246T447 340Q447 401 411 431T312 462H239Z"
/>
<glyph unicode="&#xdf;" glyph-name="germandbls" horiz-adv-x="617" d="M108 484Q108 541 121 587T162 667T230 718T327 736Q364 736 393 725T443 696T474 654T485 605Q485 571 472 545T442 497T413 454T399 409Q399 386 412 370T447 338T491 306T536 267T570
215T584 141Q584 97 568 68T529 22T478 -3T426 -11Q394 -11 364 0T316 25L312 34L316 147H353L356 143Q356 106 371 83T421 60Q444 60 460 78T477 127Q477 162 465 185T435 224T395 254T355 282T324 319T312 374Q312 410 323 437T347 489T372 539T384 597Q384 620
368 638T322 657Q285 657 264 642T231 602T216 546T213 485V278Q213 258 213 232T213 179T214 131T216 98Q217 77 223 65T240 47T261 40T285 38L290 33L292 0L290 -4Q283 -4 271 -3T245 -2T219 -1T200 0H133Q126 0 112 0T83 -1T54 -3T33 -4L32 0L34 34L37 38Q52
38 66 39T90 49Q96 55 100 64T105 95T107 154T108 254V383H36L32 388V436L36 440L108 455V484Z" />
<glyph unicode="&#xe0;" glyph-name="agrave" horiz-adv-x="517" d="M312 7Q315 16 316 33T321 64L320 67Q308 52 293 38T258 13T218 -4T172 -11Q136 -11 109 0T64 29T37 71T27 121Q27 160 44 189T89 236Q115 253 150 262T218 277T278 283T314 285H328Q327 316
324 333T316 363Q307 383 287 391T238 400Q221 400 202 398T165 388T136 369T121 336L117 333H85L76 427L79 433Q85 439 102 446T143 459T195 470T253 475Q292 475 326 466T384 437T423 390T437 323Q437 282 437 253T435 199T434 151T433 98Q435 75 438 65T448
49Q456 41 472 40T503 38L506 34L508 0L507 -4Q490 -2 468 -1T427 0Q399 0 371 0T318 -3L312 7ZM312 115Q315 120 318 127T323 144L328 229H319Q288 229 258 225T204 210T165 179T150 127Q150 100 163 84T200 68Q217 68 234 72T267 84T294 99T312 115ZM299 519L98
596Q94 605 94 615Q94 641 107 659T149 680L330 579L333 572L307 522L299 519Z" />
<glyph unicode="&#xe1;" glyph-name="aacute" horiz-adv-x="517" d="M312 7Q315 16 316 33T321 64L320 67Q308 52 293 38T258 13T218 -4T172 -11Q136 -11 109 0T64 29T37 71T27 121Q27 160 44 189T89 236Q115 253 150 262T218 277T278 283T314 285H328Q327 316
324 333T316 363Q307 383 287 391T238 400Q221 400 202 398T165 388T136 369T121 336L117 333H85L76 427L79 433Q85 439 102 446T143 459T195 470T253 475Q292 475 326 466T384 437T423 390T437 323Q437 282 437 253T435 199T434 151T433 98Q435 75 438 65T448
49Q456 41 472 40T503 38L506 34L508 0L507 -4Q490 -2 468 -1T427 0Q399 0 371 0T318 -3L312 7ZM312 115Q315 120 318 127T323 144L328 229H319Q288 229 258 225T204 210T165 179T150 127Q150 100 163 84T200 68Q217 68 234 72T267 84T294 99T312 115ZM184 522L158
572L161 579L342 680Q370 678 383 660T397 615Q397 605 393 596L192 519L184 522Z" />
<glyph unicode="&#xe2;" glyph-name="acircumflex" horiz-adv-x="517" d="M312 7Q315 16 316 33T321 64L320 67Q308 52 293 38T258 13T218 -4T172 -11Q136 -11 109 0T64 29T37 71T27 121Q27 160 44 189T89 236Q115 253 150 262T218 277T278 283T314 285H328Q327
316 324 333T316 363Q307 383 287 391T238 400Q221 400 202 398T165 388T136 369T121 336L117 333H85L76 427L79 433Q85 439 102 446T143 459T195 470T253 475Q292 475 326 466T384 437T423 390T437 323Q437 282 437 253T435 199T434 151T433 98Q435 75 438 65T448
49Q456 41 472 40T503 38L506 34L508 0L507 -4Q490 -2 468 -1T427 0Q399 0 371 0T318 -3L312 7ZM312 115Q315 120 318 127T323 144L328 229H319Q288 229 258 225T204 210T165 179T150 127Q150 100 163 84T200 68Q217 68 234 72T267 84T294 99T312 115ZM246 680L356
581L359 574L350 545L343 542L242 583L141 542L134 545L125 574L128 581L238 680H246Z" />
<glyph unicode="&#xe3;" glyph-name="atilde" horiz-adv-x="517" d="M312 7Q315 16 316 33T321 64L320 67Q308 52 293 38T258 13T218 -4T172 -11Q136 -11 109 0T64 29T37 71T27 121Q27 160 44 189T89 236Q115 253 150 262T218 277T278 283T314 285H328Q327 316
324 333T316 363Q307 383 287 391T238 400Q221 400 202 398T165 388T136 369T121 336L117 333H85L76 427L79 433Q85 439 102 446T143 459T195 470T253 475Q292 475 326 466T384 437T423 390T437 323Q437 282 437 253T435 199T434 151T433 98Q435 75 438 65T448
49Q456 41 472 40T503 38L506 34L508 0L507 -4Q490 -2 468 -1T427 0Q399 0 371 0T318 -3L312 7ZM312 115Q315 120 318 127T323 144L328 229H319Q288 229 258 225T204 210T165 179T150 127Q150 100 163 84T200 68Q217 68 234 72T267 84T294 99T312 115ZM395 632Q392
618 386 605T369 580T343 562T307 555Q267 555 226 562T152 569Q127 569 117 563T97 544L84 592Q88 605 95 619T112 643T138 661T175 668Q200 668 218 666T253 661T284 656T318 654Q335 654 352 658T383 680L395 632Z" />
<glyph unicode="&#xe4;" glyph-name="adieresis" horiz-adv-x="517" d="M312 7Q315 16 316 33T321 64L320 67Q308 52 293 38T258 13T218 -4T172 -11Q136 -11 109 0T64 29T37 71T27 121Q27 160 44 189T89 236Q115 253 150 262T218 277T278 283T314 285H328Q327
316 324 333T316 363Q307 383 287 391T238 400Q221 400 202 398T165 388T136 369T121 336L117 333H85L76 427L79 433Q85 439 102 446T143 459T195 470T253 475Q292 475 326 466T384 437T423 390T437 323Q437 282 437 253T435 199T434 151T433 98Q435 75 438 65T448
49Q456 41 472 40T503 38L506 34L508 0L507 -4Q490 -2 468 -1T427 0Q399 0 371 0T318 -3L312 7ZM312 115Q315 120 318 127T323 144L328 229H319Q288 229 258 225T204 210T165 179T150 127Q150 100 163 84T200 68Q217 68 234 72T267 84T294 99T312 115ZM105 613Q105
625 110 637T124 658T144 673T169 679Q194 679 214 659T235 613Q235 600 230 589T215 568T193 554T169 549Q143 549 124 568T105 613ZM265 613Q265 625 270 637T284 658T304 673T329 679Q354 679 374 659T395 613Q395 600 390 589T375 568T353 554T329 549Q303
549 284 568T265 613Z" />
<glyph unicode="&#xe5;" glyph-name="aring" horiz-adv-x="517" d="M312 7Q315 16 316 33T321 64L320 67Q308 52 293 38T258 13T218 -4T172 -11Q136 -11 109 0T64 29T37 71T27 121Q27 160 44 189T89 236Q115 253 150 262T218 277T278 283T314 285H328Q327 316
324 333T316 363Q307 383 287 391T238 400Q221 400 202 398T165 388T136 369T121 336L117 333H85L76 427L79 433Q85 439 102 446T143 459T195 470T253 475Q292 475 326 466T384 437T423 390T437 323Q437 282 437 253T435 199T434 151T433 98Q435 75 438 65T448
49Q456 41 472 40T503 38L506 34L508 0L507 -4Q490 -2 468 -1T427 0Q399 0 371 0T318 -3L312 7ZM312 115Q315 120 318 127T323 144L328 229H319Q288 229 258 225T204 210T165 179T150 127Q150 100 163 84T200 68Q217 68 234 72T267 84T294 99T312 115ZM264 693Q286
693 303 686T332 666T350 639T356 608Q356 578 333 553T265 528Q241 528 224 535T195 554T178 580T172 610Q172 642 196 667T264 693ZM265 572Q280 572 289 583T298 608Q298 622 289 635T263 649Q246 649 238 637T229 611Q229 597 239 585T265 572Z" />
<glyph unicode="&#xe6;" glyph-name="ae" horiz-adv-x="783" d="M242 475Q290 475 329 459T385 405Q414 440 456 457T545 475Q571 475 603 468T666 442T720 387T753 293L745 255L721 237Q667 237 615 236T507 235H425Q424 228 424 222T424 209Q424 183 433 157T461
111T511 78T584 65Q615 65 649 73T714 96L731 89V53L721 42Q697 23 651 6T550 -11Q493 -11 446 12T374 80Q357 54 332 37T279 9T225 -6T180 -11Q144 -11 116 0T67 29T37 71T26 121Q26 160 43 189T88 236Q114 253 149 262T217 277T277 283T313 285H327Q326 316 323
333T315 363Q306 383 286 391T237 400Q220 400 201 398T164 388T135 369T120 336L116 333H84L75 427L78 433Q84 439 100 446T138 459T188 470T242 475ZM311 125Q314 130 317 137T322 154L327 229H318Q287 229 257 225T203 210T164 179T149 127Q149 100 162 84T199
68Q216 68 233 73T266 87T293 106T311 125ZM560 400Q511 400 482 371T444 302H494Q529 302 563 303T632 305Q645 305 651 312T657 328Q657 358 628 379T560 400Z" />
<glyph unicode="&#xe7;" glyph-name="ccedilla" horiz-adv-x="496" d="M137 -178L150 -140H157Q169 -143 188 -149T226 -155Q248 -155 264 -150T280 -127Q280 -109 265 -103T228 -96Q216 -96 204 -98T180 -103L171 -77L219 -4Q180 5 147 26T89 77T50 146T35 230Q35
285 55 330T110 407T191 457T291 475Q315 475 339 472T386 463T427 452T456 439L459 430L448 323H417L413 326Q413 349 400 363T367 386T327 397T289 400Q253 400 226 386T182 349T157 296T148 234Q148 200 157 169T186 114T234 76T304 61Q338 61 376 68T444 91L461
67L446 39Q435 31 418 23T378 7T331 -6T280 -11H269L251 -39Q254 -38 258 -38T265 -37Q307 -37 330 -60T354 -119Q354 -137 345 -154T319 -184T279 -205T229 -213Q205 -213 182 -205T138 -184L137 -178Z" />
<glyph unicode="&#xe8;" glyph-name="egrave" horiz-adv-x="507" d="M469 255L445 237Q391 237 339 236T231 235H149Q148 228 148 222T148 209Q148 183 157 157T185 111T235 78T308 65Q339 65 373 73T438 96L455 89V53L445 42Q421 23 375 6T274 -11Q221 -11 178
6T103 56T54 132T36 230Q36 285 54 330T103 407T177 457T269 475Q295 475 327 468T390 442T444 387T477 293L469 255ZM270 400Q221 400 192 371T154 302H204Q239 302 273 303T342 305Q355 305 361 312T367 328Q367 358 338 379T270 400ZM326 519L125 596Q121 605
121 615Q121 641 134 659T176 680L357 579L360 572L334 522L326 519Z" />
<glyph unicode="&#xe9;" glyph-name="eacute" horiz-adv-x="507" d="M469 255L445 237Q391 237 339 236T231 235H149Q148 228 148 222T148 209Q148 183 157 157T185 111T235 78T308 65Q339 65 373 73T438 96L455 89V53L445 42Q421 23 375 6T274 -11Q221 -11 178
6T103 56T54 132T36 230Q36 285 54 330T103 407T177 457T269 475Q295 475 327 468T390 442T444 387T477 293L469 255ZM270 400Q221 400 192 371T154 302H204Q239 302 273 303T342 305Q355 305 361 312T367 328Q367 358 338 379T270 400ZM201 522L175 572L178 579L359
680Q387 678 400 660T414 615Q414 605 410 596L209 519L201 522Z" />
<glyph unicode="&#xea;" glyph-name="ecircumflex" horiz-adv-x="507" d="M469 255L445 237Q391 237 339 236T231 235H149Q148 228 148 222T148 209Q148 183 157 157T185 111T235 78T308 65Q339 65 373 73T438 96L455 89V53L445 42Q421 23 375 6T274 -11Q221 -11
178 6T103 56T54 132T36 230Q36 285 54 330T103 407T177 457T269 475Q295 475 327 468T390 442T444 387T477 293L469 255ZM270 400Q221 400 192 371T154 302H204Q239 302 273 303T342 305Q355 305 361 312T367 328Q367 358 338 379T270 400ZM264 679L374 580L377
573L368 544L361 541L260 582L159 541L152 544L143 573L146 580L256 679H264Z" />
<glyph unicode="&#xeb;" glyph-name="edieresis" horiz-adv-x="507" d="M469 255L445 237Q391 237 339 236T231 235H149Q148 228 148 222T148 209Q148 183 157 157T185 111T235 78T308 65Q339 65 373 73T438 96L455 89V53L445 42Q421 23 375 6T274 -11Q221 -11
178 6T103 56T54 132T36 230Q36 285 54 330T103 407T177 457T269 475Q295 475 327 468T390 442T444 387T477 293L469 255ZM270 400Q221 400 192 371T154 302H204Q239 302 273 303T342 305Q355 305 361 312T367 328Q367 358 338 379T270 400ZM115 613Q115 625 120
637T134 658T154 673T179 679Q204 679 224 659T245 613Q245 600 240 589T225 568T203 554T179 549Q153 549 134 568T115 613ZM275 613Q275 625 280 637T294 658T314 673T339 679Q364 679 384 659T405 613Q405 600 400 589T385 568T363 554T339 549Q313 549 294
568T275 613Z" />
<glyph unicode="&#xec;" glyph-name="igrave" horiz-adv-x="307" d="M288 -4Q281 -4 267 -3T237 -2T207 -1T186 0H132Q125 0 111 0T81 -1T51 -3T29 -4L28 0L30 34L33 38Q48 38 64 39T88 49Q95 56 98 67T103 98Q104 114 105 130T106 183V266Q106 287 106 301T106
326T105 346T103 366Q101 377 97 386T90 397Q80 410 65 412T34 414L30 418V452L34 455H85Q108 455 134 455T180 459L215 464L221 445Q219 440 218 429T216 404T215 379T214 360Q214 352 214 345T213 327T213 303T212 267V195Q212 173 212 159T213 135T214 117T216
98Q218 76 220 66T231 49Q239 42 253 40T283 38L288 33L290 0L288 -4ZM209 519L8 596Q4 605 4 615Q4 641 17 659T59 680L240 579L243 572L217 522L209 519Z" />
<glyph unicode="&#xed;" glyph-name="iacute" horiz-adv-x="307" d="M288 -4Q281 -4 267 -3T237 -2T207 -1T186 0H132Q125 0 111 0T81 -1T51 -3T29 -4L28 0L30 34L33 38Q48 38 64 39T88 49Q95 56 98 67T103 98Q104 114 105 130T106 183V266Q106 287 106 301T106
326T105 346T103 366Q101 377 97 386T90 397Q80 410 65 412T34 414L30 418V452L34 455H85Q108 455 134 455T180 459L215 464L221 445Q219 440 218 429T216 404T215 379T214 360Q214 352 214 345T213 327T213 303T212 267V195Q212 173 212 159T213 135T214 117T216
98Q218 76 220 66T231 49Q239 42 253 40T283 38L288 33L290 0L288 -4ZM60 522L34 572L37 579L218 680Q246 678 259 660T273 615Q273 605 269 596L68 519L60 522Z" />
<glyph unicode="&#xee;" glyph-name="icircumflex" horiz-adv-x="307" d="M288 -4Q281 -4 267 -3T237 -2T207 -1T186 0H132Q125 0 111 0T81 -1T51 -3T29 -4L28 0L30 34L33 38Q48 38 64 39T88 49Q95 56 98 67T103 98Q104 114 105 130T106 183V266Q106 287 106 301T106
326T105 346T103 366Q101 377 97 386T90 397Q80 410 65 412T34 414L30 418V452L34 455H85Q108 455 134 455T180 459L215 464L221 445Q219 440 218 429T216 404T215 379T214 360Q214 352 214 345T213 327T213 303T212 267V195Q212 173 212 159T213 135T214 117T216
98Q218 76 220 66T231 49Q239 42 253 40T283 38L288 33L290 0L288 -4ZM157 679L267 580L270 573L261 544L254 541L153 582L52 541L45 544L36 573L39 580L149 679H157Z" />
<glyph unicode="&#xef;" glyph-name="idieresis" horiz-adv-x="307" d="M288 -4Q281 -4 267 -3T237 -2T207 -1T186 0H132Q125 0 111 0T81 -1T51 -3T29 -4L28 0L30 34L33 38Q48 38 64 39T88 49Q95 56 98 67T103 98Q104 114 105 130T106 183V266Q106 287 106 301T106
326T105 346T103 366Q101 377 97 386T90 397Q80 410 65 412T34 414L30 418V452L34 455H85Q108 455 134 455T180 459L215 464L221 445Q219 440 218 429T216 404T215 379T214 360Q214 352 214 345T213 327T213 303T212 267V195Q212 173 212 159T213 135T214 117T216
98Q218 76 220 66T231 49Q239 42 253 40T283 38L288 33L290 0L288 -4ZM12 613Q12 625 17 637T31 658T51 673T76 679Q101 679 121 659T142 613Q142 600 137 589T122 568T100 554T76 549Q50 549 31 568T12 613ZM172 613Q172 625 177 637T191 658T211 673T236 679Q261
679 281 659T302 613Q302 600 297 589T282 568T260 554T236 549Q210 549 191 568T172 613Z" />
<glyph unicode="&#xf0;" glyph-name="eth" horiz-adv-x="560" d="M394 436Q386 481 374 519T341 588L230 544L199 598L310 644Q296 668 279 682T248 701L279 740Q311 732 334 716T382 673L482 713L513 659L422 617Q468 551 490 467T512 291Q512 231 500 177T460
80T387 14T277 -11Q214 -11 168 10T93 65T50 142T36 232Q36 281 51 325T97 402T172 455T275 475Q306 475 338 466T394 436ZM272 71Q302 71 323 84T358 120T378 170T385 226Q385 304 354 346T267 389Q237 389 216 376T182 341T162 291T156 235Q156 206 163 177T185
124T221 86T272 71Z" />
<glyph unicode="&#xf1;" glyph-name="ntilde" horiz-adv-x="639" d="M214 373Q237 417 277 446T371 475Q402 475 432 467T486 442T527 399T549 336Q552 310 552 281T553 223Q554 189 554 161T554 98Q556 75 562 65T574 49Q583 41 596 40T625 38L628 34L630 0L628
-4Q607 -2 582 -1T532 0Q508 0 484 0T439 -3L432 17Q435 30 437 56T441 98Q443 136 444 169T445 228Q445 251 444 278T437 325Q429 357 405 372T348 388Q318 388 293 377T251 351T223 318T213 288V185Q213 165 213 153T213 131T214 115T216 98Q218 77 224 67T239
49Q247 41 258 40T284 38L289 33L291 0L289 -4Q282 -4 268 -3T238 -2T208 -1T187 0H132Q125 0 111 0T81 -1T51 -3T29 -4L28 0L30 34L33 38Q49 38 61 39T82 49Q89 56 95 67T103 98Q104 105 104 112T105 127T106 146T106 173V276Q106 295 106 308T106 331T105 349T103
366Q101 376 97 385T90 397Q80 410 65 412T34 414L30 418V452L34 455H85Q108 455 134 455T181 459L216 464L222 445Q214 434 213 415T211 375L214 373ZM472 631Q469 617 463 604T446 579T420 561T384 554Q344 554 303 561T229 568Q204 568 194 562T174 543L161
591Q165 604 172 618T189 642T215 660T252 667Q277 667 295 665T330 660T361 655T395 653Q412 653 429 657T460 679L472 631Z" />
<glyph unicode="&#xf2;" glyph-name="ograve" horiz-adv-x="563" d="M281 475Q340 475 386 455T463 400T511 320T528 227Q528 181 513 138T467 62T390 9T283 -11Q220 -11 173 10T96 65T50 142T35 232Q35 281 52 325T100 402T177 455T281 475ZM282 58Q313 58 336
72T376 110T399 164T407 227Q407 258 399 289T374 346T333 387T278 403Q246 403 223 388T184 349T162 295T154 234Q154 202 162 171T187 115T228 74T282 58ZM365 519L164 596Q160 605 160 615Q160 641 173 659T215 680L396 579L399 572L373 522L365 519Z" />
<glyph unicode="&#xf3;" glyph-name="oacute" horiz-adv-x="563" d="M281 475Q340 475 386 455T463 400T511 320T528 227Q528 181 513 138T467 62T390 9T283 -11Q220 -11 173 10T96 65T50 142T35 232Q35 281 52 325T100 402T177 455T281 475ZM282 58Q313 58 336
72T376 110T399 164T407 227Q407 258 399 289T374 346T333 387T278 403Q246 403 223 388T184 349T162 295T154 234Q154 202 162 171T187 115T228 74T282 58ZM188 522L162 572L165 579L346 680Q374 678 387 660T401 615Q401 605 397 596L196 519L188 522Z" />
<glyph unicode="&#xf4;" glyph-name="ocircumflex" horiz-adv-x="563" d="M281 475Q340 475 386 455T463 400T511 320T528 227Q528 181 513 138T467 62T390 9T283 -11Q220 -11 173 10T96 65T50 142T35 232Q35 281 52 325T100 402T177 455T281 475ZM282 58Q313
58 336 72T376 110T399 164T407 227Q407 258 399 289T374 346T333 387T278 403Q246 403 223 388T184 349T162 295T154 234Q154 202 162 171T187 115T228 74T282 58ZM285 680L395 581L398 574L389 545L382 542L281 583L180 542L173 545L164 574L167 581L277 680H285Z"
/>
<glyph unicode="&#xf5;" glyph-name="otilde" horiz-adv-x="563" d="M281 475Q340 475 386 455T463 400T511 320T528 227Q528 181 513 138T467 62T390 9T283 -11Q220 -11 173 10T96 65T50 142T35 232Q35 281 52 325T100 402T177 455T281 475ZM282 58Q313 58 336
72T376 110T399 164T407 227Q407 258 399 289T374 346T333 387T278 403Q246 403 223 388T184 349T162 295T154 234Q154 202 162 171T187 115T228 74T282 58ZM437 632Q434 618 428 605T411 580T385 562T349 555Q309 555 268 562T194 569Q169 569 159 563T139 544L126
592Q130 605 137 619T154 643T180 661T217 668Q242 668 260 666T295 661T326 656T360 654Q377 654 394 658T425 680L437 632Z" />
<glyph unicode="&#xf6;" glyph-name="odieresis" horiz-adv-x="563" d="M281 475Q340 475 386 455T463 400T511 320T528 227Q528 181 513 138T467 62T390 9T283 -11Q220 -11 173 10T96 65T50 142T35 232Q35 281 52 325T100 402T177 455T281 475ZM282 58Q313 58
336 72T376 110T399 164T407 227Q407 258 399 289T374 346T333 387T278 403Q246 403 223 388T184 349T162 295T154 234Q154 202 162 171T187 115T228 74T282 58ZM136 614Q136 626 141 638T155 659T175 674T200 680Q225 680 245 660T266 614Q266 601 261 590T246
569T224 555T200 550Q174 550 155 569T136 614ZM296 614Q296 626 301 638T315 659T335 674T360 680Q385 680 405 660T426 614Q426 601 421 590T406 569T384 555T360 550Q334 550 315 569T296 614Z" />
<glyph unicode="&#xf7;" glyph-name="divide" horiz-adv-x="527" d="M475 264L459 182H54L69 264H475ZM209 389Q209 401 214 413T228 434T248 449T273 455Q298 455 318 435T339 389Q339 376 334 365T319 344T297 330T273 325Q247 325 228 344T209 389ZM209 53Q209
65 214 77T228 98T248 113T273 119Q298 119 318 99T339 53Q339 40 334 29T319 8T297 -6T273 -11Q247 -11 228 8T209 53Z" />
<glyph unicode="&#xf8;" glyph-name="oslash" horiz-adv-x="564" d="M281 475Q316 475 346 468T403 446L450 509L454 512L542 448L541 444L478 381Q503 349 515 309T528 227Q528 181 513 138T467 62T390 9T283 -11Q248 -11 219 -5T164 13L110 -56L106 -58L31 8L32
12L89 72Q61 105 48 146T35 232Q35 281 52 325T100 402T177 455T281 475ZM167 155Q215 208 260 262T351 373Q336 387 318 395T278 403Q246 403 223 388T184 349T162 295T154 234Q154 191 167 155ZM282 58Q313 58 336 72T376 110T399 164T407 227Q407 261 396 296Q348
242 303 190T213 84Q242 58 282 58Z" />
<glyph unicode="&#xf9;" glyph-name="ugrave" horiz-adv-x="625" d="M423 86Q397 44 357 17T257 -11Q228 -11 202 -5T153 17T114 57T91 120Q86 146 86 174T86 232Q86 244 86 263T85 303T85 340T85 366Q85 377 80 386T72 398Q62 410 47 412T16 414L13 418V452L16
455H65Q88 455 114 455T160 459L195 464L201 445Q199 441 198 431T196 408T195 385T195 368Q195 352 195 333T194 295T193 258T192 227Q192 205 194 178T200 130Q208 96 233 79T292 62Q320 62 343 71T383 95T412 126T426 156V266Q426 287 426 301T425 327T424 347T422
366Q420 376 416 385T408 397Q398 410 384 412T354 414L350 418V452L354 455H372Q384 455 400 455T433 455T467 456T497 459L532 464L538 445Q536 441 535 431T533 408T532 385T532 368Q532 360 532 353T531 336T531 313T530 277V195Q530 173 530 159T531 135T532
117T533 98Q535 75 538 65T548 49Q556 41 569 40T598 38L602 34L604 0L602 -3Q583 -1 565 -1T527 0Q469 0 420 -3L414 17Q417 28 420 46T426 84L423 86ZM376 519L175 596Q171 605 171 615Q171 641 184 659T226 680L407 579L410 572L384 522L376 519Z" />
<glyph unicode="&#xfa;" glyph-name="uacute" horiz-adv-x="625" d="M423 86Q397 44 357 17T257 -11Q228 -11 202 -5T153 17T114 57T91 120Q86 146 86 174T86 232Q86 244 86 263T85 303T85 340T85 366Q85 377 80 386T72 398Q62 410 47 412T16 414L13 418V452L16
455H65Q88 455 114 455T160 459L195 464L201 445Q199 441 198 431T196 408T195 385T195 368Q195 352 195 333T194 295T193 258T192 227Q192 205 194 178T200 130Q208 96 233 79T292 62Q320 62 343 71T383 95T412 126T426 156V266Q426 287 426 301T425 327T424 347T422
366Q420 376 416 385T408 397Q398 410 384 412T354 414L350 418V452L354 455H372Q384 455 400 455T433 455T467 456T497 459L532 464L538 445Q536 441 535 431T533 408T532 385T532 368Q532 360 532 353T531 336T531 313T530 277V195Q530 173 530 159T531 135T532
117T533 98Q535 75 538 65T548 49Q556 41 569 40T598 38L602 34L604 0L602 -3Q583 -1 565 -1T527 0Q469 0 420 -3L414 17Q417 28 420 46T426 84L423 86ZM205 522L179 572L182 579L363 680Q391 678 404 660T418 615Q418 605 414 596L213 519L205 522Z" />
<glyph unicode="&#xfb;" glyph-name="ucircumflex" horiz-adv-x="625" d="M423 86Q397 44 357 17T257 -11Q228 -11 202 -5T153 17T114 57T91 120Q86 146 86 174T86 232Q86 244 86 263T85 303T85 340T85 366Q85 377 80 386T72 398Q62 410 47 412T16 414L13 418V452L16
455H65Q88 455 114 455T160 459L195 464L201 445Q199 441 198 431T196 408T195 385T195 368Q195 352 195 333T194 295T193 258T192 227Q192 205 194 178T200 130Q208 96 233 79T292 62Q320 62 343 71T383 95T412 126T426 156V266Q426 287 426 301T425 327T424 347T422
366Q420 376 416 385T408 397Q398 410 384 412T354 414L350 418V452L354 455H372Q384 455 400 455T433 455T467 456T497 459L532 464L538 445Q536 441 535 431T533 408T532 385T532 368Q532 360 532 353T531 336T531 313T530 277V195Q530 173 530 159T531 135T532
117T533 98Q535 75 538 65T548 49Q556 41 569 40T598 38L602 34L604 0L602 -3Q583 -1 565 -1T527 0Q469 0 420 -3L414 17Q417 28 420 46T426 84L423 86ZM298 679L408 580L411 573L402 544L395 541L294 582L193 541L186 544L177 573L180 580L290 679H298Z" />
<glyph unicode="&#xfc;" glyph-name="udieresis" horiz-adv-x="625" d="M423 86Q397 44 357 17T257 -11Q228 -11 202 -5T153 17T114 57T91 120Q86 146 86 174T86 232Q86 244 86 263T85 303T85 340T85 366Q85 377 80 386T72 398Q62 410 47 412T16 414L13 418V452L16
455H65Q88 455 114 455T160 459L195 464L201 445Q199 441 198 431T196 408T195 385T195 368Q195 352 195 333T194 295T193 258T192 227Q192 205 194 178T200 130Q208 96 233 79T292 62Q320 62 343 71T383 95T412 126T426 156V266Q426 287 426 301T425 327T424 347T422
366Q420 376 416 385T408 397Q398 410 384 412T354 414L350 418V452L354 455H372Q384 455 400 455T433 455T467 456T497 459L532 464L538 445Q536 441 535 431T533 408T532 385T532 368Q532 360 532 353T531 336T531 313T530 277V195Q530 173 530 159T531 135T532
117T533 98Q535 75 538 65T548 49Q556 41 569 40T598 38L602 34L604 0L602 -3Q583 -1 565 -1T527 0Q469 0 420 -3L414 17Q417 28 420 46T426 84L423 86ZM149 613Q149 625 154 637T168 658T188 673T213 679Q238 679 258 659T279 613Q279 600 274 589T259 568T237
554T213 549Q187 549 168 568T149 613ZM309 613Q309 625 314 637T328 658T348 673T373 679Q398 679 418 659T439 613Q439 600 434 589T419 568T397 554T373 549Q347 549 328 568T309 613Z" />
<glyph unicode="&#xfd;" glyph-name="yacute" horiz-adv-x="570" d="M297 -116Q285 -146 266 -170T221 -213T168 -242T111 -258Q103 -260 93 -260T62 -260L55 -258L52 -207L56 -202H70Q82 -202 96 -200T123 -190Q152 -176 176 -150T210 -100L238 -25L158 158Q153
169 142 197T117 258T88 325T59 380Q49 396 37 405T3 416L-3 421V455L1 459Q18 457 37 455T72 453H151Q166 453 187 455T227 459L231 455V423L227 419Q208 417 195 408T181 380Q181 368 189 341T209 282T231 225T245 189L288 68L338 189Q344 205 354 229T374 279T391
332T398 380Q398 402 383 409T351 419L347 423V455L351 459Q370 455 387 454T419 453H500Q517 453 533 455T569 459L573 455V421L567 416Q550 414 538 406T514 380Q500 356 481 318T444 241T412 170T394 128L297 -116ZM190 522L164 572L167 579L348 680Q376 678
389 660T403 615Q403 605 399 596L198 519L190 522Z" />
<glyph unicode="&#xfe;" glyph-name="thorn" horiz-adv-x="607" d="M187 386Q219 434 263 454T354 475Q389 475 427 463T497 422T549 347T570 232Q570 186 557 143T516 65T446 10T347 -11Q293 -11 252 16T181 87L178 85Q180 68 180 49T181 -8Q181 -41 181 -64T181
-104T182 -133T184 -159Q186 -179 188 -190T199 -207Q207 -215 224 -217T257 -219L260 -222L262 -257L261 -260Q254 -260 239 -260T208 -259T177 -258T155 -257H103Q96 -257 82 -257T52 -258T22 -259T1 -260L-1 -257L1 -223L6 -219Q21 -219 35 -218T58 -207Q66
-201 68 -190T73 -159Q74 -142 74 -128T75 -95T76 -52T77 15V462Q77 503 77 529T77 575T75 609T73 642Q72 652 68 661T61 673Q52 686 37 688T5 690L1 694V728L5 731H23Q35 731 51 731T84 731T118 732T148 735L183 740L189 721Q187 697 187 656T185 568T184 474T184
388L187 386ZM454 228Q454 259 447 289T425 342T385 379T328 394Q292 394 266 382T223 352T196 317T184 285V174Q185 161 195 143T224 109T269 81T330 69Q362 69 385 82T424 118T446 169T454 228Z" />
<glyph unicode="&#xff;" glyph-name="ydieresis" horiz-adv-x="570" d="M297 -116Q285 -146 266 -170T221 -213T168 -242T111 -258Q103 -260 93 -260T62 -260L55 -258L52 -207L56 -202H70Q82 -202 96 -200T123 -190Q152 -176 176 -150T210 -100L238 -25L158 158Q153
169 142 197T117 258T88 325T59 380Q49 396 37 405T3 416L-3 421V455L1 459Q18 457 37 455T72 453H151Q166 453 187 455T227 459L231 455V423L227 419Q208 417 195 408T181 380Q181 368 189 341T209 282T231 225T245 189L288 68L338 189Q344 205 354 229T374 279T391
332T398 380Q398 402 383 409T351 419L347 423V455L351 459Q370 455 387 454T419 453H500Q517 453 533 455T569 459L573 455V421L567 416Q550 414 538 406T514 380Q500 356 481 318T444 241T412 170T394 128L297 -116ZM142 613Q142 625 147 637T161 658T181 673T206
679Q231 679 251 659T272 613Q272 600 267 589T252 568T230 554T206 549Q180 549 161 568T142 613ZM302 613Q302 625 307 637T321 658T341 673T366 679Q391 679 411 659T432 613Q432 600 427 589T412 568T390 554T366 549Q340 549 321 568T302 613Z" />
<glyph unicode="&#x2013;" glyph-name="endash" horiz-adv-x="544" d="M482 280L467 198H62L78 280H482Z" />
<glyph unicode="&#x2014;" glyph-name="emdash" horiz-adv-x="782" d="M720 280L705 198H62L78 280H720Z" />
<glyph unicode="&#x2018;" glyph-name="quoteleft" horiz-adv-x="235" d="M170 740L186 729L188 715Q177 690 171 662T165 622Q165 606 173 591T181 553Q181 541 173 532T152 517T125 508T97 505Q83 505 76 510T64 524T58 542T57 558Q57 585 68 614T95 670T127
715T156 740H170Z" />
<glyph unicode="&#x2019;" glyph-name="quoteright" horiz-adv-x="219" d="M74 505L58 516L56 530Q67 555 73 583T79 623Q79 639 71 654T63 692Q63 704 71 713T92 728T119 737T147 740Q160 740 168 734T180 720T186 703T187 687Q187 660 176 631T149 575T117 530T88
505H74Z" />
<glyph unicode="&#x201a;" glyph-name="quotesinglbase" horiz-adv-x="244" d="M69 -117L53 -106L51 -92Q62 -67 68 -39T74 1Q74 17 66 32T58 70Q58 82 66 91T87 106T114 115T142 118Q155 118 163 112T175 98T181 81T182 65Q182 38 171 9T144 -47T112 -92T83 -117H69Z" />
<glyph unicode="&#x201c;" glyph-name="quotedblleft" horiz-adv-x="395" d="M330 740L346 729L348 715Q337 690 331 662T325 622Q325 606 333 591T341 553Q341 541 333 532T312 517T285 508T257 505Q243 505 236 510T224 524T218 542T217 558Q217 585 228 614T255
670T287 715T316 740H330ZM170 740L186 729L188 715Q177 690 171 662T165 622Q165 606 173 591T181 553Q181 541 173 532T152 517T125 508T97 505Q83 505 76 510T64 524T58 542T57 558Q57 585 68 614T95 670T127 715T156 740H170Z" />
<glyph unicode="&#x201d;" glyph-name="quotedblright" horiz-adv-x="379" d="M74 505L58 516L56 530Q67 555 73 583T79 623Q79 639 71 654T63 692Q63 704 71 713T92 728T119 737T147 740Q160 740 168 734T180 720T186 703T187 687Q187 660 176 631T149 575T117
530T88 505H74ZM234 505L218 516L216 530Q227 555 233 583T239 623Q239 639 231 654T223 692Q223 704 231 713T252 728T279 737T307 740Q320 740 328 734T340 720T346 703T347 687Q347 660 336 631T309 575T277 530T248 505H234Z" />
<glyph unicode="&#x201e;" glyph-name="quotedblbase" horiz-adv-x="404" d="M69 -117L53 -106L51 -92Q62 -67 68 -39T74 1Q74 17 66 32T58 70Q58 82 66 91T87 106T114 115T142 118Q155 118 163 112T175 98T181 81T182 65Q182 38 171 9T144 -47T112 -92T83 -117H69ZM229
-117L213 -106L211 -92Q222 -67 228 -39T234 1Q234 17 226 32T218 70Q218 82 226 91T247 106T274 115T302 118Q315 118 323 112T335 98T341 81T342 65Q342 38 331 9T304 -47T272 -92T243 -117H229Z" />
<glyph unicode="&#x2022;" glyph-name="bullet" horiz-adv-x="358" d="M91 243Q91 260 97 276T116 304T144 324T179 332Q196 332 212 325T240 305T259 276T267 243Q267 205 240 181T179 156Q141 156 116 180T91 243Z" />
<glyph unicode="&#x2039;" glyph-name="guilsinglleft" horiz-adv-x="331" d="M281 411Q237 367 205 327T141 240Q173 195 205 155T281 70L276 60H178L171 64Q159 83 147 101T119 139T84 184T39 240Q64 271 83 296T118 341T146 380T171 417L178 421H276L281 411Z" />
<glyph unicode="&#x203a;" glyph-name="guilsinglright" horiz-adv-x="331" d="M54 421H152L160 417Q172 398 184 380T212 342T247 296T292 240Q267 209 248 185T213 140T185 101T160 64L152 60H54L50 70Q93 114 125 154T189 240Q157 286 125 326T50 411L54 421Z" />
</font>
</defs>
</svg>
