<?xml version="1.0" standalone="no"?>
<!DOCTYPE svg PUBLIC "-//W3C//DTD SVG 1.1//EN" "http://www.w3.org/Graphics/SVG/1.1/DTD/svg11.dtd">
<svg xmlns="http://www.w3.org/2000/svg">
<defs >
<font id="Oswald" horiz-adv-x="500" ><font-face
    font-family="Oswald SemiBold"
    units-per-em="1000"
    panose-1="0 0 7 0 0 0 0 0 0 0"
    ascent="1193"
    descent="-289"
    alphabetic="0" />
<glyph unicode=" " glyph-name="space" horiz-adv-x="250" />
<glyph unicode="!" glyph-name="exclam" horiz-adv-x="246" d="M49 808H200L146 199H93L49 808ZM47 143H191V0H47V143Z" />
<glyph unicode="&quot;" glyph-name="quotedbl" horiz-adv-x="340" d="M24 810H154L94 521H24V810ZM199 810H329L269 521H199V810Z" />
<glyph unicode="#" glyph-name="numbersign" horiz-adv-x="524" d="M96 274H44L46 370H110L124 482H47L49 581H141L168 810H274L246 581H326L354 810H459L431 581H481L479 482H414L401 370H477L474 274H387L352 0H248L282 274H202L168 0H63L96 274ZM296 370L310
482H229L214 370H296Z" />
<glyph unicode="$" glyph-name="dollar" horiz-adv-x="486" d="M235 -10Q132 -6 81 56T26 241L167 265Q169 188 188 152T247 115Q276 115 289 133T302 181Q302 229 281 262T213 336L129 409Q78 454 52 499T26 614Q26 706 78 759T223 819V908H271V819Q369 813 406
751T448 595L305 574Q303 637 291 668T244 699Q215 699 199 679T183 630Q183 589 201 563T257 502L339 430Q398 376 430 321T462 190Q462 109 413 54T282 -9V-103H235V-10Z" />
<glyph unicode="%" glyph-name="percent" horiz-adv-x="981" d="M128 356T86 408T43 566V607Q43 715 84 763T225 812Q325 812 367 765T409 610V564Q409 458 366 407T225 356Q128 356 86 408ZM566 810H657L414 0H323L566 810ZM261 456T271 482T282 570V605Q282
646 279 667T263 700T225 712Q200 712 188 701T173 668T169 605V569Q169 508 179 482T225 456Q261 456 271 482ZM658 -2T616 49T573 207V249Q573 356 614 405T755 454Q854 454 896 406T938 251V206Q938 100 895 49T755 -2Q658 -2 616 49ZM791 97T801 123T811 211V247Q811
289 808 310T793 342T755 354Q729 354 718 343T703 310T699 247V211Q699 150 709 124T755 97Q791 97 801 123Z" />
<glyph unicode="&amp;" glyph-name="ampersand" horiz-adv-x="577" d="M146 -11T95 41T43 180Q43 252 72 309T158 423Q117 495 97 544T76 643Q76 721 123 771T252 821Q329 821 378 775T427 654Q427 607 410 567T368 496T304 425L286 406L387 225Q400 248 408 297T419
393H528Q528 316 512 256T464 141Q475 127 494 117T532 106V-11Q518 -13 507 -13Q471 -13 440 7T383 59Q327 -11 231 -11Q146 -11 95 41ZM267 519T286 568T305 656Q305 682 291 697T254 712Q230 712 217 693T203 643Q203 579 243 486Q267 519 286 568ZM284 93T316
139L212 324Q167 255 167 186Q167 145 185 119T236 93Q284 93 316 139Z" />
<glyph unicode="&apos;" glyph-name="quotesingle" horiz-adv-x="161" d="M24 810H149L98 521H24V810Z" />
<glyph unicode="(" glyph-name="parenleft" horiz-adv-x="330" d="M195 -182T145 -115T79 56T64 315Q64 478 78 582T143 752T295 818V713Q257 713 238 666T212 535T205 315Q205 182 212 99T238 -31T295 -77V-182Q195 -182 145 -115Z" />
<glyph unicode=")" glyph-name="parenright" horiz-adv-x="314" d="M34 -76Q71 -76 90 -30T117 99T124 316Q124 453 118 536T92 666T34 714V818Q135 818 185 753T250 583T265 316Q265 161 250 57T185 -115T34 -182V-76Z" />
<glyph unicode="*" glyph-name="asterisk" horiz-adv-x="418" d="M77 507L150 611L41 653L75 743L175 689L163 810H276L263 688L364 744L398 652L288 610L362 507L272 454L219 564L165 454L77 507Z" />
<glyph unicode="+" glyph-name="plus" horiz-adv-x="441" d="M169 369H26V461H169V618H271V461H416V369H271V208H169V369Z" />
<glyph unicode="," glyph-name="comma" horiz-adv-x="227" d="M54 -87Q122 -68 122 0H43V146H188V17Q186 -123 66 -138L54 -87Z" />
<glyph unicode="-" glyph-name="hyphen" horiz-adv-x="372" d="M61 390H312V291H61V390Z" />
<glyph unicode="." glyph-name="period" horiz-adv-x="232" d="M47 146H191V0H47V146Z" />
<glyph unicode="/" glyph-name="slash" horiz-adv-x="411" d="M282 810H371L128 0H40L282 810Z" />
<glyph unicode="0" glyph-name="zero" horiz-adv-x="543" d="M166 -14T111 49T55 220V583Q55 694 109 757T272 821Q380 821 434 758T488 583V220Q488 114 432 50T272 -14Q166 -14 111 49ZM331 122T331 223V580Q331 625 320 655T272 685Q234 685 223 656T212 580V223Q212
122 272 122Q331 122 331 223Z" />
<glyph unicode="1" glyph-name="one" horiz-adv-x="391" d="M141 650Q132 645 111 638T79 626Q35 612 24 606V721Q58 735 106 761T175 810H296V0H141V650Z" />
<glyph unicode="2" glyph-name="two" horiz-adv-x="506" d="M41 109L238 412L253 435Q289 491 306 528T324 610Q324 649 309 669T265 690Q224 690 208 658T192 570V533H41V573Q41 687 94 753T262 820Q367 820 422 765T477 607Q477 545 454 496T382 373L371 356L215
122H455V0H41V109Z" />
<glyph unicode="3" glyph-name="three" horiz-adv-x="506" d="M140 -14T89 50T38 231V259H192V232Q193 170 207 143T258 116Q295 116 308 143T321 233Q321 298 302 329T231 362Q229 363 204 363V476H228Q281 476 301 504T321 596Q321 648 307 673T255 698Q219
698 206 671T192 591V555H38V599Q38 705 95 763T255 821Q359 821 416 765T473 604Q473 535 445 487T371 427Q473 389 473 236Q473 119 421 53T256 -14Q140 -14 89 50Z" />
<glyph unicode="4" glyph-name="four" horiz-adv-x="515" d="M274 190H28V310L239 810H418V307H497V190H418V0H274V190ZM274 307V651L150 307H274Z" />
<glyph unicode="5" glyph-name="five" horiz-adv-x="502" d="M170 -13T124 16T61 100T44 235H194Q194 165 207 134T258 102Q288 102 302 122T319 177T323 276Q323 350 310 386T254 423Q200 423 185 350H52L63 810H435V677H189L181 498Q195 515 229 526T301 538Q384
538 426 471T469 283Q469 187 452 124T388 24T252 -13Q170 -13 124 16Z" />
<glyph unicode="6" glyph-name="six" horiz-adv-x="530" d="M161 -11T107 61T53 255V543Q53 675 101 747T271 820Q379 820 427 769T476 615V601H330Q330 657 319 679T272 702Q247 702 234 687T216 637T210 538V456Q223 478 251 490T318 503Q408 503 448 440T489
270Q489 136 439 63T272 -11Q161 -11 107 61ZM309 104T321 137T334 244Q334 294 331 322T314 368T272 385Q252 385 235 374T210 348V219Q210 104 273 104Q309 104 321 137Z" />
<glyph unicode="7" glyph-name="seven" horiz-adv-x="427" d="M241 692H21V810H392V709L221 0H71L241 692Z" />
<glyph unicode="8" glyph-name="eight" horiz-adv-x="516" d="M41 -12T41 234Q41 302 65 352T136 426Q99 453 76 499T53 610Q53 709 105 764T258 820Q357 820 409 765T461 612Q461 544 439 498T380 426Q427 402 451 350T475 227Q475 114 423 51T258 -12Q41 -12
41 234ZM315 484T315 609Q315 653 301 678T258 704Q229 704 214 679T199 609Q199 484 258 484Q315 484 315 609ZM300 103T311 140T323 238Q323 293 310 325T258 358Q219 358 206 323T192 228Q192 174 205 139T258 103Q300 103 311 140Z" />
<glyph unicode="9" glyph-name="nine" horiz-adv-x="531" d="M148 -11T101 40T53 196V208H199Q199 153 210 130T258 107Q283 107 295 122T313 171T318 271V353Q305 331 277 319T212 306Q122 306 81 372T40 547Q40 820 258 820Q369 820 422 751T476 561V266Q476
135 428 62T257 -11Q148 -11 101 40ZM296 424T318 461V590Q318 643 305 674T258 705Q222 705 210 672T198 565Q198 513 201 486T217 441T259 424Q296 424 318 461Z" />
<glyph unicode=":" glyph-name="colon" horiz-adv-x="260" d="M65 556H208V413H65V556ZM65 209H208V64H65V209Z" />
<glyph unicode=";" glyph-name="semicolon" horiz-adv-x="270" d="M65 573H208V427H65V573ZM76 -51Q145 -40 145 28H66V173H210V44Q210 -101 88 -102L76 -51Z" />
<glyph unicode="&lt;" glyph-name="less" horiz-adv-x="393" d="M31 300V422L335 636V502L140 362L335 220V87L31 300Z" />
<glyph unicode="=" glyph-name="equal" horiz-adv-x="437" d="M61 536H376V441H61V536ZM61 349H376V254H61V349Z" />
<glyph unicode="&gt;" glyph-name="greater" horiz-adv-x="393" d="M55 220L251 362L55 502V636L360 422V301L55 87V220Z" />
<glyph unicode="?" glyph-name="question" horiz-adv-x="485" d="M136 339Q211 398 255 467T300 613Q300 691 237 691Q210 691 195 675T179 632Q179 608 189 578L52 547Q37 592 37 634Q37 721 90 770T240 820Q340 820 394 767T448 616Q448 444 273 309V211H136V339ZM131
145H279V0H131V145Z" />
<glyph unicode="@" glyph-name="at" horiz-adv-x="940" d="M273 -128T164 -23T55 274Q55 305 58 336Q68 482 129 588T294 752T536 810Q659 810 742 763T867 632T908 440Q908 423 906 391Q901 318 872 252T787 142T655 99Q611 99 576 119T532 177Q519 146 490 126T422
105Q351 105 310 159T268 295Q268 363 294 436T372 560T498 611Q526 611 540 595T570 551L580 605H699L653 269Q649 245 649 223Q649 188 666 184Q669 183 676 183Q705 183 732 210T778 284T801 388Q803 420 803 436Q803 567 735 641T525 716Q416 716 340 667T221
533T171 338Q168 305 168 276Q168 126 246 47T486 -33Q526 -33 581 -24T681 -1L699 -96Q567 -128 472 -128Q273 -128 164 -23ZM483 211T501 221T526 253L558 488Q556 494 546 497T528 501Q490 501 461 473T417 399T400 305Q400 261 416 234T468 209Q483 211 501
221Z" />
<glyph unicode="A" glyph-name="A" horiz-adv-x="538" d="M178 810H361L517 0H365L335 178H207L176 0H21L178 810ZM319 280L270 606L222 280H319Z" />
<glyph unicode="B" glyph-name="B" horiz-adv-x="575" d="M61 810H267Q385 810 450 765T515 600Q515 528 485 487T397 435Q468 425 503 375T539 238Q539 0 303 0H61V810ZM267 483Q327 483 349 510T371 596Q371 650 343 673T256 697H225V483H267ZM272 116Q332 116
356 146T381 241Q381 311 356 341T269 372H225V116H272Z" />
<glyph unicode="C" glyph-name="C" horiz-adv-x="553" d="M157 -11T103 58T49 259V549Q49 683 102 751T286 820Q410 820 461 760T513 586V518H353V593Q353 629 350 651T332 687T287 702Q242 702 229 673T216 588V220Q216 163 231 135T287 107Q329 107 341 135T353
220V299H513V232Q513 116 462 53T286 -11Q157 -11 103 58Z" />
<glyph unicode="D" glyph-name="D" horiz-adv-x="573" d="M61 810H259Q361 810 418 784T500 702T525 556V261Q525 168 501 112T420 28T263 0H61V810ZM261 115Q304 115 324 128T350 168T356 243V578Q356 624 350 647T323 682T260 694H225V115H261Z" />
<glyph unicode="E" glyph-name="E" horiz-adv-x="439" d="M61 810H414V696H225V481H371V366H225V112H416V0H61V810Z" />
<glyph unicode="F" glyph-name="F" horiz-adv-x="425" d="M61 810H403V697H225V479H376V364H225V0H61V810Z" />
<glyph unicode="G" glyph-name="G" horiz-adv-x="572" d="M150 -12T100 60T49 268V539Q49 677 102 748T286 820Q411 820 464 759T517 583V536H357V593Q357 649 345 675T288 702Q243 702 230 672T217 585V225Q217 168 233 138T293 107Q336 107 353 139T371 230V316H292V416H520V0H412L401
72Q364 -12 268 -12Q150 -12 100 60Z" />
<glyph unicode="H" glyph-name="H" horiz-adv-x="599" d="M63 810H228V478H371V810H536V0H371V359H228V0H63V810Z" />
<glyph unicode="I" glyph-name="I" horiz-adv-x="289" d="M63 810H227V0H63V810Z" />
<glyph unicode="J" glyph-name="J" horiz-adv-x="339" d="M12 95Q53 95 74 102T104 128T113 186V810H278V179Q278 110 262 67T204 2T92 -20H12V95Z" />
<glyph unicode="K" glyph-name="K" horiz-adv-x="552" d="M61 810H225V468L372 810H532L380 446L544 0H377L252 362L225 318V0H61V810Z" />
<glyph unicode="L" glyph-name="L" horiz-adv-x="433" d="M61 810H225V112H416V0H61V810Z" />
<glyph unicode="M" glyph-name="M" horiz-adv-x="695" d="M72 810H247L347 299L453 810H622L637 0H517L504 550L400 0H298L191 553L179 0H58L72 810Z" />
<glyph unicode="N" glyph-name="N" horiz-adv-x="554" d="M61 810H176L356 389V810H493V0H382L202 448V0H61V810Z" />
<glyph unicode="O" glyph-name="O" horiz-adv-x="576" d="M159 -11T104 56T49 255V557Q49 688 104 754T288 820Q416 820 471 754T527 557V254Q527 124 472 57T288 -11Q159 -11 104 56ZM330 107T344 135T359 214V597Q359 647 345 674T288 702Q246 702 232 675T217
597V214Q217 163 231 135T288 107Q330 107 344 135Z" />
<glyph unicode="P" glyph-name="P" horiz-adv-x="551" d="M61 810H318Q528 810 528 577Q528 454 468 403T301 351H225V0H61V810ZM284 467Q337 467 355 492T373 580Q373 621 367 644T342 681T283 694H225V467H284Z" />
<glyph unicode="Q" glyph-name="Q" horiz-adv-x="576" d="M431 -144T383 -100T305 -10Q299 -11 288 -11Q159 -11 104 56T49 255V557Q49 688 104 754T288 820Q416 820 471 754T527 557V254Q527 164 501 104T418 16Q468 -40 500 -58L467 -160Q431 -144 383 -100ZM331
107T345 135T359 214V597Q359 647 345 674T288 702Q244 702 231 675T217 597V214Q217 163 231 135T288 107Q331 107 345 135Z" />
<glyph unicode="R" glyph-name="R" horiz-adv-x="583" d="M61 810H271Q402 810 468 762T534 596Q534 517 512 469T434 395L546 0H377L285 367H225V0H61V810ZM274 465Q332 465 355 493T379 583Q379 643 358 671T282 699H225V465H274Z" />
<glyph unicode="S" glyph-name="S" horiz-adv-x="505" d="M158 -11T102 50T41 241L183 265Q185 188 204 152T263 115Q292 115 305 133T318 181Q318 229 297 262T229 336L145 409Q95 451 69 499T42 614Q42 713 100 766T262 820Q372 820 415 757T464 595L321 574Q319
638 307 668T257 699Q230 699 215 679T200 630Q200 590 217 563T273 502L355 430Q413 379 446 323T479 190Q479 132 453 87T380 15T270 -11Q158 -11 102 50Z" />
<glyph unicode="T" glyph-name="T" horiz-adv-x="438" d="M137 688H12V810H426V688H303V0H137V688Z" />
<glyph unicode="U" glyph-name="U" horiz-adv-x="578" d="M199 -11T148 19T76 108T55 256V810H217V233Q217 175 231 142T289 109Q333 109 347 142T361 233V810H524V256Q524 166 503 108T431 20T289 -11Q199 -11 148 19Z" />
<glyph unicode="V" glyph-name="V" horiz-adv-x="521" d="M22 810H165L261 250L351 810H500L346 0H176L22 810Z" />
<glyph unicode="W" glyph-name="W" horiz-adv-x="704" d="M29 810H168L225 315L296 809H407L481 317L538 810H675L571 0H430L352 513L277 0H134L29 810Z" />
<glyph unicode="X" glyph-name="X" horiz-adv-x="508" d="M168 434L14 810H170L266 576L346 810H486L339 395L500 0H346L240 256L147 0H8L168 434Z" />
<glyph unicode="Y" glyph-name="Y" horiz-adv-x="491" d="M167 321L9 810H164L251 525L331 810H482L326 321V0H167V321Z" />
<glyph unicode="Z" glyph-name="Z" horiz-adv-x="429" d="M31 102L238 697H41V810H401V720L190 112H403V0H31V102Z" />
<glyph unicode="[" glyph-name="bracketleft" horiz-adv-x="334" d="M54 810H299V749H177V-124H298V-185H54V810Z" />
<glyph unicode="\" glyph-name="backslash" horiz-adv-x="411" d="M40 810H129L371 0H282L40 810Z" />
<glyph unicode="]" glyph-name="bracketright" horiz-adv-x="321" d="M23 -124H144L143 749H22V810H267V-185H23V-124Z" />
<glyph unicode="^" glyph-name="asciicircum" horiz-adv-x="469" d="M172 810H297L439 478H308L234 683L160 478H31L172 810Z" />
<glyph unicode="_" glyph-name="underscore" horiz-adv-x="363" d="M0 -57H363V-160H0V-57Z" />
<glyph unicode="`" glyph-name="grave" horiz-adv-x="301" d="M44 810H198L258 609H166L44 810Z" />
<glyph unicode="a" glyph-name="a" horiz-adv-x="466" d="M128 -10T98 10T53 62T37 130Q37 197 70 240T149 307T273 359V413Q273 444 265 460T234 476Q212 476 203 462T192 422L189 382L47 388Q51 491 100 539T247 588Q332 588 375 541T418 412V143Q418 75 428
0H293Q289 29 280 83Q268 43 240 17T168 -10Q128 -10 98 10ZM237 97T250 107T273 130V289Q226 262 201 233T176 162Q176 131 188 114T222 97Q237 97 250 107Z" />
<glyph unicode="b" glyph-name="b" horiz-adv-x="493" d="M263 -10T203 43V0H52V810H203V535Q261 588 326 588Q391 588 421 536T451 407V181Q451 95 418 43T321 -10Q263 -10 203 43ZM280 91T290 113T300 175V417Q300 493 256 493Q230 493 203 471V109Q228 91 255
91Q280 91 290 113Z" />
<glyph unicode="c" glyph-name="c" horiz-adv-x="456" d="M138 -10T89 43T40 192V387Q40 484 89 536T233 588Q326 588 373 544T421 412V357H276V416Q276 454 266 468T234 483Q210 483 201 465T191 402V174Q191 129 201 112T234 95Q257 95 266 111T276 162V232H421V168Q421
81 373 36T233 -10Q138 -10 89 43Z" />
<glyph unicode="d" glyph-name="d" horiz-adv-x="490" d="M42 -10T42 181V393Q42 482 76 535T178 588Q235 588 288 542V810H439V0H288V43Q235 -10 178 -10Q42 -10 42 181ZM262 90T288 107V475Q262 490 240 490Q216 490 205 470T194 415V170Q194 90 240 90Q262
90 288 107Z" />
<glyph unicode="e" glyph-name="e" horiz-adv-x="459" d="M139 -10T90 42T40 192V386Q40 484 90 536T234 588Q331 588 376 536T421 382V281H190V169Q190 132 201 115T235 98Q280 98 280 163V219H420V169Q420 82 372 36T234 -10Q139 -10 90 42ZM280 353V409Q280
447 269 463T234 480Q211 480 201 462T190 398V353H280Z" />
<glyph unicode="f" glyph-name="f" horiz-adv-x="313" d="M75 475H17V578H75V618Q75 676 86 712T129 768T226 788Q267 788 303 783V671Q278 676 267 676Q226 676 226 625V578H303V475H226V0H75V475Z" />
<glyph unicode="g" glyph-name="g" horiz-adv-x="487" d="M135 -195T80 -166T24 -80Q24 -4 113 35Q37 55 37 120Q37 152 52 177T101 231Q72 256 58 293T43 385Q43 484 93 536T240 588Q329 588 373 538Q383 555 402 571T445 598L465 608L501 532Q486 527 456 515T409
492Q419 471 424 442T430 384Q430 289 383 237T240 185Q190 185 151 199Q135 179 135 162Q135 150 147 143T188 133L327 118Q469 102 469 -31Q469 -114 413 -154T231 -195Q135 -195 80 -166ZM270 277T280 300T290 385Q290 447 280 471T240 496Q210 496 200 471T189
385Q189 327 199 302T240 277Q270 277 280 300ZM308 -85T335 -75T363 -37Q363 -14 345 -4T278 11L174 22Q157 7 148 -6T138 -36Q138 -61 164 -73T250 -85Q308 -85 335 -75Z" />
<glyph unicode="h" glyph-name="h" horiz-adv-x="496" d="M53 810H204V525Q267 588 346 588Q395 588 421 551T447 456V0H297V432Q297 456 289 467T262 479Q237 479 204 454V0H53V810Z" />
<glyph unicode="i" glyph-name="i" horiz-adv-x="258" d="M53 786H205V673H53V786ZM54 578H205V0H54V578Z" />
<glyph unicode="j" glyph-name="j" horiz-adv-x="267" d="M65 786H217V673H65V786ZM25 -173T-11 -161V-53Q16 -56 18 -56Q65 -56 65 -3V578H216V-21Q216 -91 178 -132T69 -173Q25 -173 -11 -161Z" />
<glyph unicode="k" glyph-name="k" horiz-adv-x="517" d="M52 810H202V354L347 578H515L365 343L513 0H350L247 280L202 220V0H52V810Z" />
<glyph unicode="l" glyph-name="l" horiz-adv-x="264" d="M59 810H209V0H59V810Z" />
<glyph unicode="m" glyph-name="m" horiz-adv-x="737" d="M52 578H199V530Q257 589 335 589Q369 589 394 572T433 519Q495 589 580 589Q630 589 659 553T689 450V0H543V435Q543 463 534 474T505 486Q492 486 476 479T444 459V450V0H298V435Q298 463 289 474T260
486Q247 486 231 479T199 459V0H52V578Z" />
<glyph unicode="n" glyph-name="n" horiz-adv-x="493" d="M52 578H202V520Q272 588 342 588Q392 588 418 551T445 456V0H294V432Q294 456 286 467T259 479Q236 479 202 455V0H52V578Z" />
<glyph unicode="o" glyph-name="o" horiz-adv-x="471" d="M141 -10T91 40T40 185V393Q40 488 90 538T235 588Q329 588 379 538T430 393V185Q430 90 380 40T235 -10Q141 -10 91 40ZM262 92T271 112T281 174V403Q281 444 272 465T236 486Q209 486 199 465T189 403V174Q189
134 199 113T236 92Q262 92 271 112Z" />
<glyph unicode="p" glyph-name="p" horiz-adv-x="492" d="M52 578H202V535Q260 588 325 588Q390 587 420 535T450 407V181Q450 95 417 43T320 -10Q263 -10 202 44V-190H52V578ZM299 91T299 175V417Q299 493 254 493Q230 493 202 471V108Q229 91 253 91Q299 91 299 175Z" />
<glyph unicode="q" glyph-name="q" horiz-adv-x="491" d="M290 46Q236 -10 179 -10Q42 -10 42 181V393Q42 482 76 535T178 588Q235 588 290 540V578H441V-190H290V46ZM263 90T290 108V473Q264 490 241 490Q217 490 206 470T194 415V170Q194 90 241 90Q263 90 290 108Z" />
<glyph unicode="r" glyph-name="r" horiz-adv-x="370" d="M54 578H205V485Q235 537 263 561T330 585Q339 585 353 583V429Q327 441 299 441Q244 441 205 385V0H54V578Z" />
<glyph unicode="s" glyph-name="s" horiz-adv-x="413" d="M145 -10T96 26T21 139L127 183Q157 94 212 94Q233 94 243 103T254 130Q254 153 240 171T182 226L128 272Q80 313 57 348T34 432Q34 478 57 513T119 568T206 588Q276 588 321 549T384 438L286 394Q277
430 257 455T210 481Q192 481 181 471T170 443Q170 426 187 407T240 356L294 308Q341 268 367 231T394 145Q394 97 371 62T307 9T220 -10Q145 -10 96 26Z" />
<glyph unicode="t" glyph-name="t" horiz-adv-x="344" d="M138 -7T105 32T71 151V479H14V578H71V752H224V578H308V479H224V166Q224 115 275 115Q302 115 318 119V1Q265 -7 225 -7Q138 -7 105 32Z" />
<glyph unicode="u" glyph-name="u" horiz-adv-x="490" d="M99 -10T73 27T46 122V578H197V143Q197 119 205 107T234 95Q255 95 287 117V578H438V0H287V54Q218 -10 149 -10Q99 -10 73 27Z" />
<glyph unicode="v" glyph-name="v" horiz-adv-x="414" d="M11 578H157L210 189L260 578H405L287 0H127L11 578Z" />
<glyph unicode="w" glyph-name="w" horiz-adv-x="595" d="M23 578H148L194 229L246 578H356L403 224L454 578H573L484 0H355L299 343L238 0H109L23 578Z" />
<glyph unicode="x" glyph-name="x" horiz-adv-x="431" d="M135 314L16 578H166L234 430L293 578H414L296 292L427 0H275L200 167L138 0H10L135 314Z" />
<glyph unicode="y" glyph-name="y" horiz-adv-x="436" d="M62 -57Q113 -57 135 -47T158 -9Q158 4 152 32T137 90L5 578H149L222 223L282 578H426L292 -18Q274 -98 225 -130T94 -163H62V-57Z" />
<glyph unicode="z" glyph-name="z" horiz-adv-x="382" d="M34 98L197 468H48V578H355V488L191 111H356V0H34V98Z" />
<glyph unicode="{" glyph-name="braceleft" horiz-adv-x="359" d="M228 -192T183 -174T124 -113T110 19V111Q110 184 106 213T90 252T46 262V370Q77 370 89 380T106 419T110 521V614Q110 704 123 746T182 807T329 826V723Q292 723 277 716T256 685T251 607V503Q251
416 233 372T170 316Q215 306 233 262T251 130V26Q251 -29 256 -52T276 -82T329 -90V-192Q228 -192 183 -174Z" />
<glyph unicode="|" glyph-name="bar" horiz-adv-x="257" d="M66 810H192V-173H65L66 810Z" />
<glyph unicode="}" glyph-name="braceright" horiz-adv-x="367" d="M39 -90Q75 -90 90 -83T111 -52T116 26V130Q116 217 134 261T198 316Q152 327 134 371T116 503V607Q116 662 111 685T91 715T39 723V826Q139 826 185 807T244 746T258 614V521Q258 448 261 419T277
380T321 370V262Q290 262 278 253T262 214T258 111V19Q258 -71 245 -113T186 -173T39 -192V-90Z" />
<glyph unicode="~" glyph-name="asciitilde" horiz-adv-x="474" d="M301 339T279 347T226 372Q198 385 184 391T157 397Q144 397 124 385T88 352L39 416Q61 450 95 477T157 505Q177 505 197 497T253 472Q278 459 292 453T318 447Q343 447 387 493L440 437Q421
400 387 370T320 339Q301 339 279 347Z" />
<glyph unicode="&#xa0;" glyph-name="uni00A0" horiz-adv-x="250" />
<glyph unicode="&#xa1;" glyph-name="exclamdown" horiz-adv-x="231" d="M49 648H193V505H49V648ZM94 448H146L190 -160H40L94 448Z" />
<glyph unicode="&#xa2;" glyph-name="cent" horiz-adv-x="442" d="M205 -8Q123 -1 81 51T39 192V387Q39 476 81 527T205 586V697H245V587Q419 581 419 412V357H275V413Q275 451 265 465T233 480Q209 480 200 463T190 399V177Q190 132 200 115T233 98Q255 98 265
114T275 165V232H419V168Q419 84 375 39T245 -9V-120H205V-8Z" />
<glyph unicode="&#xa3;" glyph-name="sterling" horiz-adv-x="471" d="M17 84L77 111V328H17V445H77V536Q77 628 90 687T144 783T267 820Q366 820 403 766T442 610V584H313Q313 638 305 666T268 694Q239 694 231 663T223 563V444H342V328H223V126H437V0H17V84Z" />
<glyph unicode="&#xa4;" glyph-name="currency" horiz-adv-x="554" d="M40 201L120 280Q94 308 80 345T65 423Q65 463 79 500T120 566L40 645L55 660L134 581Q162 608 199 622T277 637Q318 637 355 623T420 581L499 660L514 645L435 566Q460 537 474 501T488 423Q488
382 474 345T434 280L514 201L499 186L420 265Q392 238 355 223T277 209Q236 208 200 223T134 265L55 186L40 201ZM323 253T360 276T419 338T441 423Q441 469 420 508T361 569T277 592Q231 592 194 570T135 508T113 423Q113 377 134 338T193 276T277 253Q323 253
360 276Z" />
<glyph unicode="&#xa5;" glyph-name="yen" horiz-adv-x="471" d="M161 119H76V197H161V263H76V343H143L3 810H158L245 482L325 810H476L338 343H404V263H319V197H404V119H319V0H161V119Z" />
<glyph unicode="&#xa6;" glyph-name="brokenbar" horiz-adv-x="216" d="M54 810H162V401H54V810ZM54 233H162V-175H54V233Z" />
<glyph unicode="&#xa7;" glyph-name="section" horiz-adv-x="463" d="M155 -7T110 37T47 155L149 183Q160 151 181 126T232 101Q258 101 273 114T291 151Q292 177 276 197T220 242L126 302Q89 326 68 355T47 425Q47 471 71 503T133 549Q97 570 71 606T44 684Q44
753 97 793T230 833Q304 833 351 789T416 670L315 644Q304 680 286 703T235 727Q209 727 194 715T179 678Q179 654 194 639T238 606L324 552Q411 495 411 415Q411 374 391 345T333 293Q373 260 393 228T414 155Q414 81 365 37T229 -7Q155 -7 110 37ZM294 373T294
404Q295 416 288 430T263 455L212 486Q193 480 181 466T168 433Q168 421 174 410T190 393L253 354Q294 373 294 404Z" />
<glyph unicode="&#xa8;" glyph-name="dieresis" horiz-adv-x="420" d="M44 810H168V670H44V810ZM250 810H376V670H250V810Z" />
<glyph unicode="&#xa9;" glyph-name="copyright" horiz-adv-x="879" d="M305 -13T215 47T83 204T40 408Q40 515 82 611T215 767T440 827Q574 827 663 767T795 612T838 408Q838 300 796 204T665 48T440 -13Q305 -13 215 47ZM558 28T637 81T755 221T794 407Q794
507 756 593T638 731T441 784Q324 784 245 732T127 593T88 407Q88 307 126 221T244 82T441 28Q558 28 637 81ZM335 123T282 175T229 323V499Q229 595 282 646T439 698Q643 698 643 525V475H487V526Q487 564 476 579T440 594Q414 594 403 576T392 512V309Q392 263
403 246T440 229Q465 229 476 244T487 296V354H643V299Q643 213 591 168T439 123Q335 123 282 175Z" />
<glyph unicode="&#xaa;" glyph-name="ordfeminine" horiz-adv-x="474" d="M120 315T91 348T61 433Q61 486 90 520T163 573T277 616V670Q277 722 245 722Q225 722 217 705T205 646L76 649Q77 734 124 777T255 821Q336 821 374 778T412 656V323H293L286 389Q271
356 243 336T173 315Q120 315 91 348ZM244 408T256 416T277 438V563Q238 545 214 516T190 457Q190 434 201 421T231 408Q244 408 256 416Z" />
<glyph unicode="&#xab;" glyph-name="guillemotleft" horiz-adv-x="481" d="M36 271V326L225 559V407L128 298L225 189V38L36 271ZM247 271V326L437 559V407L339 298L437 189V38L247 271Z" />
<glyph unicode="&#xac;" glyph-name="logicalnot" horiz-adv-x="475" d="M357 364H45V467H432V216H357V364Z" />
<glyph unicode="&#xad;" glyph-name="uni00AD" horiz-adv-x="366" d="M63 403H309V304H63V403Z" />
<glyph unicode="&#xae;" glyph-name="registered" horiz-adv-x="890" d="M311 -14T222 46T90 202T47 404Q47 511 89 606T221 762T445 822Q579 822 668 762T800 607T843 404Q843 297 801 202T670 46T445 -14Q311 -14 222 46ZM556 39T632 90T745 225T782 404Q782
500 745 583T633 718T445 769Q332 769 256 718T143 584T106 404Q106 308 142 225T255 91T445 39Q556 39 632 90ZM280 663H444Q534 663 579 631T624 522Q624 473 607 443T550 395L639 151H510L438 371H403V151H280V663ZM428 433Q472 433 489 453T507 515Q507 589
441 589H403V433H428Z" />
<glyph unicode="&#xaf;" glyph-name="overscore" horiz-adv-x="350" d="M55 810H295V736H55V810Z" />
<glyph unicode="&#xb0;" glyph-name="degree" horiz-adv-x="521" d="M172 436T120 488T67 629Q67 716 120 768T260 820Q348 820 401 768T455 629Q455 541 402 489T260 436Q172 436 120 488ZM305 521T330 551T356 629Q356 677 331 706T260 735Q215 735 190 706T164
629Q164 581 189 551T260 521Q305 521 330 551Z" />
<glyph unicode="&#xb1;" glyph-name="plusminus" horiz-adv-x="458" d="M181 304H63V396H181V517H278V396H396V304H278V183H181V304ZM63 95H396V0H63V95Z" />
<glyph unicode="&#xb2;" glyph-name="uni00B2" horiz-adv-x="463" d="M80 509L197 629Q243 675 260 702T278 756Q278 780 268 792T237 805Q210 805 199 784T188 720H78V736Q78 809 117 853T239 898Q309 898 349 861T389 756Q389 708 368 671T299 587L236 524H393V433H80V509Z"
/>
<glyph unicode="&#xb3;" glyph-name="uni00B3" horiz-adv-x="464" d="M150 423T115 458T79 559V575H189V571Q189 543 200 530T235 516Q279 516 279 567Q279 597 266 612T220 627H194V697H217Q247 697 261 711T275 754Q275 805 234 805Q189 805 189 750V746H79V762Q79
828 119 863T234 898Q305 898 345 866T386 774Q386 734 367 707T320 668Q389 645 389 558Q389 494 348 459T234 423Q150 423 115 458Z" />
<glyph unicode="&#xb4;" glyph-name="acute" horiz-adv-x="301" d="M115 810H269L146 609H54L115 810Z" />
<glyph unicode="&#xb5;" glyph-name="uni00B5" horiz-adv-x="481" d="M43 578H194V147Q194 122 201 111T229 99Q252 99 282 121V578H433V0H282V48Q250 15 218 3Q207 -1 195 -1V-184H44L43 578Z" />
<glyph unicode="&#xb6;" glyph-name="paragraph" horiz-adv-x="515" d="M190 495Q119 497 77 538T34 652Q34 735 87 772T227 810H448V-96H362V726H281V-96H190V495Z" />
<glyph unicode="&#xb7;" glyph-name="middot" horiz-adv-x="215" d="M37 448H181V305H37V448Z" />
<glyph unicode="&#xb8;" glyph-name="cedilla" horiz-adv-x="353" d="M106 -268T68 -257V-190Q98 -198 124 -198Q152 -198 169 -190T186 -162Q186 -137 160 -125T95 -109V0H153V-64Q215 -64 250 -89T285 -164Q285 -216 245 -242T142 -268Q106 -268 68 -257Z" />
<glyph unicode="&#xb9;" glyph-name="uni00B9" horiz-adv-x="369" d="M160 760L68 724V822L199 888H273V433H160V760Z" />
<glyph unicode="&#xba;" glyph-name="ordmasculine" horiz-adv-x="474" d="M156 315T112 357T68 478V659Q68 738 112 780T237 822Q316 822 361 779T406 659V478Q406 400 361 358T237 315Q156 315 112 357ZM261 408T271 427T281 481V656Q281 692 271 710T236 728Q211
728 201 710T191 656V481Q191 446 201 427T236 408Q261 408 271 427Z" />
<glyph unicode="&#xbb;" glyph-name="guillemotright" horiz-adv-x="491" d="M47 189L149 299L47 407V559L241 326V271L47 38V189ZM259 189L360 299L259 407V559L452 326V271L259 38V189Z" />
<glyph unicode="&#xbc;" glyph-name="onequarter" horiz-adv-x="872" d="M394 938L302 902V1000L433 1066H507V611H394V938ZM563 810H659L276 0H180L563 810ZM639 102H463V173L658 455H751V175H795V102H751V0H639V102ZM639 175L638 311L546 175H639Z" />
<glyph unicode="&#xbd;" glyph-name="onehalf" horiz-adv-x="906" d="M380 938L288 902V1000L419 1066H493V611H380V938ZM550 810H646L263 0H167L550 810ZM533 76L650 196Q696 242 713 269T731 323Q731 347 721 359T690 372Q663 372 652 351T641 287H531V303Q531
376 570 420T692 465Q762 465 802 428T842 323Q842 275 821 238T752 154L689 91H846V0H533V76Z" />
<glyph unicode="&#xbe;" glyph-name="threequarters" horiz-adv-x="912" d="M386 601T351 636T315 737V753H425V749Q425 721 436 708T471 694Q515 694 515 745Q515 775 502 790T456 805H430V875H453Q483 875 497 889T511 932Q511 983 470 983Q425 983 425 928V924H315V940Q315
1006 355 1041T470 1076Q541 1076 581 1044T622 952Q622 912 603 885T556 846Q625 823 625 736Q625 672 584 637T470 601Q386 601 351 636ZM636 810H732L349 0H253L636 810ZM712 102H536V173L731 455H824V175H868V102H824V0H712V102ZM712 175L711 311L619 175H712Z"
/>
<glyph unicode="&#xbf;" glyph-name="questiondown" horiz-adv-x="485" d="M348 300Q273 241 229 172T184 26Q184 -52 247 -52Q274 -52 289 -36T305 7Q305 31 295 61L432 92Q447 47 447 5Q447 -82 394 -131T244 -181Q144 -181 90 -128T36 23Q36 195 211 330V428H348V300ZM353
494H205V639H353V494Z" />
<glyph unicode="&#xc0;" glyph-name="Agrave" horiz-adv-x="538" d="M178 810H361L517 0H365L335 178H207L176 0H21L178 810ZM319 280L270 606L222 280H319ZM103 1071H258L318 870H227L103 1071Z" />
<glyph unicode="&#xc1;" glyph-name="Aacute" horiz-adv-x="538" d="M178 810H361L517 0H365L335 178H207L176 0H21L178 810ZM319 280L270 606L222 280H319ZM283 1071H437L314 870H222L283 1071Z" />
<glyph unicode="&#xc2;" glyph-name="Acircumflex" horiz-adv-x="538" d="M178 810H361L517 0H365L335 178H207L176 0H21L178 810ZM319 280L270 606L222 280H319ZM205 1066H333L428 878H317L269 998L222 878H112L205 1066Z" />
<glyph unicode="&#xc3;" glyph-name="Atilde" horiz-adv-x="538" d="M178 810H361L517 0H365L335 178H207L176 0H21L178 810ZM319 280L270 606L222 280H319ZM332 907T316 913T278 933Q244 954 224 954Q188 954 188 913H114Q112 1048 201 1048Q218 1048 233 1042T268
1024Q286 1014 299 1009T326 1003Q357 1003 357 1042H426Q426 982 411 945T350 907Q332 907 316 913Z" />
<glyph unicode="&#xc4;" glyph-name="Adieresis" horiz-adv-x="538" d="M178 810H361L517 0H365L335 178H207L176 0H21L178 810ZM319 280L270 606L222 280H319ZM103 1042H228V902H103V1042ZM311 1042H437V902H311V1042Z" />
<glyph unicode="&#xc5;" glyph-name="Aring" horiz-adv-x="538" d="M178 810H361L517 0H365L335 178H207L176 0H21L178 810ZM319 280L270 606L222 280H319ZM219 848T187 877T154 958Q154 1010 186 1039T269 1068Q319 1068 352 1039T386 958Q386 906 353 877T269
848Q219 848 187 877ZM294 905T307 920T321 958Q321 982 308 997T269 1012Q245 1012 232 997T218 958Q218 935 231 920T269 905Q294 905 307 920Z" />
<glyph unicode="&#xc6;" glyph-name="AE" horiz-adv-x="692" d="M329 800H671V687H493V476H620V361H493V113H671V0H350V177H216L143 0H-21L329 800ZM350 282V549L250 282H350Z" />
<glyph unicode="&#xc7;" glyph-name="Ccedilla" horiz-adv-x="553" d="M157 -11T103 58T49 259V549Q49 683 102 751T286 820Q410 820 461 760T513 586V518H353V593Q353 629 350 651T332 687T287 702Q242 702 229 673T216 588V220Q216 163 231 135T287 107Q329
107 341 135T353 220V299H513V232Q513 116 462 53T286 -11Q157 -11 103 58ZM259 -268T221 -257V-190Q251 -198 277 -198Q305 -198 322 -190T339 -162Q339 -137 313 -125T248 -109V0H306V-64Q368 -64 403 -89T438 -164Q438 -216 398 -242T295 -268Q259 -268 221
-257Z" />
<glyph unicode="&#xc8;" glyph-name="Egrave" horiz-adv-x="439" d="M61 810H414V696H225V481H371V366H225V112H416V0H61V810ZM73 1071H228L288 870H197L73 1071Z" />
<glyph unicode="&#xc9;" glyph-name="Eacute" horiz-adv-x="439" d="M61 810H414V696H225V481H371V366H225V112H416V0H61V810ZM253 1071H407L284 870H192L253 1071Z" />
<glyph unicode="&#xca;" glyph-name="Ecircumflex" horiz-adv-x="439" d="M61 810H414V696H225V481H371V366H225V112H416V0H61V810ZM175 1066H303L398 878H287L239 998L192 878H82L175 1066Z" />
<glyph unicode="&#xcb;" glyph-name="Edieresis" horiz-adv-x="439" d="M61 810H414V696H225V481H371V366H225V112H416V0H61V810ZM73 1042H198V902H73V1042ZM281 1042H407V902H281V1042Z" />
<glyph unicode="&#xcc;" glyph-name="Igrave" horiz-adv-x="289" d="M63 810H227V0H63V810ZM-22 1071H133L193 870H102L-22 1071Z" />
<glyph unicode="&#xcd;" glyph-name="Iacute" horiz-adv-x="289" d="M63 810H227V0H63V810ZM158 1071H312L189 870H97L158 1071Z" />
<glyph unicode="&#xce;" glyph-name="Icircumflex" horiz-adv-x="289" d="M63 810H227V0H63V810ZM80 1066H208L303 878H192L144 998L97 878H-13L80 1066Z" />
<glyph unicode="&#xcf;" glyph-name="Idieresis" horiz-adv-x="289" d="M63 810H227V0H63V810ZM-22 1042H103V902H-22V1042ZM186 1042H312V902H186V1042Z" />
<glyph unicode="&#xd0;" glyph-name="Eth" horiz-adv-x="553" d="M54 374H9V458H54V810H253Q355 810 412 784T494 702T518 556V261Q518 168 494 112T414 28T257 0H54V374ZM255 115Q298 115 318 128T344 168T350 243V578Q350 624 344 647T317 682T254 694H219V458H264V374H219V115H255Z"
/>
<glyph unicode="&#xd1;" glyph-name="Ntilde" horiz-adv-x="554" d="M61 810H176L356 389V810H493V0H382L202 448V0H61V810ZM339 907T323 913T285 933Q251 954 231 954Q195 954 195 913H121Q119 1048 208 1048Q225 1048 240 1042T275 1024Q293 1014 306 1009T333
1003Q364 1003 364 1042H433Q433 982 418 945T357 907Q339 907 323 913Z" />
<glyph unicode="&#xd2;" glyph-name="Ograve" horiz-adv-x="576" d="M159 -11T104 56T49 255V557Q49 688 104 754T288 820Q416 820 471 754T527 557V254Q527 124 472 57T288 -11Q159 -11 104 56ZM330 107T344 135T359 214V597Q359 647 345 674T288 702Q246 702
232 675T217 597V214Q217 163 231 135T288 107Q330 107 344 135ZM121 1071H276L336 870H245L121 1071Z" />
<glyph unicode="&#xd3;" glyph-name="Oacute" horiz-adv-x="576" d="M159 -11T104 56T49 255V557Q49 688 104 754T288 820Q416 820 471 754T527 557V254Q527 124 472 57T288 -11Q159 -11 104 56ZM330 107T344 135T359 214V597Q359 647 345 674T288 702Q246 702
232 675T217 597V214Q217 163 231 135T288 107Q330 107 344 135ZM301 1071H455L332 870H240L301 1071Z" />
<glyph unicode="&#xd4;" glyph-name="Ocircumflex" horiz-adv-x="576" d="M159 -11T104 56T49 255V557Q49 688 104 754T288 820Q416 820 471 754T527 557V254Q527 124 472 57T288 -11Q159 -11 104 56ZM330 107T344 135T359 214V597Q359 647 345 674T288 702Q246
702 232 675T217 597V214Q217 163 231 135T288 107Q330 107 344 135ZM223 1066H351L446 878H335L287 998L240 878H130L223 1066Z" />
<glyph unicode="&#xd5;" glyph-name="Otilde" horiz-adv-x="576" d="M159 -11T104 56T49 255V557Q49 688 104 754T288 820Q416 820 471 754T527 557V254Q527 124 472 57T288 -11Q159 -11 104 56ZM330 107T344 135T359 214V597Q359 647 345 674T288 702Q246 702
232 675T217 597V214Q217 163 231 135T288 107Q330 107 344 135ZM350 907T334 913T296 933Q262 954 242 954Q206 954 206 913H132Q130 1048 219 1048Q236 1048 251 1042T286 1024Q304 1014 317 1009T344 1003Q375 1003 375 1042H444Q444 982 429 945T368 907Q350
907 334 913Z" />
<glyph unicode="&#xd6;" glyph-name="Odieresis" horiz-adv-x="576" d="M159 -11T104 56T49 255V557Q49 688 104 754T288 820Q416 820 471 754T527 557V254Q527 124 472 57T288 -11Q159 -11 104 56ZM330 107T344 135T359 214V597Q359 647 345 674T288 702Q246
702 232 675T217 597V214Q217 163 231 135T288 107Q330 107 344 135ZM121 1042H246V902H121V1042ZM329 1042H455V902H329V1042Z" />
<glyph unicode="&#xd7;" glyph-name="multiply" horiz-adv-x="464" d="M53 302L163 412L53 521L123 592L232 482L342 592L411 523L302 412L411 302L342 233L232 342L123 233L53 302Z" />
<glyph unicode="&#xd8;" glyph-name="Oslash" horiz-adv-x="565" d="M483 754T505 697T527 557V254Q527 124 472 57T288 -11Q214 -11 163 12L128 -87L89 -72L127 35Q86 68 68 122T49 255V557Q49 688 104 754T288 820Q351 820 397 803L425 883L465 869L435 785Q483
754 505 697ZM217 292L349 666Q333 702 288 702Q246 702 232 675T217 597V292ZM330 107T344 135T359 214V568L219 172Q224 141 239 124T288 107Q330 107 344 135Z" />
<glyph unicode="&#xd9;" glyph-name="Ugrave" horiz-adv-x="578" d="M199 -11T148 19T76 108T55 256V810H217V233Q217 175 231 142T289 109Q333 109 347 142T361 233V810H524V256Q524 166 503 108T431 20T289 -11Q199 -11 148 19ZM123 1071H278L338 870H247L123 1071Z" />
<glyph unicode="&#xda;" glyph-name="Uacute" horiz-adv-x="578" d="M199 -11T148 19T76 108T55 256V810H217V233Q217 175 231 142T289 109Q333 109 347 142T361 233V810H524V256Q524 166 503 108T431 20T289 -11Q199 -11 148 19ZM303 1071H457L334 870H242L303 1071Z" />
<glyph unicode="&#xdb;" glyph-name="Ucircumflex" horiz-adv-x="578" d="M199 -11T148 19T76 108T55 256V810H217V233Q217 175 231 142T289 109Q333 109 347 142T361 233V810H524V256Q524 166 503 108T431 20T289 -11Q199 -11 148 19ZM225 1066H353L448 878H337L289
998L242 878H132L225 1066Z" />
<glyph unicode="&#xdc;" glyph-name="Udieresis" horiz-adv-x="578" d="M199 -11T148 19T76 108T55 256V810H217V233Q217 175 231 142T289 109Q333 109 347 142T361 233V810H524V256Q524 166 503 108T431 20T289 -11Q199 -11 148 19ZM123 1042H248V902H123V1042ZM331
1042H457V902H331V1042Z" />
<glyph unicode="&#xdd;" glyph-name="Yacute" horiz-adv-x="491" d="M167 321L9 810H164L251 525L331 810H482L326 321V0H167V321ZM259 1071H413L290 870H198L259 1071Z" />
<glyph unicode="&#xde;" glyph-name="Thorn" horiz-adv-x="549" d="M54 810H219V702H305Q422 702 478 647T534 475Q534 384 509 332T431 257T294 234H219V0H54V810ZM279 353Q335 353 358 379T382 468Q382 528 360 554T285 581H219V353H279Z" />
<glyph unicode="&#xdf;" glyph-name="germandbls" horiz-adv-x="536" d="M247 103Q305 103 330 132T355 231Q355 290 330 323T256 357V474Q294 474 313 508T333 603Q333 657 317 685T265 714Q228 714 214 686T200 601V0H49V601Q49 697 99 759T253 821Q360 821
412 766T464 606Q464 478 350 430Q505 388 505 215Q505 97 440 42T247 -14V103Z" />
<glyph unicode="&#xe0;" glyph-name="agrave" horiz-adv-x="466" d="M128 -10T98 10T53 62T37 130Q37 197 70 240T149 307T273 359V413Q273 444 265 460T234 476Q212 476 203 462T192 422L189 382L47 388Q51 491 100 539T247 588Q332 588 375 541T418 412V143Q418
75 428 0H293Q289 29 280 83Q268 43 240 17T168 -10Q128 -10 98 10ZM237 97T250 107T273 130V289Q226 262 201 233T176 162Q176 131 188 114T222 97Q237 97 250 107ZM79 839H234L294 638H203L79 839Z" />
<glyph unicode="&#xe1;" glyph-name="aacute" horiz-adv-x="466" d="M128 -10T98 10T53 62T37 130Q37 197 70 240T149 307T273 359V413Q273 444 265 460T234 476Q212 476 203 462T192 422L189 382L47 388Q51 491 100 539T247 588Q332 588 375 541T418 412V143Q418
75 428 0H293Q289 29 280 83Q268 43 240 17T168 -10Q128 -10 98 10ZM237 97T250 107T273 130V289Q226 262 201 233T176 162Q176 131 188 114T222 97Q237 97 250 107ZM259 839H413L290 638H198L259 839Z" />
<glyph unicode="&#xe2;" glyph-name="acircumflex" horiz-adv-x="466" d="M128 -10T98 10T53 62T37 130Q37 197 70 240T149 307T273 359V413Q273 444 265 460T234 476Q212 476 203 462T192 422L189 382L47 388Q51 491 100 539T247 588Q332 588 375 541T418 412V143Q418
75 428 0H293Q289 29 280 83Q268 43 240 17T168 -10Q128 -10 98 10ZM237 97T250 107T273 130V289Q226 262 201 233T176 162Q176 131 188 114T222 97Q237 97 250 107ZM181 834H309L404 646H293L245 766L198 646H88L181 834Z" />
<glyph unicode="&#xe3;" glyph-name="atilde" horiz-adv-x="466" d="M128 -10T98 10T53 62T37 130Q37 197 70 240T149 307T273 359V413Q273 444 265 460T234 476Q212 476 203 462T192 422L189 382L47 388Q51 491 100 539T247 588Q332 588 375 541T418 412V143Q418
75 428 0H293Q289 29 280 83Q268 43 240 17T168 -10Q128 -10 98 10ZM237 97T250 107T273 130V289Q226 262 201 233T176 162Q176 131 188 114T222 97Q237 97 250 107ZM308 675T292 681T254 701Q220 722 200 722Q164 722 164 681H90Q88 816 177 816Q194 816 209 810T244
792Q262 782 275 777T302 771Q333 771 333 810H402Q402 750 387 713T326 675Q308 675 292 681Z" />
<glyph unicode="&#xe4;" glyph-name="adieresis" horiz-adv-x="466" d="M128 -10T98 10T53 62T37 130Q37 197 70 240T149 307T273 359V413Q273 444 265 460T234 476Q212 476 203 462T192 422L189 382L47 388Q51 491 100 539T247 588Q332 588 375 541T418 412V143Q418
75 428 0H293Q289 29 280 83Q268 43 240 17T168 -10Q128 -10 98 10ZM237 97T250 107T273 130V289Q226 262 201 233T176 162Q176 131 188 114T222 97Q237 97 250 107ZM79 810H204V670H79V810ZM287 810H413V670H287V810Z" />
<glyph unicode="&#xe5;" glyph-name="aring" horiz-adv-x="466" d="M128 -10T98 10T53 62T37 130Q37 197 70 240T149 307T273 359V413Q273 444 265 460T234 476Q212 476 203 462T192 422L189 382L47 388Q51 491 100 539T247 588Q332 588 375 541T418 412V143Q418
75 428 0H293Q289 29 280 83Q268 43 240 17T168 -10Q128 -10 98 10ZM237 97T250 107T273 130V289Q226 262 201 233T176 162Q176 131 188 114T222 97Q237 97 250 107ZM195 616T163 645T130 726Q130 778 162 807T245 836Q295 836 328 807T362 726Q362 674 329 645T245
616Q195 616 163 645ZM270 673T283 688T297 726Q297 750 284 765T245 780Q221 780 208 765T194 726Q194 703 207 688T245 673Q270 673 283 688Z" />
<glyph unicode="&#xe6;" glyph-name="ae" horiz-adv-x="673" d="M488 202H629V160Q629 78 588 34T467 -11Q416 -11 378 15T330 89Q315 42 276 16T187 -11Q118 -11 78 27T37 131Q37 209 82 251T206 313L270 328V408Q270 443 261 459T230 475Q207 475 197 455T186
388L39 392Q40 487 84 537T218 588Q264 588 295 571T340 525Q356 553 393 570T478 588Q554 588 593 551T632 450Q632 381 593 347T482 297L415 282V165Q415 131 422 115T452 98Q474 98 481 115T488 166V202ZM414 352L438 358Q473 365 489 380T505 426Q505 448 494
462T462 476Q436 476 425 460T414 410V352ZM270 259L236 245Q203 232 188 210T173 156Q173 128 185 111T221 93Q270 93 270 162V259Z" />
<glyph unicode="&#xe7;" glyph-name="ccedilla" horiz-adv-x="456" d="M138 -10T89 43T40 192V387Q40 484 89 536T233 588Q326 588 373 544T421 412V357H276V416Q276 454 266 468T234 483Q210 483 201 465T191 402V174Q191 129 201 112T234 95Q257 95 266 111T276
162V232H421V168Q421 81 373 36T233 -10Q138 -10 89 43ZM211 -268T173 -257V-190Q203 -198 229 -198Q257 -198 274 -190T291 -162Q291 -137 265 -125T200 -109V0H258V-64Q320 -64 355 -89T390 -164Q390 -216 350 -242T247 -268Q211 -268 173 -257Z" />
<glyph unicode="&#xe8;" glyph-name="egrave" horiz-adv-x="459" d="M139 -10T90 42T40 192V386Q40 484 90 536T234 588Q331 588 376 536T421 382V281H190V169Q190 132 201 115T235 98Q280 98 280 163V219H420V169Q420 82 372 36T234 -10Q139 -10 90 42ZM280 353V409Q280
447 269 463T234 480Q211 480 201 462T190 398V353H280ZM65 839H220L280 638H189L65 839Z" />
<glyph unicode="&#xe9;" glyph-name="eacute" horiz-adv-x="459" d="M139 -10T90 42T40 192V386Q40 484 90 536T234 588Q331 588 376 536T421 382V281H190V169Q190 132 201 115T235 98Q280 98 280 163V219H420V169Q420 82 372 36T234 -10Q139 -10 90 42ZM280 353V409Q280
447 269 463T234 480Q211 480 201 462T190 398V353H280ZM245 839H399L276 638H184L245 839Z" />
<glyph unicode="&#xea;" glyph-name="ecircumflex" horiz-adv-x="459" d="M139 -10T90 42T40 192V386Q40 484 90 536T234 588Q331 588 376 536T421 382V281H190V169Q190 132 201 115T235 98Q280 98 280 163V219H420V169Q420 82 372 36T234 -10Q139 -10 90 42ZM280
353V409Q280 447 269 463T234 480Q211 480 201 462T190 398V353H280ZM167 834H295L390 646H279L231 766L184 646H74L167 834Z" />
<glyph unicode="&#xeb;" glyph-name="edieresis" horiz-adv-x="459" d="M139 -10T90 42T40 192V386Q40 484 90 536T234 588Q331 588 376 536T421 382V281H190V169Q190 132 201 115T235 98Q280 98 280 163V219H420V169Q420 82 372 36T234 -10Q139 -10 90 42ZM280
353V409Q280 447 269 463T234 480Q211 480 201 462T190 398V353H280ZM65 810H190V670H65V810ZM273 810H399V670H273V810Z" />
<glyph unicode="&#xec;" glyph-name="igrave" horiz-adv-x="268" d="M60 578H211V0H60V578ZM-31 839H124L184 638H93L-31 839Z" />
<glyph unicode="&#xed;" glyph-name="iacute" horiz-adv-x="268" d="M60 578H211V0H60V578ZM149 839H303L180 638H88L149 839Z" />
<glyph unicode="&#xee;" glyph-name="icircumflex" horiz-adv-x="268" d="M60 578H211V0H60V578ZM71 834H199L294 646H183L135 766L88 646H-22L71 834Z" />
<glyph unicode="&#xef;" glyph-name="idieresis" horiz-adv-x="268" d="M60 578H211V0H60V578ZM-31 810H94V670H-31V810ZM177 810H303V670H177V810Z" />
<glyph unicode="&#xf0;" glyph-name="eth" horiz-adv-x="509" d="M165 -13T109 44T53 214V362Q53 425 74 474T135 550T225 577Q268 577 306 555Q305 593 298 623T280 669L186 625L172 669L253 708Q225 743 123 744L130 839Q300 838 363 765L455 810L469 765L391
728Q421 672 439 603T458 429V220Q458 -13 257 -13Q165 -13 109 44ZM286 90T296 113T307 183V459Q281 475 262 475Q237 475 225 458T207 401T202 288Q202 207 205 168T221 109T260 90Q286 90 296 113Z" />
<glyph unicode="&#xf1;" glyph-name="ntilde" horiz-adv-x="493" d="M52 578H202V520Q272 588 342 588Q392 588 418 551T445 456V0H294V432Q294 456 286 467T259 479Q236 479 202 455V0H52V578ZM309 675T293 681T255 701Q221 722 201 722Q165 722 165 681H91Q89
816 178 816Q195 816 210 810T245 792Q263 782 276 777T303 771Q334 771 334 810H403Q403 750 388 713T327 675Q309 675 293 681Z" />
<glyph unicode="&#xf2;" glyph-name="ograve" horiz-adv-x="471" d="M141 -10T91 40T40 185V393Q40 488 90 538T235 588Q329 588 379 538T430 393V185Q430 90 380 40T235 -10Q141 -10 91 40ZM262 92T271 112T281 174V403Q281 444 272 465T236 486Q209 486 199
465T189 403V174Q189 134 199 113T236 92Q262 92 271 112ZM68 839H223L283 638H192L68 839Z" />
<glyph unicode="&#xf3;" glyph-name="oacute" horiz-adv-x="471" d="M141 -10T91 40T40 185V393Q40 488 90 538T235 588Q329 588 379 538T430 393V185Q430 90 380 40T235 -10Q141 -10 91 40ZM262 92T271 112T281 174V403Q281 444 272 465T236 486Q209 486 199
465T189 403V174Q189 134 199 113T236 92Q262 92 271 112ZM248 839H402L279 638H187L248 839Z" />
<glyph unicode="&#xf4;" glyph-name="ocircumflex" horiz-adv-x="471" d="M141 -10T91 40T40 185V393Q40 488 90 538T235 588Q329 588 379 538T430 393V185Q430 90 380 40T235 -10Q141 -10 91 40ZM262 92T271 112T281 174V403Q281 444 272 465T236 486Q209 486
199 465T189 403V174Q189 134 199 113T236 92Q262 92 271 112ZM170 834H298L393 646H282L234 766L187 646H77L170 834Z" />
<glyph unicode="&#xf5;" glyph-name="otilde" horiz-adv-x="471" d="M141 -10T91 40T40 185V393Q40 488 90 538T235 588Q329 588 379 538T430 393V185Q430 90 380 40T235 -10Q141 -10 91 40ZM262 92T271 112T281 174V403Q281 444 272 465T236 486Q209 486 199
465T189 403V174Q189 134 199 113T236 92Q262 92 271 112ZM297 675T281 681T243 701Q209 722 189 722Q153 722 153 681H79Q77 816 166 816Q183 816 198 810T233 792Q251 782 264 777T291 771Q322 771 322 810H391Q391 750 376 713T315 675Q297 675 281 681Z" />
<glyph unicode="&#xf6;" glyph-name="odieresis" horiz-adv-x="471" d="M141 -10T91 40T40 185V393Q40 488 90 538T235 588Q329 588 379 538T430 393V185Q430 90 380 40T235 -10Q141 -10 91 40ZM262 92T271 112T281 174V403Q281 444 272 465T236 486Q209 486 199
465T189 403V174Q189 134 199 113T236 92Q262 92 271 112ZM68 810H193V670H68V810ZM276 810H402V670H276V810Z" />
<glyph unicode="&#xf7;" glyph-name="divide" horiz-adv-x="433" d="M172 651H269V530H172V651ZM32 460H401V374H32V460ZM172 296H269V176H172V296Z" />
<glyph unicode="&#xf8;" glyph-name="oslash" horiz-adv-x="466" d="M430 507T430 393V185Q430 90 380 40T235 -10Q182 -10 140 7L102 -90L66 -75L106 27Q40 76 40 185V393Q40 488 90 538T235 588Q282 588 321 574L359 672L398 657L358 556Q430 507 430 393ZM189
239L275 457Q265 486 236 486Q209 486 199 465T189 403V239ZM262 92T271 112T281 174V362L192 136Q199 92 236 92Q262 92 271 112Z" />
<glyph unicode="&#xf9;" glyph-name="ugrave" horiz-adv-x="490" d="M99 -10T73 27T46 122V578H197V143Q197 119 205 107T234 95Q255 95 287 117V578H438V0H287V54Q218 -10 149 -10Q99 -10 73 27ZM78 839H233L293 638H202L78 839Z" />
<glyph unicode="&#xfa;" glyph-name="uacute" horiz-adv-x="490" d="M99 -10T73 27T46 122V578H197V143Q197 119 205 107T234 95Q255 95 287 117V578H438V0H287V54Q218 -10 149 -10Q99 -10 73 27ZM258 839H412L289 638H197L258 839Z" />
<glyph unicode="&#xfb;" glyph-name="ucircumflex" horiz-adv-x="490" d="M99 -10T73 27T46 122V578H197V143Q197 119 205 107T234 95Q255 95 287 117V578H438V0H287V54Q218 -10 149 -10Q99 -10 73 27ZM180 834H308L403 646H292L244 766L197 646H87L180 834Z" />
<glyph unicode="&#xfc;" glyph-name="udieresis" horiz-adv-x="490" d="M99 -10T73 27T46 122V578H197V143Q197 119 205 107T234 95Q255 95 287 117V578H438V0H287V54Q218 -10 149 -10Q99 -10 73 27ZM78 810H203V670H78V810ZM286 810H412V670H286V810Z" />
<glyph unicode="&#xfd;" glyph-name="yacute" horiz-adv-x="436" d="M62 -57Q113 -57 135 -47T158 -9Q158 4 152 32T137 90L5 578H149L222 223L282 578H426L292 -18Q274 -98 225 -130T94 -163H62V-57ZM231 839H385L262 638H170L231 839Z" />
<glyph unicode="&#xfe;" glyph-name="thorn" horiz-adv-x="484" d="M48 810H199V535Q257 588 321 588Q386 588 415 536T445 407V181Q445 95 413 43T316 -10Q259 -10 199 43V-190H48V810ZM294 91T294 175V417Q294 493 249 493Q224 493 199 471V108Q225 91 249 91Q294
91 294 175Z" />
<glyph unicode="&#xff;" glyph-name="ydieresis" horiz-adv-x="436" d="M62 -57Q113 -57 135 -47T158 -9Q158 4 152 32T137 90L5 578H149L222 223L282 578H426L292 -18Q274 -98 225 -130T94 -163H62V-57ZM51 810H176V670H51V810ZM259 810H385V670H259V810Z" />
<glyph unicode="&#x2013;" glyph-name="endash" horiz-adv-x="498" d="M4 393H494V288H4V393Z" />
<glyph unicode="&#x2014;" glyph-name="emdash" horiz-adv-x="986" d="M4 419H983V315H4V419Z" />
<glyph unicode="&#x2018;" glyph-name="quoteleft" horiz-adv-x="224" d="M26 652Q28 740 54 781T143 823L156 775Q122 774 110 751T97 680H163V544H25L26 652Z" />
<glyph unicode="&#x2019;" glyph-name="quoteright" horiz-adv-x="224" d="M68 579Q102 580 114 603T127 673H61V810H199L198 702Q195 613 170 572T81 530L68 579Z" />
<glyph unicode="&#x201a;" glyph-name="quotesinglbase" horiz-adv-x="237" d="M68 -65Q102 -64 114 -41T127 29H61V166H199L198 58Q195 -31 170 -72T81 -114L68 -65Z" />
<glyph unicode="&#x201c;" glyph-name="quotedblleft" horiz-adv-x="422" d="M26 652Q28 740 54 781T143 823L156 775Q122 774 110 751T97 680H163V544H25L26 652ZM225 652Q227 740 253 781T342 823L355 775Q321 774 309 751T296 680H362V544H224L225 652Z" />
<glyph unicode="&#x201d;" glyph-name="quotedblright" horiz-adv-x="422" d="M68 579Q102 580 114 603T127 673H61V810H199L198 702Q195 613 170 572T81 530L68 579ZM267 579Q301 580 313 603T326 673H260V810H398L397 702Q394 613 369 572T280 530L267 579Z" />
<glyph unicode="&#x201e;" glyph-name="quotedblbase" horiz-adv-x="422" d="M254 -65Q288 -64 300 -41T313 29H247V166H385L384 58Q381 -31 356 -72T267 -114L254 -65ZM68 -65Q102 -64 114 -41T127 29H61V166H199L198 58Q195 -31 170 -72T81 -114L68 -65Z" />
<glyph unicode="&#x2022;" glyph-name="bullet" horiz-adv-x="454" d="M181 206T144 225T84 283T61 375Q61 429 83 468T144 527T226 547Q271 547 308 527T368 468T391 375Q391 322 369 284T309 226T226 206Q181 206 144 225Z" />
<glyph unicode="&#x2039;" glyph-name="guilsinglleft" horiz-adv-x="285" d="M39 248V326L244 547V395L134 288L244 178V26L39 248Z" />
<glyph unicode="&#x203a;" glyph-name="guilsinglright" horiz-adv-x="279" d="M45 200L157 309L45 418V569L249 336V281L45 48V200Z" />
</font>
</defs>
</svg>
