<?xml version="1.0" standalone="no"?>
<!DOCTYPE svg PUBLIC "-//W3C//DTD SVG 1.1//EN" "http://www.w3.org/Graphics/SVG/1.1/DTD/svg11.dtd" >
<svg xmlns="http://www.w3.org/2000/svg">
<metadata>
This is a custom SVG webfont generated by Font Squirrel.
Designer    : Ray Larabie
Foundry     : Ray Larabie
Foundry URL : httpwwwlarabiefontscom
</metadata>
<defs>
<font id="webfont9goc4ihw" horiz-adv-x="362" >
<font-face units-per-em="1000" ascent="800" descent="-200" />
<missing-glyph horiz-adv-x="186" />
<glyph unicode=" "  horiz-adv-x="186" />
<glyph unicode="&#x09;" horiz-adv-x="186" />
<glyph unicode="&#xa0;" horiz-adv-x="186" />
<glyph unicode="!" horiz-adv-x="169" d="M136 783l-38 -545h-29l-38 545h105zM128 52q0 -25 -12 -41.5t-33 -16.5q-20 0 -32 17.5t-12 40.5q0 24 11.5 41.5t32.5 17.5q22 0 33.5 -17t11.5 -42z" />
<glyph unicode="&#x22;" horiz-adv-x="248" d="M220 796l-26 -254h-26l-28 254h80zM106 796l-26 -254h-27l-25 254h78z" />
<glyph unicode="#" horiz-adv-x="405" d="M315 537h73l-14 -71h-73l-32 -148h73l-14 -71h-73l-51 -247h-55l51 247h-63l-51 -247h-54l51 247h-64l15 71h64l31 148h-64l15 71h64l51 246h53l-51 -246h65l51 246h53zM216 318l30 148h-63l-32 -148h65z" />
<glyph unicode="$" horiz-adv-x="377" d="M340 233q0 -66 -41.5 -116.5t-101.5 -57.5v-59h-35v60q-59 8 -99.5 57.5t-40.5 115.5v48l92 -22v-26q0 -56 48 -71v186q-85 46 -112.5 87t-27.5 117q0 68 40 116t100 57v58h35v-57q61 -10 102 -58.5t41 -115.5v-48l-92 22v26q0 57 -51 72v-188q91 -52 117 -90t26 -113z M162 459v164q-48 -15 -48 -71q0 -57 48 -93zM248 233q0 60 -51 93v-164q51 12 51 71z" />
<glyph unicode="%" horiz-adv-x="521" d="M206 715v-272q0 -37 -25.5 -63t-62.5 -26q-35 0 -61 26t-26 63v272q0 35 26 61t61 26q36 0 62 -26t26 -61zM147 443v272q0 12 -8.5 20t-20.5 8q-13 0 -21 -7.5t-8 -20.5v-272q0 -13 8 -21t21 -8q12 0 20.5 8t8.5 21zM418 783h63l-381 -783h-65zM489 343v-272 q0 -37 -25.5 -63t-62.5 -26q-35 0 -61 26t-26 63v272q0 35 26 61t61 26q37 0 62.5 -26t25.5 -61zM430 71v272q0 12 -8.5 20t-20.5 8q-13 0 -21 -7.5t-8 -20.5v-272q0 -13 8 -21t21 -8q12 0 20.5 8t8.5 21z" />
<glyph unicode="&#x26;" horiz-adv-x="394" d="M340 74q18 0 31 15v-99q-11 -4 -34 -4q-50 0 -79 40q-43 -40 -97 -40t-92 42.5t-38 109.5v169q0 58 61 94q-61 30 -61 100v144q0 68 38.5 109.5t98.5 41.5t99 -43t39 -108v-26l-88 -29v55q0 29 -14.5 46.5t-35.5 17.5t-35 -17.5t-14 -46.5v-135q0 -66 90 -66h9v44l77 29 v-73h76v-88h-76v-218q0 -29 13 -46.5t32 -17.5zM218 138v218h-9q-90 0 -90 -75v-143q0 -29 14 -46.5t35 -17.5t35.5 17.5t14.5 46.5z" />
<glyph unicode="'" horiz-adv-x="124" d="M100 796l-25 -254h-27l-26 254h78z" />
<glyph unicode="(" horiz-adv-x="193" d="M166 3v-90q-58 6 -97 50t-39 103v652q0 59 39 103t97 50v-90q-48 -13 -48 -63v-652q0 -50 48 -63z" />
<glyph unicode=")" horiz-adv-x="193" d="M163 718v-652q0 -59 -39.5 -103t-96.5 -50v90q48 13 48 63v652q0 50 -48 63v90q57 -6 96.5 -50t39.5 -103z" />
<glyph unicode="*" horiz-adv-x="366" d="M209 578l138 -80l-33 -47l-116 97l15 -152h-58l13 153l-117 -98l-32 47l137 80l-134 78l34 47l112 -96l-13 146h58l-15 -145l113 95l32 -47z" />
<glyph unicode="+" horiz-adv-x="349" d="M331 326h-112v-144h-84v144h-120v86h120v141h84v-141h112v-86z" />
<glyph unicode="," horiz-adv-x="140" d="M110 25l-67 -196h-25l9 228q1 27 13 41t29 14q18 0 32.5 -15.5t14.5 -40.5q0 -14 -6 -31z" />
<glyph unicode="-" horiz-adv-x="320" d="M285 431v-77h-252v77h252z" />
<glyph unicode="." horiz-adv-x="142" d="M115 52q0 -25 -11.5 -41.5t-32.5 -16.5t-32.5 17.5t-11.5 40.5q0 24 11.5 41.5t32.5 17.5t32.5 -17t11.5 -42z" />
<glyph unicode="/" horiz-adv-x="334" d="M273 826h49l-257 -869h-53z" />
<glyph unicode="0" horiz-adv-x="367" d="M335 643v-505q0 -63 -44 -107.5t-108 -44.5q-62 0 -107 44.5t-45 107.5v505q0 62 45 107t107 45q63 0 107.5 -45t44.5 -107zM247 138v505q0 26 -19 45t-45 19q-27 0 -45.5 -19t-18.5 -45v-505q0 -27 18.5 -45.5t45.5 -18.5q26 0 45 18.5t19 45.5z" />
<glyph unicode="1" horiz-adv-x="199" d="M166 783v-783h-88v655h-61v72q61 0 61 56h88z" />
<glyph unicode="2" horiz-adv-x="360" d="M334 88v-88h-304v154q0 68 41 142q13 25 72.5 120t73.5 121q29 57 29 107q0 26 -19 45t-45 19q-27 0 -45.5 -19t-18.5 -45v-24l-88 -19v43q0 65 40.5 108.5t111.5 43.5q68 0 110 -44t42 -108q0 -27 -1 -40.5t-10.5 -42t-28.5 -63.5q-14 -27 -36 -64l-52 -84l-45 -74 q-43 -71 -43 -122v-66h216z" />
<glyph unicode="3" horiz-adv-x="361" d="M331 274v-136q0 -67 -44 -109.5t-108 -42.5t-108 44.5t-44 107.5v39l88 -29v-10q0 -27 18 -45.5t46 -18.5q26 0 45 18.5t19 45.5v130q0 48 -22.5 69.5t-77.5 21.5v70q55 0 74 19t19 70v126q0 27 -15.5 45.5t-41.5 18.5q-27 0 -45.5 -18.5t-18.5 -45.5v-26h-88v26 q0 71 43 111.5t109 40.5q62 0 104 -44t42 -108v-132q0 -46 -22.5 -74.5t-56.5 -39.5q35 -9 60 -41.5t25 -82.5z" />
<glyph unicode="4" horiz-adv-x="367" d="M343 361v-89h-47v-272h-88v272h-195l49 352h82l-35 -263h99v422h88v-422h47z" />
<glyph unicode="5" d="M332 459v-321q0 -63 -45 -107.5t-107 -44.5q-64 0 -108 44.5t-44 107.5v39l88 -29v-10q0 -27 18.5 -45.5t45.5 -18.5q26 0 45 18.5t19 45.5v321q0 26 -22.5 46t-48.5 20q-55 0 -65 -56l-79 22l22 292h281v-88h-207l-9 -114q28 30 79 30q65 0 101 -43t36 -109z" />
<glyph unicode="6" horiz-adv-x="365" d="M335 391v-253q0 -63 -44 -107.5t-108 -44.5q-62 0 -107 44.5t-45 107.5v506q0 66 40 109t112 43q71 0 111.5 -43t40.5 -109v-26h-88v26q0 26 -19 45t-45 19q-27 0 -45.5 -19t-18.5 -45v-128q29 29 79 29q64 0 100.5 -44.5t36.5 -109.5zM247 138v253q0 27 -19 46.5 t-45 19.5q-29 0 -46.5 -21t-17.5 -51v-247q0 -27 18.5 -45.5t45.5 -18.5q26 0 45 18.5t19 45.5z" />
<glyph unicode="7" horiz-adv-x="323" d="M305 783v-65l-161 -718h-96l174 695h-200v88h283z" />
<glyph unicode="8" horiz-adv-x="364" d="M334 300v-162q0 -63 -45 -107.5t-107 -44.5q-64 0 -108 44.5t-44 107.5v162q0 39 18.5 69.5t43.5 40.5q-24 9 -40 38t-16 67v129q0 70 40.5 111t105.5 41q64 0 105 -41t41 -111v-129q0 -38 -15.5 -66t-41.5 -39q28 -12 45.5 -41t17.5 -69zM239 509v135q0 26 -17 45 t-40 19q-26 0 -41.5 -18.5t-15.5 -45.5v-135q0 -30 15.5 -47t42.5 -17q25 0 40.5 17t15.5 47zM246 138v168q0 28 -19 45.5t-46 17.5t-45 -17t-18 -46v-168q0 -27 18.5 -45.5t45.5 -18.5q26 0 45 18.5t19 45.5z" />
<glyph unicode="9" horiz-adv-x="366" d="M334 644v-506q0 -69 -42.5 -110.5t-109.5 -41.5q-68 0 -110 41t-42 111v26h88v-26q0 -27 18.5 -45.5t45.5 -18.5q26 0 45 18.5t19 45.5v149q-32 -24 -81 -24q-54 0 -94.5 41t-40.5 111v229q0 63 44 107.5t108 44.5q62 0 107 -44.5t45 -107.5zM246 420v224q0 26 -19 45 t-45 19q-27 0 -45.5 -19t-18.5 -45v-229q0 -27 18.5 -45.5t45.5 -18.5q29 0 46.5 19.5t17.5 49.5z" />
<glyph unicode=":" horiz-adv-x="148" d="M118 52q0 -25 -11.5 -41.5t-32.5 -16.5t-32.5 17.5t-11.5 40.5q0 24 11.5 41.5t32.5 17.5t32.5 -17t11.5 -42zM118 347q0 -25 -11.5 -41.5t-32.5 -16.5t-32.5 17.5t-11.5 40.5q0 24 11.5 41.5t32.5 17.5t32.5 -17t11.5 -42z" />
<glyph unicode=";" horiz-adv-x="141" d="M118 347q-1 -25 -12 -41.5t-32 -16.5t-32.5 17.5t-11.5 40.5q0 24 11.5 41.5t32.5 17.5t32.5 -17t11.5 -42zM110 25l-67 -196h-25l9 228q1 27 13 41t29 14q18 0 32.5 -15.5t14.5 -40.5q0 -14 -6 -31z" />
<glyph unicode="&#x3c;" horiz-adv-x="250" d="M224 227v-101l-213 193v61l213 191v-103l-153 -118z" />
<glyph unicode="=" horiz-adv-x="250" d="M34 224v74h197v-74h-197zM34 408v76h197v-76h-197z" />
<glyph unicode="&#x3e;" horiz-adv-x="257" d="M34 126v101l152 123l-152 118v103l212 -191v-61z" />
<glyph unicode="?" horiz-adv-x="340" d="M325 644q0 -40 -16 -81.5t-36.5 -70.5t-45 -69.5t-35.5 -73.5q-13 -38 -25 -120h-51q-6 42 -6 70q0 70 38 156q10 21 34 56.5t39.5 66.5t15.5 62q0 68 -66 68q-27 0 -46 -19t-19 -45v-24l-88 -19v43q0 66 42.5 109t109.5 43q70 0 112.5 -40t42.5 -112zM197 52 q0 -25 -11.5 -41.5t-32.5 -16.5q-20 0 -32 17.5t-12 40.5q0 24 11.5 41.5t32.5 17.5t32.5 -17t11.5 -42z" />
<glyph unicode="@" horiz-adv-x="674" d="M448 503v-371q6 -27 39 -27q94 0 94 246q0 130 -57.5 206.5t-158.5 76.5q-127 0 -198.5 -100.5t-71.5 -264.5q0 -135 47.5 -234.5t100.5 -123.5l-35 -69q-71 26 -127 138t-56 289q0 196 86.5 317t253.5 121q283 0 283 -356q0 -151 -41 -233t-112 -82q-62 0 -98 41 q-29 -32 -72 -32q-46 0 -76 38t-30 92v176q0 55 27.5 93t73.5 38q22 0 38.5 -9t22.5 -20v25zM381 175v176q0 23 -14.5 39.5t-34.5 16.5t-34 -16.5t-14 -39.5v-176q0 -23 14 -39t34 -16t34.5 16t14.5 39z" />
<glyph unicode="A" horiz-adv-x="361" d="M222 783l118 -783h-89l-13 97h-111l-12 -97h-94l120 783h81zM137 179h91l-45 343z" />
<glyph unicode="B" horiz-adv-x="366" d="M337 286v-129q0 -71 -39 -114t-108 -43h-157v783h140q75 0 114 -42.5t39 -114.5v-109q0 -93 -64 -115q75 -23 75 -116zM166 695h-45v-252h45q75 0 75 85v83q0 42 -16.5 63t-58.5 21zM249 172v103q0 45 -18 65.5t-58 20.5h-52v-273h52q76 0 76 84z" />
<glyph unicode="C" d="M335 177v-39q0 -71 -43 -111.5t-109 -40.5q-65 0 -108.5 41t-43.5 111v506q0 74 43 113t109 39q65 0 108.5 -42t43.5 -110v-26h-88v26q0 31 -18 47.5t-46 16.5q-29 0 -46.5 -16t-17.5 -48v-506q0 -27 18.5 -45.5t45.5 -18.5q26 0 45 18.5t19 45.5v10z" />
<glyph unicode="D" horiz-adv-x="370" d="M337 630v-477q0 -66 -41.5 -109.5t-110.5 -43.5h-152v783h152q69 0 110.5 -43t41.5 -110zM249 153v477q0 30 -18 47.5t-46 17.5h-64v-607h64q27 0 45.5 19t18.5 46z" />
<glyph unicode="E" horiz-adv-x="315" d="M292 88v-88h-259v783h259v-88h-171v-248h99v-88h-99v-271h171z" />
<glyph unicode="F" horiz-adv-x="315" d="M303 783v-88h-182v-274h115v-88h-115v-333h-88v783h270z" />
<glyph unicode="G" horiz-adv-x="374" d="M343 432v-432h-59l-9 33q-32 -47 -99 -47q-59 0 -102 39.5t-43 112.5v506q0 70 43.5 111t108.5 41t108.5 -42t43.5 -110v-26h-88v26q0 32 -18 48t-46 16t-46 -16.5t-18 -47.5v-506q0 -27 20.5 -45.5t47.5 -18.5t47.5 18.5t20.5 45.5v213h-73v81h161z" />
<glyph unicode="H" horiz-adv-x="372" d="M337 783v-783h-88v353h-128v-353h-88v783h88v-342h128v342h88z" />
<glyph unicode="I" horiz-adv-x="156" d="M121 783v-783h-88v783h88z" />
<glyph unicode="J" horiz-adv-x="350" d="M317 783v-637q0 -83 -42 -121.5t-110 -38.5t-110.5 44t-42.5 108v39l88 -29v-10q0 -29 16.5 -46.5t48.5 -17.5q64 0 64 73v636h88z" />
<glyph unicode="K" horiz-adv-x="392" d="M189 468l184 -468h-104l-148 398v-398h-88v783h88v-266l147 266h105z" />
<glyph unicode="L" horiz-adv-x="284" d="M272 88v-88h-239v783h88v-695h151z" />
<glyph unicode="M" horiz-adv-x="509" d="M476 783v-783h-81v441l-103 -441h-75l-102 441v-441h-82v783h107l119 -579l129 579h88z" />
<glyph unicode="N" horiz-adv-x="372" d="M337 783v-783h-78l-143 477v-477h-83v783h88l134 -483v483h82z" />
<glyph unicode="O" horiz-adv-x="367" d="M335 644v-506q0 -67 -43.5 -109.5t-108.5 -42.5q-64 0 -108 42.5t-44 109.5v506q0 69 44 110.5t108 41.5q66 0 109 -41t43 -111zM247 138v506q0 29 -18.5 46.5t-45.5 17.5q-28 0 -46 -17.5t-18 -46.5v-506q0 -30 18 -47t46 -17q27 0 45.5 17t18.5 47z" />
<glyph unicode="P" horiz-adv-x="353" d="M337 626v-143q0 -69 -37.5 -114t-109.5 -45h-69v-324h-88v783h157q71 0 109 -42t38 -115zM249 498v113q0 46 -17.5 65t-58.5 19h-52v-282h52q38 0 57 19.5t19 65.5z" />
<glyph unicode="Q" horiz-adv-x="390" d="M305 50l59 -60l-59 -58l-64 66q-29 -12 -60 -12q-65 0 -108.5 41t-43.5 111v506q0 63 45 107.5t107 44.5q64 0 108 -44.5t44 -107.5v-506q0 -50 -28 -88zM245 135v509q0 31 -18 47.5t-46 16.5t-46 -16.5t-18 -47.5v-509q0 -29 18 -46t46 -17q27 0 45.5 16.5t18.5 46.5z " />
<glyph unicode="R" horiz-adv-x="369" d="M337 287v-287h-88v276q0 52 -16.5 69t-59.5 17h-52v-362h-88v783h152q72 0 109.5 -40t37.5 -117v-108q0 -83 -70 -106q75 -24 75 -125zM244 528v83q0 45 -15.5 64.5t-61.5 19.5h-46v-252h46q40 0 58.5 19.5t18.5 65.5z" />
<glyph unicode="S" horiz-adv-x="365" d="M179 796q68 0 110 -39.5t42 -112.5v-43l-88 19v24q0 26 -19 45t-45 19q-65 0 -65 -88q0 -15 5.5 -33t12 -32t20.5 -35.5t22 -31.5l24 -33l23 -29q36 -48 57 -80t40.5 -81t19.5 -95q0 -79 -39 -131.5t-121 -52.5q-68 0 -109.5 43.5t-41.5 108.5v42l88 -19v-23 q0 -27 20 -46t47 -19q34 0 51.5 20.5t17.5 54.5q0 52 -14 86q-11 29 -30 60.5t-35 52.5l-42 56l-38 51q-34 47 -49.5 86.5t-15.5 95.5q0 73 40 116.5t112 43.5z" />
<glyph unicode="T" horiz-adv-x="288" d="M278 783v-88h-91v-695h-88v695h-89v88h268z" />
<glyph unicode="U" horiz-adv-x="370" d="M336 783v-645q0 -68 -43.5 -110t-108.5 -42q-64 0 -108 42t-44 110v645h88v-645q0 -32 17.5 -48t46.5 -16q28 0 46 16t18 48v645h88z" />
<glyph unicode="V" horiz-adv-x="325" d="M225 783h90l-113 -783h-82l-110 783h101l57 -524z" />
<glyph unicode="W" horiz-adv-x="514" d="M414 783h90l-103 -783h-81l-64 488l-64 -488h-82l-100 783h101l47 -490l67 490h76l66 -490z" />
<glyph unicode="X" horiz-adv-x="399" d="M29 0l119 395l-115 388h100l71 -265l65 265h96l-115 -382l120 -401h-101l-73 283l-71 -283h-96z" />
<glyph unicode="Y" horiz-adv-x="370" d="M256 783h95l-126 -413v-370h-89v366l-126 417h100l73 -281z" />
<glyph unicode="Z" horiz-adv-x="361" d="M332 95v-95h-304v69l203 619h-199v95h300v-69l-200 -619h200z" />
<glyph unicode="[" horiz-adv-x="246" d="M90 -75v937h143v-60h-80v-815h80v-62h-143z" />
<glyph unicode="\" horiz-adv-x="334" d="M12 826h49l261 -869h-53z" />
<glyph unicode="]" horiz-adv-x="246" d="M163 862v-937h-143v62h80v815h-80v60h143z" />
<glyph unicode="^" horiz-adv-x="332" d="M304 630v-99l-138 138l-139 -138v99l139 138z" />
<glyph unicode="_" horiz-adv-x="425" d="M420 -14v-60h-410v60h410z" />
<glyph unicode="`" horiz-adv-x="294" d="M181 657l-122 158h83l93 -158h-54z" />
<glyph unicode="a" d="M330 471v-471h-58l-20 35q-28 -49 -95 -49q-55 0 -94 40t-39 120q0 62 26.5 112.5t58 76.5t74.5 57.5t59 48.5v30q0 65 -52 65q-51 0 -65 -41l-74 48q23 37 54 56.5t86 19.5q63 0 101 -39.5t38 -108.5zM244 154v173l-32 -21q-10 -7 -33 -26t-35.5 -35t-23 -40.5 t-10.5 -50.5q0 -80 66 -80q33 0 50.5 23t17.5 57z" />
<glyph unicode="b" horiz-adv-x="373" d="M343 471v-323q0 -66 -39.5 -114t-104.5 -48q-53 0 -91 43l-20 -29h-58v786l88 29v-224q25 28 81 28q64 0 104 -39.5t40 -108.5zM186 536q-29 0 -48.5 -17t-19.5 -48v-323q0 -36 19 -55t48 -19q70 0 70 74v323q0 31 -20 48t-49 17z" />
<glyph unicode="c" horiz-adv-x="361" d="M182 536q-28 0 -46 -17t-18 -48v-333q0 -30 18 -47t46 -17t46 17t18 47v10l88 29v-39q0 -74 -43 -113t-109 -39q-67 0 -109.5 40.5t-42.5 111.5v333q0 77 41 112.5t111 35.5q68 0 110 -36t42 -112v-26h-88v26q0 31 -18 48t-46 17z" />
<glyph unicode="d" horiz-adv-x="360" d="M326 815v-815h-59l-20 29q-6 -16 -31.5 -29.5t-63.5 -13.5q-61 0 -96 43t-35 116v326q0 68 35 108t99 40t82 -29v196zM237 138v333q0 31 -18 48t-45 17q-29 0 -47 -16.5t-18 -48.5v-333q0 -31 18 -47.5t47 -16.5q27 0 45 17t18 47z" />
<glyph unicode="e" d="M328 177v-39q0 -70 -42 -111t-107 -41t-107 41t-42 111v333q0 70 42.5 109t109.5 39q65 0 108.5 -42.5t43.5 -117.5q0 -61 -11 -103t-41 -75.5t-65 -56.5t-99 -56v-30q0 -30 16.5 -47t44.5 -17q27 0 43.5 17t16.5 47v10zM246 454q0 82 -64 82q-28 0 -46 -17t-18 -48v-206 q77 36 102.5 76t25.5 113z" />
<glyph unicode="f" horiz-adv-x="294" d="M214 815q36 0 70 -14l-35 -85q-14 11 -35 11q-28 0 -46.5 -17t-18.5 -47v-52h65v-78h-65v-533h-88v533h-39v78h39v52q0 70 44 111t109 41z" />
<glyph unicode="g" horiz-adv-x="424" d="M404 604l-43 -67v-240q0 -131 -142 -144q-55 -5 -55 -43q0 -11 7 -21.5t21 -12.5h191l-49 -88h-179q-53 0 -53 -36t47 -36h161l-48 -87h-115q-62 0 -96.5 33t-34.5 89q0 44 27 75.5t74 43.5q-30 10 -30 44q0 16 12.5 29.5t36.5 19.5q-80 41 -80 134v174q0 69 39.5 108.5 t107.5 39.5q64 0 92 -15h109zM274 295v178q0 32 -19 48.5t-47 16.5q-29 0 -47.5 -16.5t-18.5 -48.5v-178q0 -30 19 -47t47 -17t47 17t19 47z" />
<glyph unicode="h" horiz-adv-x="372" d="M343 471v-471h-88v471q0 32 -20 48.5t-49 16.5t-48.5 -16t-19.5 -49v-471h-88v786l88 29v-219q23 23 82 23q60 0 101.5 -39.5t41.5 -108.5z" />
<glyph unicode="i" horiz-adv-x="150" d="M121 761q-1 -24 -13.5 -39.5t-31.5 -15.5q-20 0 -33 16t-13 39q0 22 13 38t33 16q19 0 32 -16t13 -38zM118 611v-611h-88v611h88z" />
<glyph unicode="j" horiz-adv-x="175" d="M141 611v-640q0 -65 -42 -109t-110 -44q-35 0 -61 12l23 89q16 -13 38 -13q28 0 46 17t18 48v640h88zM145 761q0 -23 -13 -39t-33 -16q-19 0 -32.5 16t-13.5 39q0 21 13.5 37.5t32.5 16.5q20 0 33 -16t13 -38z" />
<glyph unicode="k" horiz-adv-x="364" d="M187 383l164 -383h-102l-128 326v-326h-88v786l88 29v-385l115 181h97z" />
<glyph unicode="l" horiz-adv-x="156" d="M121 815v-815h-88v786z" />
<glyph unicode="m" horiz-adv-x="561" d="M528 473v-473h-88v471q0 65 -58 65q-57 0 -57 -65v-471h-89v471q0 31 -15 48t-42 17q-58 0 -58 -65v-471h-88v611h58l20 -29q26 37 78 37q74 0 93 -60q14 31 40 45.5t76 14.5q55 0 92.5 -40.5t37.5 -105.5z" />
<glyph unicode="n" horiz-adv-x="380" d="M347 474v-474h-88v471q0 31 -20 48t-49 17q-28 0 -48.5 -17t-20.5 -48v-471h-88v611h58l20 -29q34 37 96 37t101 -40t39 -105z" />
<glyph unicode="o" horiz-adv-x="365" d="M334 471v-333q0 -69 -44 -110.5t-108 -41.5q-66 0 -109 41.5t-43 110.5v333q0 68 43 108t109 40q64 0 108 -40.5t44 -107.5zM246 138v333q0 31 -18 48t-46 17t-46 -17t-18 -48v-333q0 -30 18 -47t46 -17q27 0 45.5 17t18.5 47z" />
<glyph unicode="p" horiz-adv-x="360" d="M337 472v-334q0 -75 -38.5 -113.5t-93.5 -38.5q-53 0 -84 34v-191h-88v782h58l20 -29q35 37 90 37q65 0 100.5 -39.5t35.5 -107.5zM249 138v333q0 29 -18 47t-46 18t-46 -18t-18 -47v-333q0 -30 18 -47t46 -17t46 17t18 47z" />
<glyph unicode="q" horiz-adv-x="360" d="M326 611v-782h-89v191q-6 -12 -30.5 -23t-45.5 -11q-70 0 -105 41.5t-35 110.5v333q0 68 42.5 108t101.5 40q55 0 82 -37l20 29h59zM237 138v333q0 31 -18 48t-45 17q-29 0 -47 -17t-18 -48v-333q0 -29 18.5 -46.5t46.5 -17.5q26 0 44.5 17.5t18.5 46.5z" />
<glyph unicode="r" horiz-adv-x="241" d="M185 619q35 0 52 -17l-30 -79q-7 8 -27 8q-24 0 -41.5 -20t-17.5 -49v-462h-88v611h58l20 -39q25 47 74 47z" />
<glyph unicode="s" horiz-adv-x="363" d="M338 154q0 -71 -40.5 -119.5t-117.5 -48.5q-68 0 -110.5 42.5t-42.5 109.5v42l88 -19v-23q0 -29 18 -46.5t47 -17.5q68 0 68 64q0 41 -23 71q-20 22 -69 62t-72 67q-49 59 -49 132q0 66 42 107.5t108 41.5q68 0 105.5 -40.5t37.5 -107.5v-42l-86 20v22q0 30 -16.5 47.5 t-43.5 17.5q-28 0 -43.5 -18t-15.5 -49q0 -32 22.5 -63t52 -53t64.5 -54.5t53 -61.5q23 -39 23 -83z" />
<glyph unicode="t" horiz-adv-x="326" d="M209 74q28 0 40 20l61 -66q-37 -42 -97 -42q-137 0 -137 151v396h-56v78h56v111l88 30v-141h116v-78h-116v-396q0 -63 45 -63z" />
<glyph unicode="u" horiz-adv-x="366" d="M332 611v-611h-58l-20 29q-30 -43 -93 -43q-60 0 -94.5 42.5t-34.5 119.5v463h88v-473q0 -30 17 -47t45 -17t45 16t17 48v473h88z" />
<glyph unicode="v" horiz-adv-x="325" d="M224 611h91l-113 -611h-82l-110 611h100l57 -384z" />
<glyph unicode="w" horiz-adv-x="514" d="M411 611h93l-108 -611h-81l-59 364l-60 -364h-81l-105 611h98l47 -386l67 386h75l67 -386z" />
<glyph unicode="x" horiz-adv-x="398" d="M245 313l125 -313h-102l-73 214l-71 -214h-95l124 319l-114 292h100l63 -190l62 190h94z" />
<glyph unicode="y" horiz-adv-x="361" d="M327 611v-782h-89v190q-20 -33 -80 -33q-57 0 -96.5 36t-39.5 112v477h88v-473q0 -31 18 -47.5t47 -16.5q27 0 45 16.5t18 47.5v473h89z" />
<glyph unicode="z" horiz-adv-x="347" d="M315 94v-94h-283v69l187 448h-184v94h280v-69l-183 -448h183z" />
<glyph unicode="{" horiz-adv-x="263" d="M233 802h-27q-77 0 -77 -113v-147q0 -72 -12.5 -104t-53.5 -40v-1q41 -9 53.5 -42.5t12.5 -99.5v-114q0 -88 17.5 -121t64.5 -33h22v-62h-21q-130 0 -130 180v147q0 70 -10.5 93t-43.5 23v61q35 0 44.5 25.5t9.5 91.5v158q0 81 38 119.5t90 38.5h23v-60z" />
<glyph unicode="|" horiz-adv-x="175" d="M56 -83v924h63v-924h-63z" />
<glyph unicode="}" horiz-adv-x="264" d="M47 802h-27v60h23q53 0 91 -38.5t38 -119.5v-158q0 -45 2.5 -66.5t14.5 -36t37 -14.5v-61q-33 0 -43.5 -23t-10.5 -93v-147q0 -180 -131 -180h-21v62h22q47 0 65 33.5t18 120.5v114q0 66 12.5 99.5t52.5 42.5v1q-41 8 -53 40t-12 104v147q0 113 -78 113z" />
<glyph unicode="~" horiz-adv-x="344" d="M23 268v112q27 64 74 64q34 0 78.5 -30.5t65.5 -30.5q26 0 44 23.5t36 68.5v-112q-17 -36 -37 -50.5t-49 -14.5q-20 0 -67 30t-68 30q-39 0 -77 -90z" />
<glyph unicode="&#xa1;" horiz-adv-x="169" d="M11 0l38 545h29l38 -545h-105zM19 731q0 25 12 41.5t33 16.5q20 0 32 -17.5t12 -40.5q0 -24 -11.5 -41.5t-32.5 -17.5q-22 0 -33.5 17t-11.5 42z" />
<glyph unicode="&#xa2;" horiz-adv-x="340" d="M193 126v-123h-34v122q-58 4 -99 48.5t-41 103.5v194q0 67 39.5 107.5t100.5 44.5v159h34v-161q56 -6 93.5 -47t37.5 -103v-26h-89v26q0 21 -11.5 37.5t-30.5 22.5v-314q19 6 30.5 22.5t11.5 37.5v10l89 30v-40q0 -56 -38 -99.5t-93 -51.5zM107 471v-194 q0 -23 14.5 -40.5t37.5 -21.5v320q-23 -5 -37.5 -23t-14.5 -41z" />
<glyph unicode="&#xa3;" horiz-adv-x="391" d="M278 431v-77h-128v-266h209v-88h-297v354h-36v77h36v213q0 63 45 107.5t108 44.5t107.5 -44.5t44.5 -107.5v-26h-88v26q0 26 -19 45t-45 19q-27 0 -46 -19t-19 -45v-213h128z" />
<glyph unicode="&#xa5;" horiz-adv-x="313" d="M268 355v-77h-69v-278h-94v278h-74v77h71l-85 428h107l37 -314l37 314h95l-88 -428h63z" />
<glyph unicode="&#xa6;" horiz-adv-x="175" d="M56 -83v392h63v-392h-63zM119 841v-372h-63v372h63z" />
<glyph unicode="&#xa7;" horiz-adv-x="313" d="M150 797q62 0 90 -34t28 -105v-50h-82v41q0 41 -9 55t-27 14q-19 0 -27 -13.5t-8 -55.5q0 -29 9 -49.5t23.5 -31.5t32.5 -20.5t35.5 -21t32 -28t23.5 -46t9 -70.5q0 -96 -46 -130q46 -48 46 -131q0 -152 -126 -152q-125 0 -125 141v48h85v-39q0 -42 10 -56t30 -14 q21 0 30.5 14t9.5 56q0 48 -17.5 70t-55.5 42q-87 36 -87 155q0 98 48 132q-48 43 -48 130q0 149 116 149zM157 463q-20 0 -29 -14t-9 -57v-18q0 -40 10 -54.5t29 -14.5t27.5 14t8.5 55v18q0 43 -8.5 57t-28.5 14z" />
<glyph unicode="&#xa8;" horiz-adv-x="356" d="M150 761q-1 -24 -13 -39.5t-32 -15.5q-19 0 -32.5 16t-13.5 39q0 21 13.5 37.5t32.5 16.5q20 0 32.5 -16t12.5 -38zM297 761q-1 -24 -13 -39.5t-32 -15.5q-19 0 -32.5 16t-13.5 39q0 21 13.5 37.5t32.5 16.5q20 0 32.5 -16t12.5 -38z" />
<glyph unicode="&#xa9;" horiz-adv-x="792" d="M26 392q0 167 108.5 285.5t261.5 118.5t262 -118.5t109 -285.5t-109 -286t-262 -119t-261.5 119t-108.5 286zM88 390q0 -140 90.5 -238.5t219.5 -98.5q128 0 219 98.5t91 238.5t-91 240.5t-219 100.5q-129 0 -219.5 -100t-90.5 -241zM487 487l-45 -31q-23 34 -54 34 q-30 0 -47.5 -27.5t-17.5 -75.5q0 -45 18.5 -72.5t47.5 -27.5t53 29l42 -32q-31 -58 -96 -58q-51 0 -84.5 46t-33.5 115q0 71 32 117.5t86 46.5q67 0 99 -64z" />
<glyph unicode="&#xaa;" horiz-adv-x="225" d="M202 675v-283h-35l-12 22q-14 -27 -56 -27q-31 0 -56 24t-25 62q0 40 16 71.5t35 47.5t44.5 35t35.5 30v18q0 16 -8 27t-23 11q-31 0 -38 -26l-45 30q9 20 31.5 34.5t51.5 14.5q37 0 60.5 -26.5t23.5 -64.5zM149 484v104q-21 -14 -33.5 -23.5t-28.5 -34t-16 -51.5 q0 -16 11.5 -27.5t27.5 -11.5t27.5 14t11.5 30z" />
<glyph unicode="&#xab;" horiz-adv-x="359" d="M155 478l-72 -61l72 -62v-94l-121 122v65l121 127v-97zM325 478l-72 -61l72 -62v-94l-121 122v65l121 127v-97z" />
<glyph unicode="&#xad;" horiz-adv-x="320" d="M285 431v-77h-252v77h252z" />
<glyph unicode="&#xae;" horiz-adv-x="723" d="M356 748q-124 0 -201 -80.5t-77 -185.5q0 -106 76.5 -186t201.5 -80q124 0 211 77t87 189q0 102 -87 184t-211 82zM359 170q-143 0 -237.5 93t-94.5 219q0 130 94 222t238 92t240.5 -90t96.5 -224q0 -125 -99 -218.5t-238 -93.5zM377 578h-55v-77h55q36 0 36 37 q0 40 -36 40zM414 307l-58 124h-34v-124h-68v340h122q48 0 76.5 -28.5t28.5 -80.5q0 -34 -13 -55t-43 -41l61 -135h-72z" />
<glyph unicode="&#xaf;" horiz-adv-x="427" d="M371 767v-67h-312v67h312z" />
<glyph unicode="&#xb0;" horiz-adv-x="307" d="M153 762q-38 0 -56.5 -25t-18.5 -66q0 -92 75 -92q77 0 77 92q0 41 -19 66t-58 25zM153 805q126 0 126 -134q0 -137 -126 -137q-125 0 -125 137q0 65 28.5 99.5t96.5 34.5z" />
<glyph unicode="&#xb1;" horiz-adv-x="433" d="M362 326h-102v-122h-83v122h-110v86h110v120h83v-120h102v-86zM412 73v-73h-390v73h390z" />
<glyph unicode="&#xb2;" horiz-adv-x="237" d="M206 422v-60h-175v88q0 41 22 81l41 71l32 50q9 16 15.5 32.5t6.5 30.5q0 12 -8.5 20t-20.5 8q-29 0 -29 -28v-18l-59 -11v29q0 38 23.5 63t64.5 25q39 0 63 -25t24 -63q0 -39 -23 -81q-6 -12 -33.5 -57.5t-43.5 -78t-16 -48.5v-28h116z" />
<glyph unicode="&#xb3;" horiz-adv-x="237" d="M204 516v-73q0 -39 -25.5 -64t-61.5 -25q-37 0 -62.5 26t-25.5 63v29l59 -20v-9q0 -13 8 -21t21 -8q12 0 20.5 8t8.5 21v69q0 23 -12 33t-42 10v50q30 0 40 9t10 33v68q0 28 -25 28q-29 0 -29 -28v-20h-59v20q0 41 25 64.5t63 23.5q36 0 60 -25.5t24 -62.5v-72 q0 -42 -31 -60q34 -20 34 -67z" />
<glyph unicode="&#xb4;" horiz-adv-x="294" d="M235 815l-121 -158h-55l93 158h83z" />
<glyph unicode="&#xb5;" horiz-adv-x="369" d="M126 16v-185h-92v780h91v-490q0 -47 41 -47q38 0 38 48v489h93v-526q0 -24 32 -24v-61h-39q-39 0 -48 42q-18 -46 -62 -46q-35 0 -54 20z" />
<glyph unicode="&#xb6;" horiz-adv-x="469" d="M442 783l-48 -92v-811h-84v817h-91v-817h-85v679q-50 3 -80.5 35.5t-30.5 73.5q0 52 37.5 83.5t113.5 31.5h268z" />
<glyph unicode="&#xb7;" horiz-adv-x="142" d="M114 374q0 -25 -11.5 -41.5t-32.5 -16.5t-32.5 17.5t-11.5 40.5q0 24 11.5 41.5t32.5 17.5t32.5 -17t11.5 -42z" />
<glyph unicode="&#xb8;" horiz-adv-x="192" d="M124 -101l-28 -70h-37l5 105q1 22 10 32.5t22 10.5q37 0 37 -35q0 -22 -9 -43z" />
<glyph unicode="&#xb9;" horiz-adv-x="148" d="M115 795v-433h-59v353h-33v51q33 0 33 29h59z" />
<glyph unicode="&#xba;" horiz-adv-x="227" d="M205 675v-200q0 -38 -27 -64.5t-64 -26.5q-39 0 -65.5 26.5t-26.5 64.5v200q0 38 26.5 64.5t65.5 26.5q37 0 64 -27t27 -64zM152 475v200q0 16 -11.5 27t-26.5 11q-17 0 -28 -11t-11 -27v-200q0 -17 11 -27.5t28 -10.5q15 0 26.5 11t11.5 27z" />
<glyph unicode="&#xbb;" horiz-adv-x="359" d="M106 417l-72 61v97l121 -127v-65l-121 -122v94zM276 417l-72 61v97l121 -127v-65l-121 -122v94z" />
<glyph unicode="&#xbc;" horiz-adv-x="512" d="M164 795v-433h-59v353h-33v51q33 0 33 29h59zM414 783h63l-381 -783h-65zM480 196v-59h-25v-147h-59v147h-106l27 201h56l-19 -142h42v227h59v-227h25z" />
<glyph unicode="&#xbd;" horiz-adv-x="534" d="M165 795v-433h-59v353h-33v51q33 0 33 29h59zM414 783h63l-381 -783h-65zM503 50v-60h-175v88q0 41 22 81l42 71l30 50q10 16 16.5 32.5t6.5 30.5q0 12 -8.5 20t-20.5 8q-29 0 -29 -28v-18l-59 -11v29q0 38 23.5 63t64.5 25q39 0 63 -25t24 -63q0 -39 -23 -81 q-6 -12 -33.5 -57.5t-43.5 -78t-16 -48.5v-28h116z" />
<glyph unicode="&#xbe;" horiz-adv-x="513" d="M206 516v-73q0 -39 -25.5 -64t-61.5 -25q-37 0 -62.5 26t-25.5 63v29l59 -20v-9q0 -13 8 -21t21 -8q12 0 20.5 8t8.5 21v69q0 23 -12 33t-42 10v50q30 0 40 9t10 33v68q0 28 -25 28q-29 0 -29 -28v-20h-59v20q0 41 25 64.5t63 23.5q36 0 60 -25.5t24 -62.5v-72 q0 -42 -31 -60q34 -20 34 -67zM419 783h63l-381 -783h-65zM478 196v-59h-25v-147h-59v147h-106l27 201h56l-19 -142h42v227h59v-227h25z" />
<glyph unicode="&#xbf;" horiz-adv-x="340" d="M-3 143q0 40 16 81.5t36.5 70.5t45 69.5t35.5 73.5q13 38 25 120h51q6 -42 6 -70q0 -70 -38 -156q-10 -21 -34 -56.5t-39.5 -66.5t-15.5 -62q0 -68 66 -68q27 0 46 19t19 45v24l88 19v-43q0 -66 -42.5 -109t-109.5 -43q-70 0 -112.5 40t-42.5 112zM125 735 q0 25 11.5 41.5t32.5 16.5q20 0 32 -17.5t12 -40.5q0 -24 -11.5 -41.5t-32.5 -17.5t-32.5 17t-11.5 42z" />
<glyph unicode="&#xc0;" horiz-adv-x="361" d="M222 783l118 -783h-89l-13 97h-111l-12 -97h-94l120 783h81zM137 179h91l-45 343zM185 829l-122 158h83l93 -158h-54z" />
<glyph unicode="&#xc1;" horiz-adv-x="361" d="M222 783l118 -783h-89l-13 97h-111l-12 -97h-94l120 783h81zM137 179h91l-45 343zM298 987l-121 -158h-55l93 158h83z" />
<glyph unicode="&#xc2;" horiz-adv-x="361" d="M222 783l118 -783h-89l-13 97h-111l-12 -97h-94l120 783h81zM137 179h91l-45 343zM247 829l-66 107l-66 -107h-83l109 158h79l111 -158h-84z" />
<glyph unicode="&#xc3;" horiz-adv-x="361" d="M222 783l118 -783h-89l-13 97h-111l-12 -97h-94l120 783h81zM137 179h91l-45 343zM296 966l43 -34q-10 -31 -37 -49.5t-56 -18.5q-31 0 -66 17t-52 17q-41 0 -68 -41l-39 37q36 66 97 66q32 0 65.5 -16t57.5 -16q37 0 55 38z" />
<glyph unicode="&#xc4;" horiz-adv-x="361" d="M222 783l118 -783h-89l-13 97h-111l-12 -97h-94l120 783h81zM137 179h91l-45 343zM152 933q-1 -24 -13 -39.5t-32 -15.5q-19 0 -32.5 16t-13.5 39q0 21 13.5 37.5t32.5 16.5q20 0 32.5 -16t12.5 -38zM299 933q-1 -24 -13 -39.5t-32 -15.5q-19 0 -32.5 16t-13.5 39 q0 21 13.5 37.5t32.5 16.5q20 0 32.5 -16t12.5 -38z" />
<glyph unicode="&#xc5;" horiz-adv-x="361" d="M222 783l118 -783h-89l-13 97h-111l-12 -97h-94l120 783h81zM137 179h91l-45 343zM180 829q-32 0 -54 23t-22 57t21.5 56t54.5 22t55 -22t22 -56t-22 -57t-55 -23zM180 865q18 0 30 12.5t12 31.5q0 18 -12 30t-30 12q-17 0 -29 -12t-12 -30q0 -19 12 -31.5t29 -12.5z" />
<glyph unicode="&#xc6;" horiz-adv-x="463" d="M434 89v-89h-203v97h-101l-11 -97h-96l113 783h298v-88h-114v-258h82v-88h-82v-260h114zM139 187h92v508h-25z" />
<glyph unicode="&#xc7;" d="M335 177v-39q0 -71 -43 -111.5t-109 -40.5q-65 0 -108.5 41t-43.5 111v506q0 74 43 113t109 39q65 0 108.5 -42t43.5 -110v-26h-88v26q0 31 -18 47.5t-46 16.5q-29 0 -46.5 -16t-17.5 -48v-506q0 -27 18.5 -45.5t45.5 -18.5q26 0 45 18.5t19 45.5v10zM209 -101l-28 -70 h-37l5 105q1 22 10 32.5t22 10.5q37 0 37 -35q0 -22 -9 -43z" />
<glyph unicode="&#xc8;" horiz-adv-x="315" d="M292 88v-88h-259v783h259v-88h-171v-248h99v-88h-99v-271h171zM172 829l-122 158h83l93 -158h-54z" />
<glyph unicode="&#xc9;" horiz-adv-x="315" d="M292 88v-88h-259v783h259v-88h-171v-248h99v-88h-99v-271h171zM284 987l-121 -158h-55l93 158h83z" />
<glyph unicode="&#xca;" horiz-adv-x="315" d="M292 88v-88h-259v783h259v-88h-171v-248h99v-88h-99v-271h171zM233 829l-66 107l-66 -107h-83l109 158h79l111 -158h-84z" />
<glyph unicode="&#xcb;" horiz-adv-x="315" d="M292 88v-88h-259v783h259v-88h-171v-248h99v-88h-99v-271h171zM139 933q-1 -24 -13 -39.5t-32 -15.5q-19 0 -32.5 16t-13.5 39q0 21 13.5 37.5t32.5 16.5q20 0 32.5 -16t12.5 -38zM286 933q-1 -24 -13 -39.5t-32 -15.5q-19 0 -32.5 16t-13.5 39q0 21 13.5 37.5t32.5 16.5 q20 0 32.5 -16t12.5 -38z" />
<glyph unicode="&#xcc;" horiz-adv-x="156" d="M121 783v-783h-88v783h88zM83 829l-122 158h83l93 -158h-54z" />
<glyph unicode="&#xcd;" horiz-adv-x="156" d="M121 783v-783h-88v783h88zM196 987l-121 -158h-55l93 158h83z" />
<glyph unicode="&#xce;" horiz-adv-x="156" d="M121 783v-783h-88v783h88zM144 829l-66 107l-66 -107h-83l109 158h79l111 -158h-84z" />
<glyph unicode="&#xcf;" horiz-adv-x="156" d="M121 783v-783h-88v783h88zM50 933q-1 -24 -13 -39.5t-32 -15.5q-19 0 -32.5 16t-13.5 39q0 21 13.5 37.5t32.5 16.5q20 0 32.5 -16t12.5 -38zM197 933q-1 -24 -13 -39.5t-32 -15.5q-19 0 -32.5 16t-13.5 39q0 21 13.5 37.5t32.5 16.5q20 0 32.5 -16t12.5 -38z" />
<glyph unicode="&#xd0;" horiz-adv-x="370" d="M337 630v-477q0 -64 -44 -108.5t-108 -44.5h-152v354h-52v77h52v352h152q63 0 107.5 -45t44.5 -108zM185 431v-77h-64v-266h64q27 0 45.5 19t18.5 46v477q0 27 -18.5 46t-45.5 19h-64v-264h64z" />
<glyph unicode="&#xd1;" horiz-adv-x="372" d="M337 783v-783h-78l-143 477v-477h-83v783h88l134 -483v483h82zM302 966l43 -34q-10 -31 -37 -49.5t-56 -18.5q-31 0 -66 17t-52 17q-41 0 -68 -41l-39 37q36 66 97 66q32 0 65.5 -16t57.5 -16q37 0 55 38z" />
<glyph unicode="&#xd2;" horiz-adv-x="367" d="M335 644v-506q0 -67 -43.5 -109.5t-108.5 -42.5q-64 0 -108 42.5t-44 109.5v506q0 69 44 110.5t108 41.5q66 0 109 -41t43 -111zM247 138v506q0 29 -18.5 46.5t-45.5 17.5q-28 0 -46 -17.5t-18 -46.5v-506q0 -30 18 -47t46 -17q27 0 45.5 17t18.5 47zM188 829l-122 158 h83l93 -158h-54z" />
<glyph unicode="&#xd3;" horiz-adv-x="367" d="M335 644v-506q0 -67 -43.5 -109.5t-108.5 -42.5q-64 0 -108 42.5t-44 109.5v506q0 69 44 110.5t108 41.5q66 0 109 -41t43 -111zM247 138v506q0 29 -18.5 46.5t-45.5 17.5q-28 0 -46 -17.5t-18 -46.5v-506q0 -30 18 -47t46 -17q27 0 45.5 17t18.5 47zM301 987l-121 -158 h-55l93 158h83z" />
<glyph unicode="&#xd4;" horiz-adv-x="367" d="M335 644v-506q0 -67 -43.5 -109.5t-108.5 -42.5q-64 0 -108 42.5t-44 109.5v506q0 69 44 110.5t108 41.5q66 0 109 -41t43 -111zM247 138v506q0 29 -18.5 46.5t-45.5 17.5q-28 0 -46 -17.5t-18 -46.5v-506q0 -30 18 -47t46 -17q27 0 45.5 17t18.5 47zM249 829l-66 107 l-66 -107h-83l109 158h79l111 -158h-84z" />
<glyph unicode="&#xd5;" horiz-adv-x="367" d="M335 644v-506q0 -67 -43.5 -109.5t-108.5 -42.5q-64 0 -108 42.5t-44 109.5v506q0 69 44 110.5t108 41.5q66 0 109 -41t43 -111zM247 138v506q0 29 -18.5 46.5t-45.5 17.5q-28 0 -46 -17.5t-18 -46.5v-506q0 -30 18 -47t46 -17q27 0 45.5 17t18.5 47zM299 966l43 -34 q-10 -31 -37 -49.5t-56 -18.5q-31 0 -66 17t-52 17q-41 0 -68 -41l-39 37q36 66 97 66q32 0 65.5 -16t57.5 -16q37 0 55 38z" />
<glyph unicode="&#xd6;" horiz-adv-x="367" d="M335 644v-506q0 -67 -43.5 -109.5t-108.5 -42.5q-64 0 -108 42.5t-44 109.5v506q0 69 44 110.5t108 41.5q66 0 109 -41t43 -111zM247 138v506q0 29 -18.5 46.5t-45.5 17.5q-28 0 -46 -17.5t-18 -46.5v-506q0 -30 18 -47t46 -17q27 0 45.5 17t18.5 47zM155 933 q-1 -24 -13 -39.5t-32 -15.5q-19 0 -32.5 16t-13.5 39q0 21 13.5 37.5t32.5 16.5q20 0 32.5 -16t12.5 -38zM302 933q-1 -24 -13 -39.5t-32 -15.5q-19 0 -32.5 16t-13.5 39q0 21 13.5 37.5t32.5 16.5q20 0 32.5 -16t12.5 -38z" />
<glyph unicode="&#xd7;" horiz-adv-x="370" d="M281 207l-94 102l-102 -102l-58 60l102 101l-102 100l58 59l102 -98l94 98l61 -59l-95 -100l95 -101z" />
<glyph unicode="&#xd8;" horiz-adv-x="408" d="M308 796h72l-34 -93q13 -27 13 -59v-506q0 -63 -45 -107.5t-108 -44.5q-51 0 -94 32l-11 -32h-74l35 99q-9 29 -9 53v506q0 63 45 107.5t108 44.5q53 0 91 -31zM271 138v342l-125 -369q19 -37 60 -37q27 0 46 18.5t19 45.5zM252 689q-19 19 -46 19q-26 0 -45.5 -19 t-19.5 -45v-338l123 366q-4 9 -12 17z" />
<glyph unicode="&#xd9;" horiz-adv-x="370" d="M336 783v-645q0 -68 -43.5 -110t-108.5 -42q-64 0 -108 42t-44 110v645h88v-645q0 -32 17.5 -48t46.5 -16q28 0 46 16t18 48v645h88zM189 829l-122 158h83l93 -158h-54z" />
<glyph unicode="&#xda;" horiz-adv-x="370" d="M336 783v-645q0 -68 -43.5 -110t-108.5 -42q-64 0 -108 42t-44 110v645h88v-645q0 -32 17.5 -48t46.5 -16q28 0 46 16t18 48v645h88zM302 987l-121 -158h-55l93 158h83z" />
<glyph unicode="&#xdb;" horiz-adv-x="370" d="M336 783v-645q0 -68 -43.5 -110t-108.5 -42q-64 0 -108 42t-44 110v645h88v-645q0 -32 17.5 -48t46.5 -16q28 0 46 16t18 48v645h88zM250 829l-66 107l-66 -107h-83l109 158h79l111 -158h-84z" />
<glyph unicode="&#xdc;" horiz-adv-x="370" d="M336 783v-645q0 -68 -43.5 -110t-108.5 -42q-64 0 -108 42t-44 110v645h88v-645q0 -32 17.5 -48t46.5 -16q28 0 46 16t18 48v645h88zM157 933q-1 -24 -13 -39.5t-32 -15.5q-19 0 -32.5 16t-13.5 39q0 21 13.5 37.5t32.5 16.5q20 0 32.5 -16t12.5 -38zM304 933 q-1 -24 -13 -39.5t-32 -15.5q-19 0 -32.5 16t-13.5 39q0 21 13.5 37.5t32.5 16.5q20 0 32.5 -16t12.5 -38z" />
<glyph unicode="&#xdd;" horiz-adv-x="370" d="M256 783h95l-126 -413v-370h-89v366l-126 417h100l73 -281zM302 987l-121 -158h-55l93 158h83z" />
<glyph unicode="&#xde;" horiz-adv-x="353" d="M337 467v-143q0 -58 -44.5 -108t-102.5 -50h-69v-166h-88v783h87v-159h70q58 0 102.5 -48.5t44.5 -108.5zM249 339v113q0 37 -20.5 60.5t-55.5 23.5h-52v-282h52q30 0 53 25.5t23 59.5z" />
<glyph unicode="&#xdf;" horiz-adv-x="367" d="M336 295v-142q0 -64 -44 -108.5t-108 -44.5v88q26 0 45 19t19 46v125q0 43 -13.5 57t-50.5 14v88q37 0 50.5 12.5t13.5 52.5v142q0 26 -19 45t-45 19q-27 0 -45.5 -19t-18.5 -45v-644h-88v644q0 63 45 107.5t107 44.5q64 0 108 -44.5t44 -107.5v-146q0 -36 -16.5 -68.5 t-40.5 -36.5q25 0 41 -29t16 -69z" />
<glyph unicode="&#xe0;" d="M330 471v-471h-58l-20 35q-28 -49 -95 -49q-55 0 -94 40t-39 120q0 62 26.5 112.5t58 76.5t74.5 57.5t59 48.5v30q0 65 -52 65q-51 0 -65 -41l-74 48q23 37 54 56.5t86 19.5q63 0 101 -39.5t38 -108.5zM244 154v173l-32 -21q-10 -7 -33 -26t-35.5 -35t-23 -40.5 t-10.5 -50.5q0 -80 66 -80q33 0 50.5 23t17.5 57zM195 657l-122 158h83l93 -158h-54z" />
<glyph unicode="&#xe1;" d="M330 471v-471h-58l-20 35q-28 -49 -95 -49q-55 0 -94 40t-39 120q0 62 26.5 112.5t58 76.5t74.5 57.5t59 48.5v30q0 65 -52 65q-51 0 -65 -41l-74 48q23 37 54 56.5t86 19.5q63 0 101 -39.5t38 -108.5zM244 154v173l-32 -21q-10 -7 -33 -26t-35.5 -35t-23 -40.5 t-10.5 -50.5q0 -80 66 -80q33 0 50.5 23t17.5 57zM308 815l-121 -158h-55l93 158h83z" />
<glyph unicode="&#xe2;" d="M330 471v-471h-58l-20 35q-28 -49 -95 -49q-55 0 -94 40t-39 120q0 62 26.5 112.5t58 76.5t74.5 57.5t59 48.5v30q0 65 -52 65q-51 0 -65 -41l-74 48q23 37 54 56.5t86 19.5q63 0 101 -39.5t38 -108.5zM244 154v173l-32 -21q-10 -7 -33 -26t-35.5 -35t-23 -40.5 t-10.5 -50.5q0 -80 66 -80q33 0 50.5 23t17.5 57zM256 657l-66 107l-66 -107h-83l109 158h79l111 -158h-84z" />
<glyph unicode="&#xe3;" d="M330 471v-471h-58l-20 35q-28 -49 -95 -49q-55 0 -94 40t-39 120q0 62 26.5 112.5t58 76.5t74.5 57.5t59 48.5v30q0 65 -52 65q-51 0 -65 -41l-74 48q23 37 54 56.5t86 19.5q63 0 101 -39.5t38 -108.5zM244 154v173l-32 -21q-10 -7 -33 -26t-35.5 -35t-23 -40.5 t-10.5 -50.5q0 -80 66 -80q33 0 50.5 23t17.5 57zM307 794l43 -34q-10 -31 -37 -49.5t-56 -18.5q-31 0 -66 17t-52 17q-41 0 -68 -41l-39 37q36 66 97 66q32 0 65.5 -16t57.5 -16q37 0 55 38z" />
<glyph unicode="&#xe4;" d="M330 471v-471h-58l-20 35q-28 -49 -95 -49q-55 0 -94 40t-39 120q0 62 26.5 112.5t58 76.5t74.5 57.5t59 48.5v30q0 65 -52 65q-51 0 -65 -41l-74 48q23 37 54 56.5t86 19.5q63 0 101 -39.5t38 -108.5zM244 154v173l-32 -21q-10 -7 -33 -26t-35.5 -35t-23 -40.5 t-10.5 -50.5q0 -80 66 -80q33 0 50.5 23t17.5 57zM163 761q-1 -24 -13 -39.5t-32 -15.5q-19 0 -32.5 16t-13.5 39q0 21 13.5 37.5t32.5 16.5q20 0 32.5 -16t12.5 -38zM310 761q-1 -24 -13 -39.5t-32 -15.5q-19 0 -32.5 16t-13.5 39q0 21 13.5 37.5t32.5 16.5q20 0 32.5 -16 t12.5 -38z" />
<glyph unicode="&#xe5;" d="M330 471v-471h-58l-20 35q-28 -49 -95 -49q-55 0 -94 40t-39 120q0 62 26.5 112.5t58 76.5t74.5 57.5t59 48.5v30q0 65 -52 65q-51 0 -65 -41l-74 48q23 37 54 56.5t86 19.5q63 0 101 -39.5t38 -108.5zM244 154v173l-32 -21q-10 -7 -33 -26t-35.5 -35t-23 -40.5 t-10.5 -50.5q0 -80 66 -80q33 0 50.5 23t17.5 57zM190 657q-32 0 -54 23t-22 57t21.5 56t54.5 22t55 -22t22 -56t-22 -57t-55 -23zM190 693q18 0 30 12.5t12 31.5q0 18 -12 30t-30 12q-17 0 -29 -12t-12 -30q0 -19 12 -31.5t29 -12.5z" />
<glyph unicode="&#xe6;" horiz-adv-x="587" d="M548 177v-39q0 -63 -43.5 -107.5t-105.5 -44.5q-73 0 -120 60q-38 -54 -112 -54q-52 0 -93.5 39.5t-41.5 103.5q0 67 26.5 119.5t57.5 79t74 58t59 49.5v36q-5 59 -52 59q-49 0 -63 -44l-75 51q16 33 53 57t85 24q61 0 99 -43q45 43 106 43q65 0 109 -45t44 -120 q0 -60 -11.5 -102t-41 -75.5t-65.5 -57.5t-100 -56v-35q3 -26 19.5 -42.5t42.5 -16.5t43.5 18.5t17.5 45.5v10zM467 454q0 82 -65 82q-26 0 -44 -17t-21 -42v-208q77 42 103.5 81.5t26.5 103.5zM249 154v173q-64 -46 -86 -73q-43 -50 -43 -109q0 -27 18.5 -46t45.5 -19 q26 0 45.5 23t19.5 51z" />
<glyph unicode="&#xe7;" horiz-adv-x="361" d="M182 536q-28 0 -46 -17t-18 -48v-333q0 -30 18 -47t46 -17t46 17t18 47v10l88 29v-39q0 -74 -43 -113t-109 -39q-67 0 -109.5 40.5t-42.5 111.5v333q0 77 41 112.5t111 35.5q68 0 110 -36t42 -112v-26h-88v26q0 31 -18 48t-46 17zM211 -101l-28 -70h-37l5 105 q1 22 10 32.5t22 10.5q37 0 37 -35q0 -22 -9 -43z" />
<glyph unicode="&#xe8;" d="M328 177v-39q0 -70 -42 -111t-107 -41t-107 41t-42 111v333q0 70 42.5 109t109.5 39q65 0 108.5 -42.5t43.5 -117.5q0 -61 -11 -103t-41 -75.5t-65 -56.5t-99 -56v-30q0 -30 16.5 -47t44.5 -17q27 0 43.5 17t16.5 47v10zM246 454q0 82 -64 82q-28 0 -46 -17t-18 -48v-206 q77 36 102.5 76t25.5 113zM185 657l-122 158h83l93 -158h-54z" />
<glyph unicode="&#xe9;" d="M328 177v-39q0 -70 -42 -111t-107 -41t-107 41t-42 111v333q0 70 42.5 109t109.5 39q65 0 108.5 -42.5t43.5 -117.5q0 -61 -11 -103t-41 -75.5t-65 -56.5t-99 -56v-30q0 -30 16.5 -47t44.5 -17q27 0 43.5 17t16.5 47v10zM246 454q0 82 -64 82q-28 0 -46 -17t-18 -48v-206 q77 36 102.5 76t25.5 113zM298 815l-121 -158h-55l93 158h83z" />
<glyph unicode="&#xea;" d="M328 177v-39q0 -70 -42 -111t-107 -41t-107 41t-42 111v333q0 70 42.5 109t109.5 39q65 0 108.5 -42.5t43.5 -117.5q0 -61 -11 -103t-41 -75.5t-65 -56.5t-99 -56v-30q0 -30 16.5 -47t44.5 -17q27 0 43.5 17t16.5 47v10zM246 454q0 82 -64 82q-28 0 -46 -17t-18 -48v-206 q77 36 102.5 76t25.5 113zM247 657l-66 107l-66 -107h-83l109 158h79l111 -158h-84z" />
<glyph unicode="&#xeb;" d="M328 177v-39q0 -70 -42 -111t-107 -41t-107 41t-42 111v333q0 70 42.5 109t109.5 39q65 0 108.5 -42.5t43.5 -117.5q0 -61 -11 -103t-41 -75.5t-65 -56.5t-99 -56v-30q0 -30 16.5 -47t44.5 -17q27 0 43.5 17t16.5 47v10zM246 454q0 82 -64 82q-28 0 -46 -17t-18 -48v-206 q77 36 102.5 76t25.5 113zM153 761q-1 -24 -13 -39.5t-32 -15.5q-19 0 -32.5 16t-13.5 39q0 21 13.5 37.5t32.5 16.5q20 0 32.5 -16t12.5 -38zM300 761q-1 -24 -13 -39.5t-32 -15.5q-19 0 -32.5 16t-13.5 39q0 21 13.5 37.5t32.5 16.5q20 0 32.5 -16t12.5 -38z" />
<glyph unicode="&#xec;" horiz-adv-x="186" d="M150 611v-611h-88v611h88zM112 657l-122 158h83l93 -158h-54z" />
<glyph unicode="&#xed;" horiz-adv-x="189" d="M121 611v-611h-88v611h88zM196 815l-121 -158h-55l93 158h83z" />
<glyph unicode="&#xee;" horiz-adv-x="235" d="M156 611v-611h-88v611h88zM179 657l-66 107l-66 -107h-83l109 158h79l111 -158h-84z" />
<glyph unicode="&#xef;" horiz-adv-x="235" d="M156 611v-611h-88v611h88zM85 761q-1 -24 -13 -39.5t-32 -15.5q-19 0 -32.5 16t-13.5 39q0 21 13.5 37.5t32.5 16.5q20 0 32.5 -16t12.5 -38zM232 761q-1 -24 -13 -39.5t-32 -15.5q-19 0 -32.5 16t-13.5 39q0 21 13.5 37.5t32.5 16.5q20 0 32.5 -16t12.5 -38z" />
<glyph unicode="&#xf0;" horiz-adv-x="365" d="M347 811v-77l-24 -23q12 -36 12 -67v-506q0 -70 -43 -111t-109 -41q-65 0 -108.5 41t-43.5 111v178q0 75 36 114t101 39q51 0 79 -28v198l-149 -141v77l125 119q-17 14 -40 14t-39 -13l-61 68q40 33 100 33q66 0 107 -38zM183 381q-28 0 -46 -16.5t-18 -48.5v-178 q0 -30 18.5 -47t45.5 -17q28 0 46 16.5t18 47.5v173q0 70 -64 70z" />
<glyph unicode="&#xf1;" horiz-adv-x="380" d="M347 474v-474h-88v471q0 31 -20 48t-49 17q-28 0 -48.5 -17t-20.5 -48v-471h-88v611h58l20 -29q34 37 96 37t101 -40t39 -105zM306 794l43 -34q-10 -31 -37 -49.5t-56 -18.5q-31 0 -66 17t-52 17q-41 0 -68 -41l-39 37q36 66 97 66q32 0 65.5 -16t57.5 -16q37 0 55 38z " />
<glyph unicode="&#xf2;" horiz-adv-x="365" d="M334 471v-333q0 -69 -44 -110.5t-108 -41.5q-66 0 -109 41.5t-43 110.5v333q0 68 43 108t109 40q64 0 108 -40.5t44 -107.5zM246 138v333q0 31 -18 48t-46 17t-46 -17t-18 -48v-333q0 -30 18 -47t46 -17q27 0 45.5 17t18.5 47zM187 657l-122 158h83l93 -158h-54z" />
<glyph unicode="&#xf3;" horiz-adv-x="365" d="M334 471v-333q0 -69 -44 -110.5t-108 -41.5q-66 0 -109 41.5t-43 110.5v333q0 68 43 108t109 40q64 0 108 -40.5t44 -107.5zM246 138v333q0 31 -18 48t-46 17t-46 -17t-18 -48v-333q0 -30 18 -47t46 -17q27 0 45.5 17t18.5 47zM300 815l-121 -158h-55l93 158h83z" />
<glyph unicode="&#xf4;" horiz-adv-x="365" d="M334 471v-333q0 -69 -44 -110.5t-108 -41.5q-66 0 -109 41.5t-43 110.5v333q0 68 43 108t109 40q64 0 108 -40.5t44 -107.5zM246 138v333q0 31 -18 48t-46 17t-46 -17t-18 -48v-333q0 -30 18 -47t46 -17q27 0 45.5 17t18.5 47zM249 657l-66 107l-66 -107h-83l109 158h79 l111 -158h-84z" />
<glyph unicode="&#xf5;" horiz-adv-x="365" d="M334 471v-333q0 -69 -44 -110.5t-108 -41.5q-66 0 -109 41.5t-43 110.5v333q0 68 43 108t109 40q64 0 108 -40.5t44 -107.5zM246 138v333q0 31 -18 48t-46 17t-46 -17t-18 -48v-333q0 -30 18 -47t46 -17q27 0 45.5 17t18.5 47zM298 794l43 -34q-10 -31 -37 -49.5 t-56 -18.5q-31 0 -66 17t-52 17q-41 0 -68 -41l-39 37q36 66 97 66q32 0 65.5 -16t57.5 -16q37 0 55 38z" />
<glyph unicode="&#xf6;" horiz-adv-x="365" d="M334 471v-333q0 -69 -44 -110.5t-108 -41.5q-66 0 -109 41.5t-43 110.5v333q0 68 43 108t109 40q64 0 108 -40.5t44 -107.5zM246 138v333q0 31 -18 48t-46 17t-46 -17t-18 -48v-333q0 -30 18 -47t46 -17q27 0 45.5 17t18.5 47zM154 761q-1 -24 -13 -39.5t-32 -15.5 q-19 0 -32.5 16t-13.5 39q0 21 13.5 37.5t32.5 16.5q20 0 32.5 -16t12.5 -38zM301 761q-1 -24 -13 -39.5t-32 -15.5q-19 0 -32.5 16t-13.5 39q0 21 13.5 37.5t32.5 16.5q20 0 32.5 -16t12.5 -38z" />
<glyph unicode="&#xf7;" horiz-adv-x="355" d="M321 405v-74h-287v74h287zM222 547q0 -25 -11.5 -41.5t-32.5 -16.5t-32.5 17.5t-11.5 40.5q0 24 11.5 41.5t32.5 17.5t32.5 -17t11.5 -42zM222 179q0 -25 -11.5 -41.5t-32.5 -16.5t-32.5 17.5t-11.5 40.5q0 24 11.5 41.5t32.5 17.5t32.5 -17t11.5 -42z" />
<glyph unicode="&#xf8;" horiz-adv-x="408" d="M320 644h60l-44 -94q23 -35 23 -79v-333q0 -63 -45.5 -107.5t-108.5 -44.5q-58 0 -100 36l-16 -34h-63l40 86q-14 34 -14 64v333q0 63 45.5 108t107.5 45q51 0 91 -29zM271 138v268l-125 -296q24 -36 59 -36q27 0 46.5 18.5t19.5 45.5zM205 536q-26 0 -45.5 -19 t-19.5 -46v-237l116 276q-26 26 -51 26z" />
<glyph unicode="&#xf9;" horiz-adv-x="366" d="M332 611v-611h-58l-20 29q-30 -43 -93 -43q-60 0 -94.5 42.5t-34.5 119.5v463h88v-473q0 -30 17 -47t45 -17t45 16t17 48v473h88zM187 657l-122 158h83l93 -158h-54z" />
<glyph unicode="&#xfa;" horiz-adv-x="366" d="M332 611v-611h-58l-20 29q-30 -43 -93 -43q-60 0 -94.5 42.5t-34.5 119.5v463h88v-473q0 -30 17 -47t45 -17t45 16t17 48v473h88zM300 815l-121 -158h-55l93 158h83z" />
<glyph unicode="&#xfb;" horiz-adv-x="366" d="M332 611v-611h-58l-20 29q-30 -43 -93 -43q-60 0 -94.5 42.5t-34.5 119.5v463h88v-473q0 -30 17 -47t45 -17t45 16t17 48v473h88zM249 657l-66 107l-66 -107h-83l109 158h79l111 -158h-84z" />
<glyph unicode="&#xfc;" horiz-adv-x="366" d="M332 611v-611h-58l-20 29q-30 -43 -93 -43q-60 0 -94.5 42.5t-34.5 119.5v463h88v-473q0 -30 17 -47t45 -17t45 16t17 48v473h88zM155 761q-1 -24 -13 -39.5t-32 -15.5q-19 0 -32.5 16t-13.5 39q0 21 13.5 37.5t32.5 16.5q20 0 32.5 -16t12.5 -38zM302 761 q-1 -24 -13 -39.5t-32 -15.5q-19 0 -32.5 16t-13.5 39q0 21 13.5 37.5t32.5 16.5q20 0 32.5 -16t12.5 -38z" />
<glyph unicode="&#xfd;" horiz-adv-x="361" d="M327 611v-782h-89v190q-20 -33 -80 -33q-57 0 -96.5 36t-39.5 112v477h88v-473q0 -31 18 -47.5t47 -16.5q27 0 45 16.5t18 47.5v473h89zM295 815l-121 -158h-55l93 158h83z" />
<glyph unicode="&#xfe;" horiz-adv-x="373" d="M343 471v-333q0 -68 -41.5 -110t-99.5 -42t-84 34v-191h-88v957l88 29v-221q27 25 90 25q58 0 96.5 -40t38.5 -108zM255 138v333q0 30 -20 47.5t-49 17.5q-28 0 -48 -17.5t-20 -47.5v-333q0 -28 21 -46t49 -18t47.5 17.5t19.5 46.5z" />
<glyph unicode="&#xff;" horiz-adv-x="361" d="M327 611v-782h-89v190q-20 -33 -80 -33q-57 0 -96.5 36t-39.5 112v477h88v-473q0 -31 18 -47.5t47 -16.5q27 0 45 16.5t18 47.5v473h89zM152 761q-1 -24 -13 -39.5t-32 -15.5q-19 0 -32.5 16t-13.5 39q0 21 13.5 37.5t32.5 16.5q20 0 32.5 -16t12.5 -38zM299 761 q-1 -24 -13 -39.5t-32 -15.5q-19 0 -32.5 16t-13.5 39q0 21 13.5 37.5t32.5 16.5q20 0 32.5 -16t12.5 -38z" />
<glyph unicode="&#x102;" horiz-adv-x="361" d="M222 783l118 -783h-89l-13 97h-111l-12 -97h-94l120 783h81zM137 179h91l-45 343zM259 987h53q-3 -67 -36 -112.5t-96 -45.5q-62 0 -94.5 45.5t-35.5 112.5h53q8 -98 77 -98q32 0 53 21t26 77z" />
<glyph unicode="&#x103;" d="M330 471v-471h-58l-20 35q-28 -49 -95 -49q-55 0 -94 40t-39 120q0 62 26.5 112.5t58 76.5t74.5 57.5t59 48.5v30q0 65 -52 65q-51 0 -65 -41l-74 48q23 37 54 56.5t86 19.5q63 0 101 -39.5t38 -108.5zM244 154v173l-32 -21q-10 -7 -33 -26t-35.5 -35t-23 -40.5 t-10.5 -50.5q0 -80 66 -80q33 0 50.5 23t17.5 57zM269 815h53q-3 -67 -36 -112.5t-96 -45.5q-62 0 -94.5 45.5t-35.5 112.5h53q8 -98 77 -98q32 0 53 21t26 77z" />
<glyph unicode="&#x104;" horiz-adv-x="361" d="M262 -123q28 0 40 21l61 -66q-37 -42 -97 -42q-64 0 -94.5 31t-30.5 76q0 26 17 48.5t50 32.5l45 15l-15 104h-111l-12 -97h-94l120 783h81l118 -783l-83 -40q-36 -18 -36 -46q0 -15 11.5 -26t29.5 -11zM137 179h91l-45 343z" />
<glyph unicode="&#x105;" d="M252 -123q28 0 40 21l61 -66q-37 -42 -97 -42q-63 0 -93.5 31t-30.5 76q0 26 16.5 48t49.5 33l72 25l-18 32q-25 -43 -93 -43q-52 0 -93.5 39.5t-41.5 103.5q0 66 26.5 119t58 79.5t74.5 58.5t59 49v30q0 29 -13.5 47t-39.5 18q-50 0 -62 -44l-76 51q16 33 53 57t85 24 q62 0 101.5 -44.5t39.5 -108.5v-471l-83 -40q-36 -19 -36 -46q0 -15 12 -26t29 -11zM242 154v173q-24 -16 -40 -28t-40 -35.5t-37 -53.5t-13 -65q0 -27 18.5 -46t46.5 -19q26 0 45.5 23t19.5 51z" />
<glyph unicode="&#x106;" d="M335 177v-39q0 -71 -43 -111.5t-109 -40.5q-65 0 -108.5 41t-43.5 111v506q0 74 43 113t109 39q65 0 108.5 -42t43.5 -110v-26h-88v26q0 31 -18 47.5t-46 16.5q-29 0 -46.5 -16t-17.5 -48v-506q0 -27 18.5 -45.5t45.5 -18.5q26 0 45 18.5t19 45.5v10zM298 987l-121 -158 h-55l93 158h83z" />
<glyph unicode="&#x107;" horiz-adv-x="361" d="M182 536q-28 0 -46 -17t-18 -48v-333q0 -30 18 -47t46 -17t46 17t18 47v10l88 29v-39q0 -74 -43 -113t-109 -39q-67 0 -109.5 40.5t-42.5 111.5v333q0 77 41 112.5t111 35.5q68 0 110 -36t42 -112v-26h-88v26q0 31 -18 48t-46 17zM298 815l-121 -158h-55l93 158h83z" />
<glyph unicode="&#x118;" horiz-adv-x="315" d="M214 -123q28 0 40 21l61 -66q-37 -42 -97 -42q-64 0 -94.5 31t-30.5 76q0 26 17 48.5t50 32.5l66 22h-193v783h259v-88h-171v-248h99v-88h-99v-271h171v-88l-83 -40q-36 -18 -36 -46q0 -15 11.5 -26t29.5 -11z" />
<glyph unicode="&#x119;" d="M163 -123q28 0 40 21l61 -66q-37 -42 -97 -42q-64 0 -94.5 31t-30.5 76q0 26 17 48.5t50 32.5l35 12q-50 11 -82 52.5t-32 95.5v333q0 63 44 108t108 45t108 -45t44 -120q0 -61 -11 -103t-41 -75.5t-65 -56.5t-99 -56v-30q0 -28 17 -46t44 -18q26 0 43 18.5t17 45.5v10 l89 29v-39q0 -46 -25.5 -83t-66.5 -57l-78 -38q-36 -19 -36 -46q0 -15 11.5 -26t29.5 -11zM246 454q0 82 -64 82q-27 0 -45.5 -19t-18.5 -46v-202q75 36 101.5 78.5t26.5 106.5z" />
<glyph unicode="&#x131;" horiz-adv-x="156" d="M121 611v-611h-88v611h88z" />
<glyph unicode="&#x141;" horiz-adv-x="322" d="M288 679v-77l-129 -45v-469h151v-88h-239v526l-71 -23v77l71 24v179h88v-149z" />
<glyph unicode="&#x142;" horiz-adv-x="256" d="M246 686v-77l-76 -32v-577h-88v541l-72 -29v77l72 29v168l88 29v-160z" />
<glyph unicode="&#x143;" horiz-adv-x="372" d="M337 783v-783h-78l-143 477v-477h-83v783h88l134 -483v483h82zM303 987l-121 -158h-55l93 158h83z" />
<glyph unicode="&#x144;" horiz-adv-x="380" d="M347 474v-474h-88v471q0 31 -20 48t-49 17q-28 0 -48.5 -17t-20.5 -48v-471h-88v611h58l20 -29q34 37 96 37t101 -40t39 -105zM307 815l-121 -158h-55l93 158h83z" />
<glyph unicode="&#x152;" horiz-adv-x="518" d="M492 88v-88h-240q-36 -14 -68 -14q-62 0 -107 44.5t-45 107.5v506q0 63 45 107.5t107 44.5q39 0 65 -13h243v-88h-155v-258h100v-88h-100v-261h155zM230 689q-18 19 -46 19q-26 0 -45 -19t-19 -45v-506q0 -27 19 -45.5t45 -18.5t44.5 16.5t20.5 42.5v516q-1 23 -19 40z " />
<glyph unicode="&#x153;" horiz-adv-x="582" d="M546 177v-39q0 -63 -44 -107.5t-106 -44.5t-106 44q-46 -44 -107 -44q-62 0 -107 44.5t-45 107.5v333q0 63 45 108t107 45q65 0 108 -46q46 46 109 46q65 0 108.5 -45t43.5 -120q0 -79 -24 -131t-66 -84.5t-127 -75.5v-35q2 -26 19 -42.5t42 -16.5q26 0 44 18.5t18 45.5 v10zM247 138v339q-2 25 -20.5 42t-43.5 17q-27 0 -45.5 -19t-18.5 -46v-333q0 -27 18.5 -45.5t45.5 -18.5q26 0 45 18.5t19 45.5zM464 454q0 43 -18 62.5t-46 19.5q-26 0 -44.5 -17t-20.5 -42v-208q76 41 102.5 81t26.5 104z" />
<glyph unicode="&#x15a;" horiz-adv-x="365" d="M179 796q68 0 110 -39.5t42 -112.5v-43l-88 19v24q0 26 -19 45t-45 19q-65 0 -65 -88q0 -15 5.5 -33t12 -32t20.5 -35.5t22 -31.5l24 -33l23 -29q36 -48 57 -80t40.5 -81t19.5 -95q0 -79 -39 -131.5t-121 -52.5q-68 0 -109.5 43.5t-41.5 108.5v42l88 -19v-23 q0 -27 20 -46t47 -19q34 0 51.5 20.5t17.5 54.5q0 52 -14 86q-11 29 -30 60.5t-35 52.5l-42 56l-38 51q-34 47 -49.5 86.5t-15.5 95.5q0 73 40 116.5t112 43.5zM300 987l-121 -158h-55l93 158h83z" />
<glyph unicode="&#x15b;" horiz-adv-x="363" d="M338 154q0 -71 -40.5 -119.5t-117.5 -48.5q-68 0 -110.5 42.5t-42.5 109.5v42l88 -19v-23q0 -29 18 -46.5t47 -17.5q68 0 68 64q0 41 -23 71q-20 22 -69 62t-72 67q-49 59 -49 132q0 66 42 107.5t108 41.5q68 0 105.5 -40.5t37.5 -107.5v-42l-86 20v22q0 30 -16.5 47.5 t-43.5 17.5q-28 0 -43.5 -18t-15.5 -49q0 -32 22.5 -63t52 -53t64.5 -54.5t53 -61.5q23 -39 23 -83zM299 815l-121 -158h-55l93 158h83z" />
<glyph unicode="&#x162;" horiz-adv-x="288" d="M278 783v-88h-91v-695h-88v695h-89v88h268zM164 -101l-28 -70h-37l5 105q1 22 10 32.5t22 10.5q37 0 37 -35q0 -22 -9 -43z" />
<glyph unicode="&#x163;" horiz-adv-x="326" d="M209 74q28 0 40 20l61 -66q-37 -42 -97 -42q-137 0 -137 151v396h-56v78h56v111l88 30v-141h116v-78h-116v-396q0 -63 45 -63zM191 -101l-28 -70h-37l5 105q1 22 10 32.5t22 10.5q37 0 37 -35q0 -22 -9 -43z" />
<glyph unicode="&#x178;" horiz-adv-x="370" d="M256 783h95l-126 -413v-370h-89v366l-126 417h100l73 -281zM157 933q-1 -24 -13 -39.5t-32 -15.5q-19 0 -32.5 16t-13.5 39q0 21 13.5 37.5t32.5 16.5q20 0 32.5 -16t12.5 -38zM304 933q-1 -24 -13 -39.5t-32 -15.5q-19 0 -32.5 16t-13.5 39q0 21 13.5 37.5t32.5 16.5 q20 0 32.5 -16t12.5 -38z" />
<glyph unicode="&#x179;" horiz-adv-x="361" d="M332 95v-95h-304v69l203 619h-199v95h300v-69l-200 -619h200zM303 987l-121 -158h-55l93 158h83z" />
<glyph unicode="&#x17a;" horiz-adv-x="347" d="M315 94v-94h-283v69l187 448h-184v94h280v-69l-183 -448h183zM296 815l-121 -158h-55l93 158h83z" />
<glyph unicode="&#x17b;" horiz-adv-x="361" d="M332 95v-95h-304v69l203 619h-199v95h300v-69l-200 -619h200zM230 933q-1 -24 -13 -39.5t-32 -15.5q-19 0 -32.5 16t-13.5 39q0 21 13.5 37.5t32.5 16.5q20 0 32.5 -16t12.5 -38z" />
<glyph unicode="&#x17c;" horiz-adv-x="347" d="M315 94v-94h-283v69l187 448h-184v94h280v-69l-183 -448h183zM223 761q-1 -24 -13 -39.5t-32 -15.5q-19 0 -32.5 16t-13.5 39q0 21 13.5 37.5t32.5 16.5q20 0 32.5 -16t12.5 -38z" />
<glyph unicode="&#x218;" horiz-adv-x="365" d="M179 796q68 0 110 -39.5t42 -112.5v-43l-88 19v24q0 26 -19 45t-45 19q-65 0 -65 -88q0 -15 5.5 -33t12 -32t20.5 -35.5t22 -31.5l24 -33l23 -29q36 -48 57 -80t40.5 -81t19.5 -95q0 -79 -39 -131.5t-121 -52.5q-68 0 -109.5 43.5t-41.5 108.5v42l88 -19v-23 q0 -27 20 -46t47 -19q34 0 51.5 20.5t17.5 54.5q0 52 -14 86q-11 29 -30 60.5t-35 52.5l-42 56l-38 51q-34 47 -49.5 86.5t-15.5 95.5q0 73 40 116.5t112 43.5zM210 -101l-28 -70h-37l5 105q1 22 10 32.5t22 10.5q37 0 37 -35q0 -22 -9 -43z" />
<glyph unicode="&#x219;" horiz-adv-x="363" d="M338 154q0 -71 -40.5 -119.5t-117.5 -48.5q-68 0 -110.5 42.5t-42.5 109.5v42l88 -19v-23q0 -29 18 -46.5t47 -17.5q68 0 68 64q0 41 -23 71q-20 22 -69 62t-72 67q-49 59 -49 132q0 66 42 107.5t108 41.5q68 0 105.5 -40.5t37.5 -107.5v-42l-86 20v22q0 30 -16.5 47.5 t-43.5 17.5q-28 0 -43.5 -18t-15.5 -49q0 -32 22.5 -63t52 -53t64.5 -54.5t53 -61.5q23 -39 23 -83zM209 -101l-28 -70h-37l5 105q1 22 10 32.5t22 10.5q37 0 37 -35q0 -22 -9 -43z" />
<glyph unicode="&#x2c6;" horiz-adv-x="417" d="M274 657l-66 107l-66 -107h-83l109 158h79l111 -158h-84z" />
<glyph unicode="&#x2c7;" horiz-adv-x="417" d="M143 815l66 -107l66 107h83l-109 -158h-79l-111 158h84z" />
<glyph unicode="&#x2d8;" horiz-adv-x="380" d="M268 815h53q-3 -67 -36 -112.5t-96 -45.5q-62 0 -94.5 45.5t-35.5 112.5h53q8 -98 77 -98q33 0 53.5 21t25.5 77z" />
<glyph unicode="&#x2d9;" horiz-adv-x="209" d="M150 761q-1 -24 -13 -39.5t-32 -15.5q-19 0 -32.5 16t-13.5 39q0 21 13.5 37.5t32.5 16.5q20 0 32.5 -16t12.5 -38z" />
<glyph unicode="&#x2da;" horiz-adv-x="271" d="M135 657q-32 0 -54 23t-22 57t21.5 56t54.5 22t55 -22t22 -56t-22 -57t-55 -23zM135 693q18 0 30 12.5t12 31.5q0 18 -12 30t-30 12q-17 0 -29 -12t-12 -30q0 -19 12 -31.5t29 -12.5z" />
<glyph unicode="&#x2db;" horiz-adv-x="339" d="M180 -123q28 0 40 21l60 -66q-36 -42 -97 -42q-63 0 -93.5 31t-30.5 76q0 26 17 48.5t50 32.5l65 22h67l-83 -40q-37 -18 -37 -46q0 -15 12 -26t30 -11z" />
<glyph unicode="&#x2dc;" horiz-adv-x="400" d="M319 794l43 -34q-10 -31 -37 -49.5t-56 -18.5q-31 0 -66 17t-52 17q-41 0 -68 -41l-39 37q36 66 97 66q32 0 65.5 -16t57.5 -16q37 0 55 38z" />
<glyph unicode="&#x2dd;" horiz-adv-x="432" d="M373 815l-122 -158h-55l93 158h84zM235 815l-121 -158h-55l93 158h83z" />
<glyph unicode="&#x2000;" horiz-adv-x="493" />
<glyph unicode="&#x2001;" horiz-adv-x="987" />
<glyph unicode="&#x2002;" horiz-adv-x="493" />
<glyph unicode="&#x2003;" horiz-adv-x="987" />
<glyph unicode="&#x2004;" horiz-adv-x="329" />
<glyph unicode="&#x2005;" horiz-adv-x="246" />
<glyph unicode="&#x2006;" horiz-adv-x="164" />
<glyph unicode="&#x2007;" horiz-adv-x="164" />
<glyph unicode="&#x2008;" horiz-adv-x="123" />
<glyph unicode="&#x2009;" horiz-adv-x="197" />
<glyph unicode="&#x200a;" horiz-adv-x="54" />
<glyph unicode="&#x2010;" horiz-adv-x="320" d="M285 431v-77h-252v77h252z" />
<glyph unicode="&#x2011;" horiz-adv-x="320" d="M285 431v-77h-252v77h252z" />
<glyph unicode="&#x2013;" horiz-adv-x="438" d="M405 431v-77h-372v77h372z" />
<glyph unicode="&#x2014;" horiz-adv-x="656" d="M623 431v-77h-590v77h590z" />
<glyph unicode="&#x2018;" horiz-adv-x="140" d="M27 619l66 196h26l-9 -227q-1 -27 -13 -41t-29 -14q-18 0 -32.5 15.5t-14.5 40.5q0 15 6 30z" />
<glyph unicode="&#x2019;" horiz-adv-x="140" d="M113 729l-67 -196h-25l9 227q1 27 13 41t29 14q18 0 32.5 -15t14.5 -40q0 -14 -6 -31z" />
<glyph unicode="&#x201a;" horiz-adv-x="140" d="M110 25l-67 -196h-25l9 228q1 27 13 41t29 14q18 0 32.5 -15.5t14.5 -40.5q0 -14 -6 -31z" />
<glyph unicode="&#x201c;" horiz-adv-x="259" d="M27 619l66 196h26l-9 -227q-1 -27 -13 -41t-29 -14q-18 0 -32.5 15.5t-14.5 40.5q0 15 6 30zM147 619l66 196h26l-9 -227q-1 -27 -13 -41t-29 -14q-18 0 -32.5 15.5t-14.5 40.5q0 15 6 30z" />
<glyph unicode="&#x201d;" horiz-adv-x="259" d="M113 729l-67 -196h-25l9 227q1 27 13 41t29 14q18 0 32.5 -15t14.5 -40q0 -14 -6 -31zM233 729l-67 -196h-25l9 227q1 27 13 41t29 14q18 0 32.5 -15t14.5 -40q0 -14 -6 -31z" />
<glyph unicode="&#x201e;" horiz-adv-x="259" d="M110 25l-67 -196h-25l9 228q1 27 13 41t29 14q18 0 32.5 -15.5t14.5 -40.5q0 -14 -6 -31zM230 25l-67 -196h-25l9 228q1 27 13 41t29 14q18 0 32.5 -15.5t14.5 -40.5q0 -14 -6 -31z" />
<glyph unicode="&#x2020;" horiz-adv-x="276" d="M109 759h57q13 -7 13 -29q0 -12 -1 -15l-16 -13q11 -27 11 -77q0 -31 -14 -62q30 21 63 21q39 0 39 -40q0 -12 -7 -18.5t-17 -6.5q-1 15 -31 15q-28 0 -53 -20q30 -16 30 -50q0 -343 -47 -457q-23 59 -34.5 188.5t-11.5 268.5q0 34 29 50q-20 20 -52 20q-29 0 -32 -15 q-7 0 -13.5 6.5t-6.5 18.5q0 40 40 40q29 0 62 -21q-17 32 -17 62q0 43 14 77l-16 13q-2 8 -2 15q0 21 13 29z" />
<glyph unicode="&#x2021;" horiz-adv-x="260" d="M156 -118h-53q-13 11 -13 29q0 7 3 13l15 12q-12 31 -12 71q0 29 14 58q-29 -19 -57 -19q-38 0 -38 37q0 11 6 17t13 6q3 -14 30 -14q28 0 50 19q-28 14 -28 48q0 28 6 83t7 78q-1 26 -7 81.5t-6 82.5q0 29 28 48q-22 18 -50 18q-27 0 -30 -13q-7 0 -13 6.5t-6 15.5 q0 38 38 38q26 0 57 -20q-14 32 -14 57q0 43 12 72l-15 13q-3 6 -3 14q0 19 13 27h53q12 -6 12 -27q0 -13 -1 -14l-14 -13q9 -26 9 -72q0 -35 -13 -57q28 20 59 20q37 0 37 -38q0 -9 -7 -15.5t-14 -6.5q-1 13 -31 13q-24 0 -48 -18q28 -18 28 -48q0 -27 -6.5 -82.5 t-7.5 -81.5q1 -24 7.5 -78.5t6.5 -82.5q0 -30 -28 -48q25 -19 48 -19q30 0 31 14q8 0 14.5 -6.5t6.5 -16.5q0 -37 -37 -37q-31 0 -59 19q13 -22 13 -58q0 -44 -9 -71l14 -12q1 -3 1 -13q0 -20 -12 -29z" />
<glyph unicode="&#x2022;" horiz-adv-x="311" d="M26 347q0 54 37.5 92t91.5 38q53 0 91 -38t38 -92q0 -53 -38 -91t-91 -38q-54 0 -91.5 37.5t-37.5 91.5z" />
<glyph unicode="&#x2026;" horiz-adv-x="648" d="M129 52q0 -25 -11.5 -41.5t-32.5 -16.5t-32.5 17.5t-11.5 40.5q0 24 11.5 41.5t32.5 17.5t32.5 -17t11.5 -42zM372 52q0 -25 -11.5 -41.5t-32.5 -16.5t-32.5 17.5t-11.5 40.5q0 24 11.5 41.5t32.5 17.5t32.5 -17t11.5 -42zM615 52q0 -25 -11.5 -41.5t-32.5 -16.5 t-32.5 17.5t-11.5 40.5q0 24 11.5 41.5t32.5 17.5t32.5 -17t11.5 -42z" />
<glyph unicode="&#x202f;" horiz-adv-x="197" />
<glyph unicode="&#x2039;" horiz-adv-x="190" d="M155 478l-72 -61l72 -62v-94l-121 122v65l121 127v-97z" />
<glyph unicode="&#x203a;" horiz-adv-x="190" d="M106 417l-72 61v97l121 -127v-65l-121 -122v94z" />
<glyph unicode="&#x205f;" horiz-adv-x="246" />
<glyph unicode="&#x20ac;" horiz-adv-x="343" d="M226 74q29 0 48 22l46 -77q-42 -33 -94 -33q-63 0 -108 44.5t-45 107.5v160h-52l7 53h45v61h-52l7 51h45v181q0 63 45 107.5t108 44.5q42 0 71 -19l-14 -107q-17 38 -57 38q-28 0 -46.5 -19t-18.5 -45v-181h96l-6 -51h-90v-61h82l-7 -53h-75v-160q0 -27 18.5 -45.5 t46.5 -18.5z" />
<glyph unicode="&#x2122;" horiz-adv-x="610" d="M575 339h-63v270l-51 -270h-69l-52 272v-272h-63v410h94l56 -272l56 272h92v-410zM35 749h199v-67h-65v-343h-67v343h-67v67z" />
<glyph unicode="&#xf8ff;" horiz-adv-x="186" />
<glyph unicode="&#xfb01;" horiz-adv-x="444" d="M415 761q-1 -24 -13.5 -39.5t-31.5 -15.5q-20 0 -33 16t-13 39q0 22 13 38t33 16q19 0 32 -16t13 -38zM412 611v-611h-88v611h88zM214 815q36 0 70 -14l-35 -85q-14 11 -35 11q-28 0 -46.5 -17t-18.5 -47v-52h65v-78h-65v-533h-88v533h-39v78h39v52q0 70 44 111t109 41z " />
<glyph unicode="&#xfb02;" horiz-adv-x="450" d="M415 815v-815h-88v786zM214 815q36 0 70 -14l-35 -85q-14 11 -35 11q-28 0 -46.5 -17t-18.5 -47v-52h65v-78h-65v-533h-88v533h-39v78h39v52q0 70 44 111t109 41z" />
</font>
</defs>
</svg>
