<?xml version="1.0" standalone="no"?>
<!DOCTYPE svg PUBLIC "-//W3C//DTD SVG 1.1//EN" "http://www.w3.org/Graphics/SVG/1.1/DTD/svg11.dtd" >
<svg xmlns="http://www.w3.org/2000/svg">
<metadata>
Copyright (c) 2015 by Fontsmith Ltd. All rights reserved. This font may not be altered in any way without prior permission of Fontsmith Ltd.
</metadata>
<defs>
<font id="INGMe" horiz-adv-x="563" >
  <font-face 
    font-family="ING Me"
    font-weight="400"
    font-stretch="normal"
    units-per-em="1000"
    panose-1="2 0 5 6 4 0 0 2 0 4"
    ascent="750"
    descent="-250"
    x-height="528"
    cap-height="720"
    bbox="-93.8889 -276 1197 1076"
    underline-thickness="52"
    underline-position="-48"
    unicode-range="U+000D-FB04"
  />
<missing-glyph horiz-adv-x="694" 
d="M90 720h514v-720h-514v720zM522 52l-174 262l-176 -262h350zM316 360l-174 262v-524zM553 622l-175 -262l175 -262v524zM522 669h-350l176 -263z" />
    <glyph glyph-name="fi" unicode="fi" horiz-adv-x="561" 
d="M426 0q-15 0 -15 14v500q0 14 15 14h43q15 0 15 -14v-500q0 -14 -15 -14h-43zM414 686q-38 16 -67.5 22.5t-55.5 6.5q-37 0 -59.5 -11.5t-35 -32t-16.5 -48t-4 -59.5v-36h142q14 0 14 -15v-30q0 -15 -14 -15h-142v-454q0 -14 -15 -14h-43q-15 0 -15 14v454h-77
q-14 0 -14 15v30q0 15 14 15h77v27q0 109 44.5 165t150.5 56q35 0 72 -9.5t71 -28.5q9 -5 10.5 -10t-2.5 -13l-11 -22q-4 -8 -8.5 -10t-15.5 3z" />
    <glyph glyph-name="fl" unicode="fl" horiz-adv-x="567" 
d="M482 114q0 -33 6.5 -45.5t32.5 -12.5q14 0 14 -13v-20q0 -8 -2 -11.5t-8 -5.5q-5 -2 -15.5 -4t-21.5 -2q-25 0 -42 9.5t-25 25.5q-8 14 -10 36.5t-2 61.5v383q0 72 -1 116t-3 70q-23 7 -47 10.5t-51 3.5q-71 0 -101 -35t-30 -107v-46h142q14 0 14 -15v-30q0 -15 -14 -15
h-142v-454q0 -14 -15 -14h-43q-15 0 -15 14v454h-77q-14 0 -14 15v30q0 15 14 15h77v43q0 98 50 151.5t153 53.5q10 0 26.5 -1t36 -3.5t40 -7t40.5 -11.5q17 -6 22 -12t6 -18q3 -35 4 -90t1 -130v-389z" />
    <glyph glyph-name="f_f" unicode="ff" horiz-adv-x="644" 
d="M12 513q0 15 14 15h77v26q0 108 46.5 161t136.5 53q49 0 94 -20q9 -4 11 -8.5t-1 -13.5l-9 -23q-3 -8 -7.5 -10t-15.5 2q-23 8 -41 10t-35 2q-59 0 -82.5 -39.5t-23.5 -110.5v-29h249v34q0 108 46.5 161t136.5 53q49 0 94 -20q9 -4 11 -8.5t-1 -13.5l-9 -23
q-3 -8 -7.5 -10t-15.5 2q-23 8 -41 10t-35 2q-59 0 -82.5 -39.5t-23.5 -110.5v-37h142q14 0 14 -15v-30q0 -15 -14 -15h-142v-454q0 -14 -15 -14h-43q-15 0 -15 14v454h-249v-454q0 -14 -15 -14h-43q-15 0 -15 14v454h-77q-14 0 -14 15v30z" />
    <glyph glyph-name="f_f_i" unicode="ffi" horiz-adv-x="883" 
d="M748 0q-15 0 -15 14v500q0 14 15 14h43q15 0 15 -14v-500q0 -14 -15 -14h-43zM640 528q14 0 14 -15v-30q0 -15 -14 -15h-142v-454q0 -14 -15 -14h-43q-15 0 -15 14v454h-249v-454q0 -14 -15 -14h-43q-15 0 -15 14v454h-77q-14 0 -14 15v30q0 15 14 15h77v26
q0 108 46.5 161t136.5 53q49 0 94 -20q9 -4 11 -8.5t-1 -13.5l-9 -23q-3 -8 -7.5 -10t-15.5 2q-23 8 -41 10t-35 2q-59 0 -82.5 -39.5t-23.5 -110.5v-29h249v27q0 109 44.5 165t150.5 56q35 0 72 -9.5t71 -28.5q9 -5 10.5 -10t-2.5 -13l-11 -22q-4 -8 -8.5 -10t-15.5 3
q-38 16 -67.5 22.5t-55.5 6.5q-37 0 -59.5 -11.5t-35 -32t-16.5 -48t-4 -59.5v-36h142z" />
    <glyph glyph-name="f_f_l" unicode="ffl" horiz-adv-x="889" 
d="M804 114q0 -33 6.5 -45.5t32.5 -12.5q14 0 14 -13v-20q0 -8 -2 -11.5t-8 -5.5q-5 -2 -15.5 -4t-21.5 -2q-25 0 -42 9.5t-25 25.5q-8 14 -10 36.5t-2 61.5v383q0 72 -1 116t-3 70q-23 7 -47 10.5t-51 3.5q-71 0 -101 -35t-30 -107v-46h142q14 0 14 -15v-30q0 -15 -14 -15
h-142v-454q0 -14 -15 -14h-43q-15 0 -15 14v454h-249v-454q0 -14 -15 -14h-43q-15 0 -15 14v454h-77q-14 0 -14 15v30q0 15 14 15h77v26q0 108 46.5 161t136.5 53q49 0 94 -20q9 -4 11 -8.5t-1 -13.5l-9 -23q-3 -8 -7.5 -10t-15.5 2q-23 8 -41 10t-35 2q-59 0 -82.5 -39.5
t-23.5 -110.5v-29h249v43q0 98 50 151.5t153 53.5q10 0 26.5 -1t36 -3.5t40 -7t40.5 -11.5q17 -6 21.5 -12t6.5 -18q3 -34 4 -89.5t1 -130.5v-389z" />
    <glyph glyph-name=".notdef" horiz-adv-x="694" 
d="M90 720h514v-720h-514v720zM522 52l-174 262l-176 -262h350zM316 360l-174 262v-524zM553 622l-175 -262l175 -262v524zM522 669h-350l176 -263z" />
    <glyph glyph-name=".null" horiz-adv-x="0" 
 />
    <glyph glyph-name=".null" horiz-adv-x="0" 
 />
    <glyph glyph-name="nonmarkingreturn" unicode="&#xd;" horiz-adv-x="250" 
 />
    <glyph glyph-name="nonbreakingspace" unicode="&#xa0;" horiz-adv-x="250" 
 />
    <glyph glyph-name="space" unicode=" " horiz-adv-x="250" 
 />
    <glyph glyph-name="A" unicode="A" horiz-adv-x="645" 
d="M345 720q11 0 16 -3.5t8 -12.5l244 -686q6 -18 -13 -18h-47q-12 0 -17 3.5t-8 12.5l-56 172h-306l-55 -172q-3 -9 -7.5 -12.5t-16.5 -3.5h-44q-18 0 -11 18l235 686q3 9 8 12.5t16 3.5h54zM450 256l-132 391l-130 -391h262z" />
    <glyph glyph-name="B" unicode="B" 
d="M99 0q-17 0 -17 16v688q0 16 17 16h157q127 0 183 -55q49 -47 49 -133q0 -47 -23 -87.5t-61 -61.5q59 -19 91 -64.5t32 -110.5q0 -60 -19.5 -100t-53 -64t-78 -34t-94.5 -10h-183zM268 65q40 0 73 6.5t57 22.5t37 43.5t13 69.5q0 59 -34 93q-21 21 -53.5 30.5t-80.5 9.5
h-121v-275h109zM261 402q77 0 113 32t36 95q0 59 -31 90q-19 18 -48.5 27t-74.5 9h-97v-253h102z" />
    <glyph glyph-name="C" unicode="C" horiz-adv-x="566" 
d="M335 -10q-141 0 -213 94t-72 265q0 85 17.5 155t54.5 120t94 78t136 28q46 0 89.5 -11t75.5 -31q9 -5 10 -11t-3 -15l-9 -21q-8 -17 -23 -10q-36 17 -70 25t-71 8q-109 0 -165 -79t-56 -229q0 -155 57 -226.5t162 -71.5q31 0 66.5 8t67.5 21q9 4 14.5 3.5t9.5 -10.5
l10 -24q5 -11 3.5 -15.5t-9.5 -9.5q-36 -18 -82 -29.5t-94 -11.5z" />
    <glyph glyph-name="D" unicode="D" horiz-adv-x="648" 
d="M598 360q0 -96 -23 -162.5t-65 -109.5q-47 -49 -112 -68.5t-161 -19.5h-138q-17 0 -17 16v688q0 16 17 16h138q96 0 161 -19.5t112 -68.5q42 -43 65 -109.5t23 -162.5zM518 360q0 72 -15.5 125t-44.5 88q-29 38 -80.5 59.5t-131.5 21.5h-87v-588h87q80 0 131.5 21.5
t80.5 59.5q29 35 44.5 88t15.5 125z" />
    <glyph glyph-name="E" unicode="E" horiz-adv-x="534" 
d="M99 0q-17 0 -17 16v688q0 16 17 16h364q17 0 17 -16v-34q0 -16 -17 -16h-304v-257h257q17 0 17 -15v-34q0 -16 -17 -16h-257v-266h308q17 0 17 -16v-34q0 -16 -17 -16h-368z" />
    <glyph glyph-name="F" unicode="F" horiz-adv-x="473" 
d="M159 16q0 -16 -17 -16h-43q-17 0 -17 16v688q0 16 17 16h330q17 0 17 -16v-34q0 -16 -17 -16h-270v-257h223q17 0 17 -15v-34q0 -16 -17 -16h-223v-316z" />
    <glyph glyph-name="G" unicode="G" horiz-adv-x="649" 
d="M342 320q-17 0 -17 16v33q0 15 17 15h224q17 0 17 -15v-311q0 -11 -3.5 -17.5t-16.5 -11.5q-42 -18 -93.5 -28.5t-102.5 -10.5q-75 0 -131 21t-94 60q-46 47 -69 117.5t-23 161.5q0 96 24.5 170.5t71.5 124.5q39 42 93.5 63.5t123.5 21.5q63 0 112.5 -14.5t83.5 -37.5
q14 -10 6 -26l-10 -21q-5 -9 -9.5 -12t-13.5 2q-76 44 -167 44q-106 0 -163 -65q-37 -41 -54.5 -102.5t-17.5 -139.5q0 -79 18 -140t56 -100q29 -29 71.5 -45t102.5 -16q32 0 69 7t62 17v239h-167z" />
    <glyph glyph-name="H" unicode="H" horiz-adv-x="654" 
d="M99 0q-17 0 -17 16v688q0 16 17 16h43q17 0 17 -16v-307h336v307q0 16 17 16h43q17 0 17 -16v-688q0 -16 -17 -16h-43q-17 0 -17 16v316h-336v-316q0 -16 -17 -16h-43z" />
    <glyph glyph-name="I" unicode="I" horiz-adv-x="249" 
d="M103 0q-17 0 -17 16v688q0 16 17 16h43q17 0 17 -16v-688q0 -16 -17 -16h-43z" />
    <glyph glyph-name="J" unicode="J" horiz-adv-x="456" 
d="M121 654q-17 0 -17 16v34q0 16 17 16h242q17 0 17 -16v-495q0 -56 -10 -97.5t-35 -69.5q-23 -26 -61.5 -39t-88.5 -13q-20 0 -40.5 3t-40 7.5t-37 10.5t-30.5 13q-9 5 -10 10.5t3 16.5l8 22q4 11 10 12t17 -3q36 -13 66 -19.5t56 -6.5q58 0 88 33q17 19 22.5 46t5.5 60
v459h-182z" />
    <glyph glyph-name="K" unicode="K" 
d="M449 705q7 10 12 12.5t17 2.5h38q13 0 14.5 -6t-3.5 -14l-232 -329l240 -351q6 -8 3.5 -14t-11.5 -6h-52q-11 0 -16 3t-12 13l-201 298q-8 11 -14 14t-20 3h-53v-315q0 -16 -17 -16h-43q-17 0 -17 16v688q0 16 17 16h43q17 0 17 -16v-306h51q14 0 20.5 3t14.5 14z" />
    <glyph glyph-name="L" unicode="L" horiz-adv-x="501" 
d="M159 66h285q17 0 17 -16v-34q0 -16 -17 -16h-345q-17 0 -17 16v688q0 16 17 16h43q17 0 17 -16v-638z" />
    <glyph glyph-name="M" unicode="M" horiz-adv-x="776" 
d="M616 355q-1 28 -2.5 61t-2.5 65t-2.5 61.5t-2.5 50.5l-84 -220l-87 -225q-5 -11 -9.5 -15t-16.5 -4h-38q-12 0 -16.5 4t-9.5 15l-90 225q-19 48 -41.5 105.5t-43.5 114.5q-2 -52 -4.5 -116.5t-5.5 -121.5l-16 -341q0 -14 -14 -14h-46q-14 0 -14 14l34 687q1 19 21 19h50
q11 0 16.5 -4t9.5 -14l93 -236q16 -42 30 -76.5t25.5 -65t21.5 -58.5t20 -55q10 27 20 55t22 59t25 66t29 76l90 235q4 9 8.5 13.5t15.5 4.5h55q20 0 21 -19l29 -687q0 -14 -14 -14h-46q-16 0 -16 14z" />
    <glyph glyph-name="N" unicode="N" horiz-adv-x="688" 
d="M155 16q0 -16 -17 -16h-39q-17 0 -17 16v688q0 16 16 16h43q14 0 20.5 -3.5t14.5 -17.5l250 -403q34 -56 59.5 -98.5t50.5 -86.5q-2 40 -2.5 91t-0.5 104v398q0 16 17 16h39q17 0 17 -16v-688q0 -16 -17 -16h-42q-14 0 -20.5 3.5t-14.5 17.5l-250 403q-35 57 -61 99.5
t-49 85.5q2 -40 2.5 -91t0.5 -104v-398z" />
    <glyph glyph-name="O" unicode="O" horiz-adv-x="697" 
d="M341 57q52 0 94 20.5t72 60.5t46 97t16 131q0 69 -14.5 124.5t-41.5 93.5t-66.5 58.5t-90.5 20.5q-52 0 -94 -20.5t-72 -60.5t-46 -97.5t-16 -130.5q0 -69 14.5 -124.5t41.5 -93.5t66.5 -58.5t90.5 -20.5zM337 -10q-64 0 -117 23.5t-91.5 69.5t-59.5 113t-21 154
q0 88 22.5 158.5t64 119.5t99 75.5t126.5 26.5q64 0 117 -23.5t91.5 -69.5t59.5 -113t21 -154q0 -88 -22.5 -158.5t-64 -119.5t-99 -75.5t-126.5 -26.5z" />
    <glyph glyph-name="P" unicode="P" horiz-adv-x="534" 
d="M99 0q-17 0 -17 16v688q0 16 17 16h151q73 0 122.5 -15t80.5 -44q55 -54 55 -154q0 -115 -63 -175q-59 -56 -176 -56q-23 0 -53.5 2t-56.5 7v-269q0 -16 -17 -16h-43zM159 656v-309q28 -5 55 -6.5t50 -1.5q86 0 127 45q18 20 28 50t10 69q0 78 -38 114q-21 21 -54 30
t-79 9h-99z" />
    <glyph glyph-name="Q" unicode="Q" horiz-adv-x="697" 
d="M445 9q-52 -19 -108 -19q-64 0 -117 23.5t-91.5 69.5t-59.5 113t-21 154q0 88 22.5 158.5t64 119.5t99 75.5t126.5 26.5q64 0 117 -23.5t91.5 -69.5t59.5 -113t21 -154q0 -115 -37.5 -198t-103.5 -130q19 -25 39.5 -46.5t52.5 -52.5q15 -15 4 -26l-28 -26q-13 -13 -24 -2
q-32 32 -56.5 59t-50.5 61zM341 57q52 0 94 20.5t72 60.5t46 97t16 131q0 69 -14.5 124.5t-41.5 93.5t-66.5 58.5t-90.5 20.5q-52 0 -94 -20.5t-72 -60.5t-46 -97.5t-16 -130.5q0 -69 14.5 -124.5t41.5 -93.5t66.5 -58.5t90.5 -20.5z" />
    <glyph glyph-name="R" unicode="R" 
d="M159 656v-292h106q46 0 78 12t51.5 33t28 48.5t8.5 58.5q0 66 -32 99q-20 21 -54 31t-86 10h-100zM159 302v-286q0 -16 -17 -16h-43q-17 0 -17 16v688q0 16 17 16h163q137 0 197 -59q52 -50 52 -142q0 -81 -40 -133.5t-115 -75.5l159 -288q6 -11 3 -16.5t-13 -5.5h-45
q-14 0 -19 3t-10 11l-144 271q-6 11 -12 14t-20 3h-96z" />
    <glyph glyph-name="S" unicode="S" horiz-adv-x="507" 
d="M68 92q8 14 24 6q35 -20 76 -31.5t77 -11.5q76 0 116 40q37 37 37 98q0 42 -25 70.5t-62.5 50.5t-81.5 41.5t-81.5 45.5t-62.5 62t-25 91q0 41 15.5 74t43 55.5t66.5 34.5t86 12q48 0 90.5 -11.5t74.5 -32.5q6 -4 7 -8.5t-4 -13.5l-12 -23q-5 -10 -10.5 -10.5t-13.5 3.5
q-63 30 -128 30q-70 0 -106 -29q-17 -14 -26 -34t-9 -46q0 -39 25 -65t62.5 -47.5t81.5 -42t81.5 -48t62.5 -65t25 -92.5q0 -44 -13.5 -81.5t-41 -65t-69.5 -43t-99 -15.5q-49 0 -101 13.5t-88 37.5q-15 9 -5 27z" />
    <glyph glyph-name="T" unicode="T" horiz-adv-x="503" 
d="M290 654v-638q0 -16 -17 -16h-43q-17 0 -17 16v638h-182q-17 0 -17 16v34q0 16 17 16h441q17 0 17 -16v-34q0 -16 -17 -16h-182z" />
    <glyph glyph-name="U" unicode="U" horiz-adv-x="675" 
d="M599 265q0 -73 -16.5 -123.5t-48.5 -83.5q-66 -68 -196 -68t-196 67q-32 33 -49 83.5t-17 123.5v440q0 16 17 16h43q17 0 17 -16v-431q0 -66 13.5 -107.5t40.5 -66.5q48 -44 131 -44t131 44q27 25 40.5 66.5t13.5 107.5v431q0 16 17 16h43q16 0 16 -16v-439z" />
    <glyph glyph-name="V" unicode="V" horiz-adv-x="613" 
d="M223 351q25 -78 47 -149.5t40 -133.5q16 55 37 124t49 159l108 353q3 9 7 12.5t16 3.5h45q18 0 11 -18l-222 -686q-3 -9 -8 -12.5t-16 -3.5h-54q-11 0 -15.5 3t-8.5 13l-229 686q-6 18 13 18h44q12 0 16.5 -3.5t7.5 -12.5z" />
    <glyph glyph-name="W" unicode="W" horiz-adv-x="956" 
d="M845 704q2 10 8 13t17 3h38q19 0 14 -18l-175 -686q-4 -16 -24 -16h-65q-11 0 -16.5 3t-7.5 13l-86 346q-10 39 -19.5 78.5t-18 77t-16 71t-13.5 60.5q-6 -25 -14 -61t-17 -75.5t-18 -79.5t-17 -73l-83 -344q-4 -16 -24 -16h-64q-11 0 -16 3t-8 13l-186 686q-2 8 0 13
t13 5h44q11 0 15.5 -3t6.5 -13l90 -354l73 -287q6 28 15 67t18.5 79.5t18.5 78t15 63.5l85 353q4 16 24 16h58q11 0 16.5 -3t7.5 -13l88 -354l38.5 -154t33.5 -133l68 288z" />
    <glyph glyph-name="X" unicode="X" 
d="M383 150q-29 49 -52.5 91.5t-45.5 81.5l-99 -173l-78 -135q-5 -10 -10 -12.5t-16 -2.5h-47q-8 0 -10 5t3 13l116 194q33 56 59.5 98t44.5 70q-24 39 -50 84.5t-52 89.5l-87 148q-4 7 -1.5 12.5t10.5 5.5h47q11 0 15.5 -3t9.5 -12l59 -101l99 -173q21 39 46.5 84.5
t50.5 88.5l58 101q5 10 10 12.5t16 2.5h47q8 0 10 -5t-3 -13l-88 -147q-24 -41 -53 -86.5t-60 -94.5q21 -34 47 -77t57 -96l107 -183q4 -7 1.5 -12.5t-10.5 -5.5h-47q-11 0 -15.5 3t-9.5 12z" />
    <glyph glyph-name="Y" unicode="Y" horiz-adv-x="526" 
d="M239 0q-17 0 -17 16v268l-205 421q-3 7 0 11t10 4h49q11 0 15 -2t8 -10l83 -178q30 -64 50 -108.5t31 -73.5q6 15 14.5 36t19 45.5t23 51t24.5 51.5l85 174q4 8 8 11t13 3h48q8 0 11 -4t-1 -12l-209 -423v-265q0 -16 -17 -16h-43z" />
    <glyph glyph-name="Z" unicode="Z" horiz-adv-x="537" 
d="M57 0q-16 0 -16 16v32q0 14 2 22.5t10 20.5l353 563h-327q-16 0 -16 16v34q0 16 16 16h400q17 0 17 -16v-29q0 -11 -2.5 -18t-8.5 -17l-360 -574h362q16 0 16 -16v-34q0 -16 -17 -16h-429z" />
    <glyph glyph-name="a" unicode="a" horiz-adv-x="565" 
d="M431 13q-3 12 -6 29t-5 36q-24 -42 -65 -65t-92 -23q-57 0 -97.5 22.5t-67 59t-38.5 84.5t-12 99q0 66 18 118.5t48.5 89t72 56t88.5 19.5q44 0 81.5 -18t62.5 -49q1 10 2 25t3 21q2 11 15 11h36q9 0 12 -3t3 -10q-2 -41 -3.5 -83.5t-1.5 -80.5v-123q0 -55 4 -114t11 -99
q3 -15 -13 -15h-38q-15 0 -18 13zM272 56q29 0 56.5 12.5t46.5 36.5q17 22 27 55t10 78v164q-9 14 -23.5 27t-32 22.5t-37 15t-38.5 5.5q-42 0 -71.5 -18t-48 -47t-27.5 -67.5t-9 -78.5q0 -44 9 -81.5t27 -65t45.5 -43t65.5 -15.5z" />
    <glyph glyph-name="b" unicode="b" horiz-adv-x="560" 
d="M151 465q26 32 65 52.5t87 20.5q42 0 76 -14t58 -38q37 -36 55 -89.5t18 -116.5q0 -70 -19 -127t-56 -95q-32 -33 -77.5 -50.5t-105.5 -17.5q-41 0 -85.5 8t-74.5 20q-9 4 -11.5 9t-2.5 13v712q0 14 15 14h43q15 0 15 -14v-287zM151 73q20 -8 46.5 -13t55.5 -5
q41 0 72 13.5t53 36.5q55 60 55 166q0 101 -35 147.5t-101 46.5q-34 0 -63 -10.5t-49 -29.5q-11 -10 -17.5 -22.5t-10 -32t-5 -48t-1.5 -71.5v-178z" />
    <glyph glyph-name="c" unicode="c" horiz-adv-x="483" 
d="M278 -10q-51 0 -93.5 19t-73 53.5t-47 83.5t-16.5 109q0 70 19 123.5t52 88.5t76.5 53t92.5 18q86 0 159 -47q11 -8 4 -22l-16 -32q-5 -8 -11 -8.5t-12 3.5q-33 20 -62 29t-61 9q-73 0 -118.5 -55t-45.5 -155q0 -49 12 -86.5t34 -63t52 -39t65 -13.5q32 0 64 9t61 23
q16 8 22 -7l11 -30q6 -15 -6 -22q-35 -20 -75.5 -30.5t-86.5 -10.5z" />
    <glyph glyph-name="d" unicode="d" horiz-adv-x="575" 
d="M493 -1q-70 0 -79 72q-24 -39 -64 -60t-89 -21q-57 0 -97.5 22.5t-66 59t-37.5 84.5t-12 99q0 71 20.5 125.5t55.5 91.5q30 32 71 49t87 17q35 0 68.5 -10t59.5 -30v254q0 14 15 14h43q15 0 15 -14v-631q0 -38 7 -50.5t32 -12.5q13 0 13 -13v-25q0 -11 -8 -16t-34 -5z
M270 56q29 0 56.5 12.5t46.5 36.5q17 22 27 55t10 78v194q-26 20 -57.5 30t-63.5 10q-68 0 -106 -38q-31 -30 -44.5 -76t-13.5 -97q0 -44 8.5 -81.5t26 -65t45 -43t65.5 -15.5z" />
    <glyph glyph-name="e" unicode="e" horiz-adv-x="544" 
d="M289 -10q-62 0 -107 18.5t-75 52.5t-44.5 82t-14.5 107q0 63 17 116t48 91.5t75 59.5t99 21q53 0 92.5 -20.5t66 -56.5t39.5 -85.5t13 -107.5q0 -31 -17 -31h-356q2 -92 47 -135.5t133 -43.5q29 0 62 7.5t69 24.5q13 6 19 -6l13 -31q5 -13 -8 -21q-71 -42 -171 -42z
M288 470q-69 0 -109.5 -44.5t-51.5 -124.5h296q0 30 -8 60t-24.5 54t-42 39.5t-60.5 15.5z" />
    <glyph glyph-name="f" unicode="f" horiz-adv-x="322" 
d="M12 513q0 15 14 15h77v34q0 108 46.5 161t136.5 53q49 0 94 -20q9 -4 11 -8.5t-1 -13.5l-9 -23q-3 -8 -7.5 -10t-15.5 2q-23 8 -41 10t-35 2q-59 0 -82.5 -39.5t-23.5 -110.5v-37h142q14 0 14 -15v-30q0 -15 -14 -15h-142v-454q0 -14 -15 -14h-43q-15 0 -15 14v454h-77
q-14 0 -14 15v30z" />
    <glyph glyph-name="g" unicode="g" horiz-adv-x="566" 
d="M379 -145q21 24 30 57.5t9 78.5v81q-25 -35 -64.5 -55.5t-86.5 -20.5q-57 0 -98.5 22t-68 58t-39.5 83.5t-13 98.5q0 66 18.5 118t50.5 88t75 55t91 19q41 0 79.5 -18.5t62.5 -48.5q1 15 2 26.5t3 19.5q2 11 15 11h26q10 0 13 -3.5t4 -11.5q2 -28 2.5 -65.5t0.5 -73.5
v-390q0 -57 -14 -101.5t-46 -76.5q-28 -28 -70 -43t-104 -15q-33 0 -68.5 5t-53.5 10q-10 3 -12 7.5t0 11.5l6 29q2 9 6 11.5t15 0.5q27 -5 53 -8t56 -3q43 0 72.5 11.5t47.5 31.5zM276 63q29 0 57.5 12.5t47.5 36.5q17 22 27 55t10 78v157q-9 15 -23.5 27.5t-32.5 22
t-38 14.5t-39 5q-42 0 -72 -17t-49.5 -46t-29 -66.5t-9.5 -77.5q0 -44 9.5 -81t28 -63.5t47 -41.5t66.5 -15z" />
    <glyph glyph-name="h" unicode="h" horiz-adv-x="583" 
d="M153 14q0 -14 -15 -14h-43q-15 0 -15 14v738q0 14 15 14h43q15 0 15 -14v-283q26 29 70.5 49t93.5 20q42 0 79.5 -13.5t63.5 -39.5q28 -28 39.5 -69t11.5 -104v-298q0 -14 -15 -14h-43q-15 0 -15 14v255q0 64 -4.5 100.5t-25.5 60.5q-32 36 -105 36q-33 0 -66.5 -11.5
t-53.5 -31.5q-12 -14 -18 -31.5t-8 -45.5q-2 -26 -3 -64t-1 -87v-181z" />
    <glyph glyph-name="i" unicode="i" horiz-adv-x="227" 
d="M92 0q-15 0 -15 14v500q0 14 15 14h43q15 0 15 -14v-500q0 -14 -15 -14h-43zM79 638q-15 0 -15 14v71q0 14 15 14h68q16 0 16 -14v-71q0 -14 -16 -14h-68z" />
    <glyph glyph-name="j" unicode="j" horiz-adv-x="238" 
d="M88 514q0 14 15 14h43q15 0 15 -14v-514q0 -63 -9.5 -106t-31.5 -72q-42 -55 -133 -55q-19 0 -39.5 3t-31.5 7q-6 2 -8.5 6t-0.5 13l5 26q2 8 5.5 10.5t13.5 0.5q11 -2 24 -3t28 -1q24 0 45 7.5t35 28.5q13 19 19 52t6 87v510zM90 638q-15 0 -15 14v71q0 14 15 14h68
q16 0 16 -14v-71q0 -14 -16 -14h-68z" />
    <glyph glyph-name="k" unicode="k" horiz-adv-x="483" 
d="M95 0q-15 0 -15 14v738q0 14 15 14h43q15 0 15 -14v-451h43q12 0 18.5 3t12.5 11l132 201q5 7 8.5 9.5t14.5 2.5h43q12 0 12 -8q0 -5 -3 -9l-161 -237l187 -257q3 -5 3 -9q0 -8 -10 -8h-48q-12 0 -17 3t-10 10l-150 208q-8 11 -13.5 13t-19.5 2h-42v-222q0 -14 -15 -14
h-43z" />
    <glyph glyph-name="l" unicode="l" horiz-adv-x="233" 
d="M148 114q0 -33 6.5 -45.5t32.5 -12.5q14 0 14 -13v-20q0 -8 -2 -11.5t-8 -5.5q-5 -2 -15.5 -4t-21.5 -2q-25 0 -42 9.5t-25 25.5q-8 14 -10 36.5t-2 61.5v383q0 67 -1 109.5t-2 68.5t-2 38.5t-1 19.5q0 14 13 14h45q13 0 14 -11q3 -23 5 -86.5t2 -165.5v-389z" />
    <glyph glyph-name="m" unicode="m" horiz-adv-x="922" 
d="M153 468q26 30 68.5 50t91.5 20q60 0 103 -25.5t62 -65.5q28 40 74.5 65.5t107.5 25.5q38 0 75.5 -13t64.5 -41q23 -24 36.5 -61.5t13.5 -94.5v-314q0 -14 -16 -14h-42q-15 0 -15 14v255q0 64 -5 100.5t-25 60.5q-16 20 -42.5 28t-58.5 8q-31 0 -63 -11t-51 -32
q-7 -8 -15 -23.5t-12 -53.5q-2 -23 -2.5 -62.5t-0.5 -88.5v-181q0 -14 -15 -14h-43q-15 0 -15 14v255q0 64 -5 100.5t-25 60.5q-16 20 -42.5 28t-58.5 8q-31 0 -63 -11t-51 -32q-7 -8 -15 -23.5t-11 -53.5q-2 -23 -3 -62.5t-1 -88.5v-181q0 -14 -15 -14h-43q-15 0 -15 14
v302q0 58 -0.5 108.5t-2.5 89.5q0 14 15 14h40q16 0 17 -14q1 -7 2 -21t1 -25z" />
    <glyph glyph-name="n" unicode="n" horiz-adv-x="584" 
d="M153 468q26 30 71 50t94 20q42 0 79.5 -13.5t63.5 -39.5q28 -28 39.5 -69t11.5 -104v-298q0 -14 -15 -14h-43q-15 0 -15 14v255q0 64 -4.5 100.5t-25.5 60.5q-32 36 -105 36q-33 0 -66.5 -11.5t-53.5 -31.5q-12 -14 -18 -31.5t-8 -45.5q-2 -26 -3 -64t-1 -87v-181
q0 -14 -15 -14h-43q-15 0 -15 14v302q0 58 -0.5 108.5t-2.5 89.5q0 14 15 14h40q16 0 17 -14q1 -7 2 -22t1 -24z" />
    <glyph glyph-name="o" unicode="o" horiz-adv-x="567" 
d="M273 -10q-59 0 -101.5 20t-70 55.5t-40.5 83t-13 102.5q0 72 18 126t51 89.5t78 53.5t99 18q59 0 101.5 -20t70 -55.5t40.5 -83t13 -102.5q0 -72 -18 -126t-51 -89.5t-78 -53.5t-99 -18zM277 56q30 0 60 11t53 36t37.5 66t14.5 100q0 33 -6.5 69t-23.5 65.5t-46.5 49
t-75.5 19.5q-30 0 -60 -11t-53 -36t-37.5 -66t-14.5 -100q0 -33 6.5 -69t23.5 -65.5t46.5 -49t75.5 -19.5z" />
    <glyph glyph-name="p" unicode="p" horiz-adv-x="560" 
d="M435 272q0 101 -35 147t-101 46q-34 0 -62.5 -10.5t-48.5 -29.5q-11 -10 -17.5 -22.5t-10 -32t-5 -48t-1.5 -71.5v-154q22 -17 54 -28t67 -11q36 0 65.5 15.5t50.5 43.5t32.5 67.5t11.5 87.5zM154 465q26 32 64.5 52.5t86.5 20.5q42 0 76 -14t58 -38q37 -36 55 -89.5
t18 -116.5q0 -74 -19 -128.5t-51.5 -90t-74.5 -53t-87 -17.5q-35 0 -69 11t-57 27v-256q0 -15 -15 -15h-43q-15 0 -15 15v543q0 58 -0.5 108.5t-2.5 89.5q0 14 15 14h40q16 0 17 -14q1 -7 2.5 -23.5t1.5 -25.5z" />
    <glyph glyph-name="q" unicode="q" horiz-adv-x="558" 
d="M270 56q29 0 56.5 12.5t46.5 36.5q17 22 27 55t10 78v217q-16 7 -41 12.5t-55 5.5q-90 0 -139.5 -58t-49.5 -158q0 -102 39 -151.5t106 -49.5zM426 -228q-2 11 -4.5 36.5t-5 55.5t-4.5 59.5t-2 50.5v90q-26 -35 -65.5 -54.5t-91.5 -19.5q-44 0 -81.5 18.5t-65 52t-43 81
t-15.5 106.5q0 67 19 121t53.5 91.5t82.5 57.5t105 20q79 0 156 -30q12 -5 15.5 -11t3.5 -18v-483q0 -25 1.5 -56t4 -61.5t5 -59t5.5 -47.5q1 -14 -15 -14h-43q-13 0 -15 14z" />
    <glyph glyph-name="r" unicode="r" horiz-adv-x="357" 
d="M152 416q25 53 70 85t94 32q12 0 17.5 -3t5.5 -14v-35q0 -6 -2.5 -10t-10.5 -6q-39 -7 -65.5 -20t-46.5 -33q-32 -32 -46 -79t-14 -124v-195q0 -14 -15 -14h-43q-15 0 -15 14v302q0 58 -0.5 108.5t-2.5 89.5q0 14 15 14h39q16 0 17 -14q2 -17 2.5 -45t0.5 -53z" />
    <glyph glyph-name="s" unicode="s" horiz-adv-x="448" 
d="M406 151q0 -34 -13 -63.5t-37.5 -51t-59.5 -34t-78 -12.5q-45 0 -88 12.5t-73 32.5q-8 5 -9 11t3 13l13 24q4 7 9 10t13 -2q38 -20 68.5 -28.5t65.5 -8.5q54 0 85.5 27.5t31.5 67.5q0 32 -21 49t-52.5 28t-68 20t-68 24.5t-52.5 43t-21 75.5q0 36 14.5 63.5t38.5 46.5
t56.5 29t68.5 10q45 0 86.5 -14.5t74.5 -41.5q13 -10 0 -27l-17 -21q-10 -11 -22 -2q-28 20 -59 31t-66 11q-53 0 -79.5 -23t-26.5 -58q0 -33 21 -50t52.5 -27.5t68 -19.5t68 -25t52.5 -43.5t21 -76.5z" />
    <glyph glyph-name="t" unicode="t" horiz-adv-x="365" 
d="M21 468q-14 0 -14 15v30q0 15 14 15h77v141q0 14 15 14h43q15 0 15 -14v-141h130q14 0 14 -15v-30q0 -15 -14 -15h-130v-309q0 -32 2.5 -53t13.5 -32q8 -10 22.5 -15t37.5 -5q17 0 39 4t40 11q11 4 15 1t7 -11l7 -20q4 -11 0.5 -15t-8.5 -8q-14 -9 -45.5 -17.5
t-64.5 -8.5q-35 0 -61 8.5t-41 22.5q-22 20 -29.5 50t-7.5 81v316h-77z" />
    <glyph glyph-name="u" unicode="u" horiz-adv-x="580" 
d="M427 60q-26 -31 -71 -50.5t-93 -19.5q-40 0 -77 13.5t-63 39.5q-28 28 -39.5 69t-11.5 104v298q0 14 15 14h43q15 0 15 -14v-255q0 -64 5 -100.5t25 -60.5q30 -36 103 -36q30 0 64 11.5t54 31.5q7 8 15 23.5t11 53.5q2 23 3 62.5t1 88.5v181q0 14 15 14h43q15 0 15 -14
v-302q0 -58 0.5 -108.5t2.5 -89.5q0 -14 -15 -14h-40q-16 0 -17 14q-1 7 -2 21t-1 25z" />
    <glyph glyph-name="v" unicode="v" horiz-adv-x="485" 
d="M388 514q2 9 6.5 11.5t11.5 2.5h41q17 0 13 -16q-40 -152 -83 -275.5t-82 -220.5q-5 -11 -9 -13.5t-17 -2.5h-39q-14 0 -18.5 3t-8.5 13l-181 496q-5 16 12 16h44q10 0 14 -3t7 -11l94 -263q16 -45 30 -85.5t29 -86.5q38 104 74 216.5t62 218.5z" />
    <glyph glyph-name="w" unicode="w" horiz-adv-x="766" 
d="M590 16q-3 -9 -8 -12.5t-17 -3.5h-45q-12 0 -17.5 4t-7.5 12l-69 259q-14 54 -24 98.5t-18 78.5l-44 -178l-66 -258q-2 -8 -7.5 -12t-17.5 -4h-46q-12 0 -17.5 4t-7.5 12l-150 496q-5 16 12 16h44q8 0 13.5 -2.5t7.5 -10.5l75 -265q11 -40 21.5 -79t23.5 -87l42 164
l68 263q2 9 6.5 13t18.5 4h46q14 0 18 -3.5t7 -13.5l53 -197q14 -52 29.5 -105t32.5 -116q43 125 72 227.5t47 194.5q2 8 5.5 10.5t13.5 2.5h38q10 0 12 -4t0 -15q-20 -99 -55 -219t-89 -274z" />
    <glyph glyph-name="x" unicode="x" horiz-adv-x="485" 
d="M460 17q4 -6 2 -11.5t-11 -5.5h-45q-11 0 -16 2.5t-10 10.5l-64 98l-79 120l-72 -119l-60 -99q-5 -8 -9.5 -10.5t-15.5 -2.5h-46q-9 0 -11 5.5t3 12.5l104 158q20 32 38 57.5t33 47.5l-72 106l-84 124q-4 6 -2 11.5t11 5.5h45q11 0 16 -2.5t10 -10.5l45 -68
q9 -14 20 -30.5t21.5 -32.5t19 -30t13.5 -22q5 9 13 23t18 30l20 32t18 30l42 68q5 8 9.5 10.5t15.5 2.5h44q9 0 11 -5.5t-3 -12.5l-81 -123l-70 -105q17 -24 34.5 -49.5t39.5 -57.5z" />
    <glyph glyph-name="y" unicode="y" horiz-adv-x="574" 
d="M426 59q-26 -31 -70.5 -50t-92.5 -19q-40 0 -77 13.5t-63 39.5q-28 28 -39.5 69t-11.5 104v298q0 14 15 14h43q15 0 15 -14v-255q0 -64 5 -100.5t25 -60.5q30 -36 103 -36q30 0 64 11.5t54 31.5q7 8 15 23.5t11 53.5q2 23 3 57.5t1 83.5v191q0 14 15 14h43q15 0 15 -14
v-530q0 -57 -14 -101.5t-46 -76.5q-28 -28 -70 -43t-104 -15q-33 0 -68.5 5t-53.5 10q-10 3 -12 7.5t0 11.5l6 29q2 9 6 11.5t15 0.5q27 -5 52 -8t57 -3q43 0 72.5 11.5t47.5 31.5q21 24 30 57.5t9 78.5v68z" />
    <glyph glyph-name="z" unicode="z" horiz-adv-x="447" 
d="M311 468h-248q-14 0 -14 16v29q0 15 14 15h323q15 0 15 -15v-15q0 -22 -14 -40l-261 -398h266q15 0 15 -16v-29q0 -15 -15 -15h-340q-14 0 -14 15v15q0 19 14 40z" />
    <glyph glyph-name="ampersand" unicode="&#x26;" horiz-adv-x="701" 
d="M274 -12q-55 0 -99.5 16t-75.5 43.5t-48 64.5t-17 79q0 71 47 124.5t124 85.5q-36 40 -56.5 79t-20.5 81q0 39 15 70.5t40 53.5t58 33.5t69 11.5t67 -11t54 -31.5t36 -50t13 -67.5q0 -60 -41.5 -105.5t-119.5 -80.5l188 -175q20 38 34.5 82t21.5 94q2 10 5 12.5t10 2.5
h37q16 0 13 -15q-8 -54 -25.5 -111t-47.5 -109l118 -110q8 -8 9 -14t-7 -15l-19 -22q-13 -14 -24 -3l-116 107q-43 -53 -102.5 -86.5t-139.5 -33.5zM278 54q56 0 104.5 26t86.5 73l-221 206q-61 -28 -99 -68t-38 -95q0 -32 12.5 -58t35 -45t53 -29t66.5 -10zM200 563
q0 -61 75 -137q70 32 103.5 65.5t33.5 77.5q0 43 -29.5 71t-74.5 28q-48 0 -78 -29t-30 -76z" />
    <glyph glyph-name="at" unicode="@" horiz-adv-x="822" 
d="M390 -10q-76 0 -139.5 22.5t-110 66.5t-72.5 109.5t-26 151.5q0 80 29.5 151t82 124t125 84t158.5 31q75 0 138 -21.5t108.5 -61t71 -96.5t25.5 -128q0 -53 -11 -100.5t-33 -83.5t-54.5 -57.5t-75.5 -21.5q-45 0 -71 20.5t-34 48.5q-20 -32 -54 -50t-69 -18q-36 0 -63 13
t-45 35t-27.5 51.5t-9.5 63.5q0 50 16.5 91.5t44 71t63 46t74.5 16.5q58 0 106 -40l8 18q3 7 6.5 9.5t12.5 2.5h20q10 0 13 -3t1 -12l-36 -197q-2 -14 -3.5 -26.5t-1.5 -20.5q0 -31 13.5 -48t42.5 -17q43 0 72 54t29 151q0 57 -19.5 103t-55.5 78.5t-86.5 50t-111.5 17.5
q-78 0 -139 -26.5t-103.5 -72t-65 -105t-22.5 -125.5q0 -60 17.5 -112.5t53.5 -91.5t90 -61t128 -22q35 0 77 6t78 16q14 4 17 -9l7 -28q2 -9 0.5 -13t-7.5 -6q-39 -14 -87.5 -21.5t-94.5 -7.5zM461 251q17 19 24.5 46t14.5 62l21 103q-19 16 -41 24t-44 8
q-27 0 -51.5 -12.5t-42.5 -35t-28.5 -54t-10.5 -68.5q0 -50 21.5 -78t60.5 -28q48 0 76 33z" />
    <glyph glyph-name="exclam" unicode="!" horiz-adv-x="298" 
d="M112 0q-15 0 -15 14v78q0 14 15 14h74q16 0 16 -14v-78q0 -14 -16 -14h-74zM180 221q0 -9 -10 -9h-44q-10 0 -10 9l-12 481q0 10 4 14t15 4h48q11 0 15 -4t4 -14z" />
    <glyph glyph-name="exclamdown" unicode="&#xa1;" horiz-adv-x="298" 
d="M185.988 527.968q14.999 0 14.999 -13.999v-77.9951q0 -13.999 -14.999 -13.999h-73.9951q-15.999 0 -15.999 13.999v77.9951q0 13.999 15.999 13.999h73.9951zM117.993 306.981q0 8.99902 9.99902 8.99902h43.9971q10 0 10 -8.99902l11.999 -480.971
q0 -9.99902 -4 -13.999t-14.999 -4h-47.9971q-10.999 0 -14.999 4t-4 13.999z" />
    <glyph glyph-name="question" unicode="?" horiz-adv-x="396" 
d="M116 212q-10 0 -13 4t-3 10l-2 49q-1 28 2.5 49.5t15.5 39t33.5 32.5t56.5 31q49 22 71.5 49.5t22.5 74.5q0 56 -34 84t-94 28q-62 0 -139 -31q-13 -6 -19 7l-14 32q-2 5 -1.5 10.5t6.5 8.5q34 17 80 28.5t94 11.5q38 0 74 -10t63.5 -31.5t44.5 -55t17 -80.5
q0 -71 -36.5 -113.5t-97.5 -71.5q-21 -10 -35 -18.5t-22 -18t-11.5 -21t-4.5 -27.5l-2 -57q0 -6 -3 -10t-13 -4h-37zM98 0q-15 0 -15 14v78q0 14 15 14h74q16 0 16 -14v-78q0 -14 -16 -14h-74z" />
    <glyph glyph-name="questiondown" unicode="&#xbf;" horiz-adv-x="396" 
d="M284.982 315.98q10 0 12.999 -4q3 -3.99902 3 -9.99902l2 -48.9971q1 -27.998 -2.5 -49.4971q-3.5 -21.498 -15.499 -38.9971t-33.498 -32.498q-21.498 -14.999 -56.4961 -30.998q-48.9971 -21.999 -71.4961 -49.4971q-22.498 -27.499 -22.498 -74.4961
q0 -55.9961 33.998 -83.9941q33.9971 -27.999 93.9941 -27.999q61.9961 0 138.991 30.998q12.999 6 18.999 -6.99902l13.999 -31.998q2 -5 1.5 -10.499q-0.5 -5.5 -6.5 -8.5q-33.998 -16.999 -79.9951 -28.498t-93.9941 -11.499q-37.998 0 -73.9951 9.99902
q-35.998 9.99902 -63.4961 31.498q-27.499 21.499 -44.4971 54.9971q-16.999 33.4971 -16.999 80.4951q0 70.9951 36.4971 113.492q36.498 42.498 97.4941 71.4961q20.999 9.99902 34.998 18.499q13.999 8.49902 21.999 17.999q7.99902 9.49902 11.499 20.998
q3.5 11.5 4.5 27.499l2 56.9961q0 6 2.99902 9.99902q3 4 12.999 4h36.998zM302.981 527.968q14.999 0 14.999 -13.999v-77.9951q0 -13.999 -14.999 -13.999h-73.9951q-15.999 0 -15.999 13.999v77.9951q0 13.999 15.999 13.999h73.9951z" />
    <glyph glyph-name="asterisk" unicode="*" horiz-adv-x="392" 
d="M318 652q9 4 12.5 2t5.5 -9l13 -41q3 -10 1.5 -13.5t-10.5 -5.5l-103 -23l74 -85q4 -5 3.5 -9t-8.5 -10l-30 -21q-13 -10 -20 2l-60 96l-60 -96q-7 -12 -20 -2l-30 21q-8 6 -8.5 10t3.5 9l74 85l-103 23q-9 2 -10.5 5.5t1.5 13.5l13 41q2 7 5.5 9t12.5 -2l97 -40l-9 108
q-1 7 2 8.5t8 1.5h47q5 0 8 -1.5t2 -8.5l-8 -108z" />
    <glyph glyph-name="period" unicode="." horiz-adv-x="241" 
d="M83 0q-15 0 -15 14v78q0 14 15 14h74q16 0 16 -14v-78q0 -14 -16 -14h-74z" />
    <glyph glyph-name="comma" unicode="," horiz-adv-x="241" 
d="M85 -147q-15 0 -12 14l29 130l-17 7q-11 5 -14 9.5t-3 15.5v63q0 14 15 14h76q16 0 16 -14v-42q0 -13 -1 -23.5t-4 -22t-7.5 -26t-10.5 -34.5l-25 -79q-4 -12 -17 -12h-25z" />
    <glyph glyph-name="colon" unicode=":" horiz-adv-x="241" 
d="M83 0q-15 0 -15 14v78q0 14 15 14h74q16 0 16 -14v-78q0 -14 -16 -14h-74zM83 376q-15 0 -15 14v78q0 14 15 14h74q16 0 16 -14v-78q0 -14 -16 -14h-74z" />
    <glyph glyph-name="semicolon" unicode=";" horiz-adv-x="241" 
d="M83 375q-15 0 -15 14v78q0 14 15 14h74q16 0 16 -14v-78q0 -14 -16 -14h-74zM85 -147q-15 0 -12 14l29 130l-17 7q-11 5 -14 9.5t-3 15.5v63q0 14 15 14h76q16 0 16 -14v-42q0 -13 -1 -23.5t-4 -22t-7.5 -26t-10.5 -34.5l-25 -79q-4 -12 -17 -12h-25z" />
    <glyph glyph-name="ellipsis" unicode="&#x2026;" horiz-adv-x="723" 
d="M83 0q-15 0 -15 14v78q0 14 15 14h74q16 0 16 -14v-78q0 -14 -16 -14h-74zM324 0q-15 0 -15 14v78q0 14 15 14h74q16 0 16 -14v-78q0 -14 -16 -14h-74zM565 0q-15 0 -15 14v78q0 14 15 14h74q16 0 16 -14v-78q0 -14 -16 -14h-74z" />
    <glyph glyph-name="periodcentered" unicode="&#xb7;" horiz-adv-x="241" 
d="M83 307q-15 0 -15 14v78q0 14 15 14h74q16 0 16 -14v-78q0 -14 -16 -14h-74z" />
    <glyph glyph-name="uni22C5" unicode="&#x22c5;" horiz-adv-x="241" 
d="M83 307q-15 0 -15 14v78q0 14 15 14h74q16 0 16 -14v-78q0 -14 -16 -14h-74z" />
    <glyph glyph-name="bullet" unicode="&#x2022;" horiz-adv-x="328" 
d="M71 413q0 22 23 22h139q23 0 23 -22v-142q0 -22 -23 -22h-139q-23 0 -23 22v142z" />
    <glyph glyph-name="slash" unicode="/" horiz-adv-x="320" 
d="M83 -9q-3 -9 -7 -11.5t-12 -2.5h-37q-16 0 -11 17l221 737q3 9 7 11.5t12 2.5h37q16 0 11 -17z" />
    <glyph glyph-name="parenleft" unicode="(" horiz-adv-x="318" 
d="M86 312q0 79 12 145t31 120.5t42.5 98t45.5 76.5q10 14 21 8l27 -13q15 -8 7 -21q-31 -51 -52.5 -100.5t-35 -100t-19.5 -103.5t-6 -110t6 -110t19.5 -103.5t35 -100t52.5 -100.5q8 -13 -7 -21l-27 -13q-11 -6 -21 8q-22 33 -45.5 76.5t-42.5 98t-31 120.5t-12 145z" />
    <glyph glyph-name="brokenbar" unicode="&#xa6;" horiz-adv-x="271" 
d="M115 365q-15 0 -15 14v373q0 14 15 14h41q15 0 15 -14v-373q0 -14 -15 -14h-41zM115 -242q-15 0 -15 14v373q0 14 15 14h41q15 0 15 -14v-373q0 -14 -15 -14h-41z" />
    <glyph glyph-name="parenright" unicode=")" horiz-adv-x="318" 
d="M232 312q0 -79 -12 -145t-31 -120.5t-42.5 -98t-45.5 -76.5q-10 -14 -21 -8l-27 13q-15 8 -7 21q31 51 52.5 100.5t35 100t19.5 103.5t6 110t-6 110t-19.5 103.5t-35 100t-52.5 100.5q-8 13 7 21l27 13q11 6 21 -8q22 -33 45.5 -76.5t42.5 -98t31 -120.5t12 -145z" />
    <glyph glyph-name="bracketleft" unicode="[" horiz-adv-x="321" 
d="M92 739q0 14 15 14h168q14 0 14 -14v-36q0 -14 -14 -14h-108v-757h108q14 0 14 -14v-36q0 -14 -14 -14h-168q-15 0 -15 14v857z" />
    <glyph glyph-name="backslash" unicode="\" horiz-adv-x="320" 
d="M16 728q-5 17 11 17h37q8 0 12 -2.5t7 -11.5l221 -737q5 -17 -11 -17h-37q-8 0 -12 2.5t-7 11.5z" />
    <glyph glyph-name="bracketright" unicode="]" horiz-adv-x="321" 
d="M229 -118q0 -14 -15 -14h-168q-14 0 -14 14v36q0 14 14 14h108v757h-108q-14 0 -14 14v36q0 14 14 14h168q15 0 15 -14v-857z" />
    <glyph glyph-name="braceleft" unicode="{" horiz-adv-x="328" 
d="M141 310q22 -6 35.5 -25.5t20.5 -43t9.5 -47.5t2.5 -40v-115q0 -22 5 -41.5t15 -34.5t26 -23.5t38 -8.5h17q14 0 14 -14v-35q0 -14 -14 -14h-20q-35 0 -64 13.5t-49.5 37.5t-31.5 57t-11 72v120q0 14 -3 31t-9.5 33t-18 28t-28.5 17q-8 2 -11.5 5t-3.5 11v34q0 8 3.5 11
t11.5 5q17 5 28.5 17t18 28t9.5 33t3 31v121q0 39 11 72t31.5 57t49.5 37.5t64 13.5h20q14 0 14 -14v-35q0 -14 -14 -14h-17q-22 0 -38 -8.5t-26 -23.5t-15 -34.5t-5 -41.5v-116q0 -16 -2.5 -40t-9.5 -47.5t-20.5 -43t-35.5 -25.5z" />
    <glyph glyph-name="bar" unicode="|" horiz-adv-x="271" 
d="M115 -242q-15 0 -15 14v980q0 14 15 14h41q15 0 15 -14v-980q0 -14 -15 -14h-41z" />
    <glyph glyph-name="braceright" unicode="}" horiz-adv-x="328" 
d="M187 310q-22 6 -35.5 25.5t-20.5 43t-9.5 47.5t-2.5 40v116q0 22 -5 41.5t-15 34.5t-26 23.5t-38 8.5h-17q-14 0 -14 14v35q0 14 14 14h20q35 0 64 -13.5t49.5 -37.5t31.5 -57t11 -72v-121q0 -14 3 -31t9.5 -33t18 -28t28.5 -17q8 -2 11.5 -5t3.5 -11v-34q0 -8 -3.5 -11
t-11.5 -5q-17 -5 -28.5 -17t-18 -28t-9.5 -33t-3 -31v-120q0 -39 -11 -72t-31.5 -57t-49.5 -37.5t-64 -13.5h-20q-14 0 -14 14v35q0 14 14 14h17q22 0 38 8.5t26 23.5t15 34.5t5 41.5v115q0 16 2.5 40t9.5 47.5t20.5 43t35.5 25.5z" />
    <glyph glyph-name="hyphen" unicode="-" horiz-adv-x="373" 
d="M313 337q14 0 14 -14v-29q0 -14 -14 -14h-253q-14 0 -14 14v29q0 14 14 14h253z" />
    <glyph glyph-name="uni00AD" unicode="&#xad;" horiz-adv-x="373" 
d="M313 337q14 0 14 -14v-29q0 -14 -14 -14h-253q-14 0 -14 14v29q0 14 14 14h253z" />
    <glyph glyph-name="endash" unicode="&#x2013;" horiz-adv-x="494" 
d="M430 308q14 0 14 -14v-24q0 -14 -14 -14h-366q-14 0 -14 14v24q0 14 14 14h366z" />
    <glyph glyph-name="emdash" unicode="&#x2014;" horiz-adv-x="997" 
d="M933 308q14 0 14 -14v-24q0 -14 -14 -14h-869q-14 0 -14 14v24q0 14 14 14h869z" />
    <glyph glyph-name="underscore" unicode="_" horiz-adv-x="502" 
d="M498 -141q14 0 14 -14v-23q0 -14 -14 -14h-494q-14 0 -14 14v23q0 14 14 14h494z" />
    <glyph glyph-name="dagger" unicode="&#x2020;" horiz-adv-x="500" 
d="M468 428q0 -15 -14 -15h-171v-536q0 -14 -15 -14h-41q-15 0 -15 14v536h-166q-14 0 -14 15v28q0 15 14 15h166v235q0 14 15 14h41q15 0 15 -14v-235h171q14 0 14 -15v-28z" />
    <glyph glyph-name="daggerdbl" unicode="&#x2021;" horiz-adv-x="500" 
d="M468 100q0 -15 -14 -15h-171v-208q0 -14 -15 -14h-41q-15 0 -15 14v208h-166q-14 0 -14 15v28q0 15 14 15h166v297h-166q-14 0 -14 15v28q0 15 14 15h166v208q0 14 15 14h41q15 0 15 -14v-208h171q14 0 14 -15v-28q0 -15 -14 -15h-171v-297h171q14 0 14 -15v-28z" />
    <glyph glyph-name="section" unicode="&#xa7;" horiz-adv-x="483" 
d="M433 343q0 -43 -20.5 -77.5t-56.5 -55.5q21 -17 33.5 -41t12.5 -60t-14.5 -63.5t-38.5 -46.5t-56.5 -29t-68.5 -10q-45 0 -86.5 14.5t-74.5 41.5q-13 10 0 27l17 21q10 11 22 2q28 -20 59 -31t66 -11q53 0 79.5 23t26.5 58q0 33 -21 50t-52.5 27.5t-68 19.5t-68 25
t-52.5 43.5t-21 76.5q0 42 20.5 76.5t55.5 56.5q-20 16 -32.5 40t-12.5 61q0 36 14.5 63.5t38.5 46.5t56.5 29t68.5 10q45 0 86.5 -14.5t74.5 -41.5q13 -10 0 -27l-17 -21q-10 -11 -22 -2q-28 20 -59 31t-66 11q-53 0 -79.5 -23t-26.5 -58q0 -33 21 -50t52.5 -27.5t68 -19.5
t68 -25t52.5 -43.5t21 -76.5zM119 349q0 -29 16.5 -45.5t42.5 -27t58 -18t62 -18.5q32 17 49 43t17 58q0 28 -16.5 44.5t-43 27t-58 18t-61.5 18.5q-32 -16 -49 -42t-17 -58z" />
    <glyph glyph-name="paragraph" unicode="&#xb6;" horiz-adv-x="613" 
d="M421 657h-117v-780q0 -14 -15 -14h-47q-15 0 -15 14v433q-93 4 -145 58.5t-52 141.5q0 97 58.5 153.5t173.5 56.5h297q14 0 14 -14v-36q0 -14 -14 -14h-61v-779q0 -14 -15 -14h-47q-15 0 -15 14v780z" />
    <glyph glyph-name="registered" unicode="&#xae;" horiz-adv-x="802" 
d="M760 360q0 -69 -24.5 -135.5t-70.5 -118.5t-113 -84t-151 -32t-151 32t-113 84t-70.5 118.5t-24.5 135.5t24.5 135.5t70.5 118.5t113 84t151 32t151 -32t113 -84t70.5 -118.5t24.5 -135.5zM413 365q35 0 54.5 19t19.5 57q0 37 -21.5 55t-69.5 18h-66v-149h83zM697 360
q0 59 -21 115.5t-59.5 100t-93 70t-122.5 26.5t-122.5 -26.5t-93 -70t-59.5 -100t-21 -115.5t21 -115.5t59.5 -100t93 -70t122.5 -26.5t122.5 26.5t93 70t59.5 100t21 115.5zM408 316h-77v-140q0 -11 -11 -11h-41q-11 0 -11 11v376q0 11 11 11h127q70 0 106 -33.5t36 -87.5
q0 -89 -80 -120l85 -144q4 -6 0.5 -9.5t-8.5 -3.5h-39q-12 0 -18 11z" />
    <glyph glyph-name="copyright" unicode="&#xa9;" horiz-adv-x="802" 
d="M760 360q0 -69 -24.5 -135.5t-70.5 -118.5t-113 -84t-151 -32t-151 32t-113 84t-70.5 118.5t-24.5 135.5t24.5 135.5t70.5 118.5t113 84t151 32t151 -32t113 -84t70.5 -118.5t24.5 -135.5zM697 360q0 59 -21 115.5t-59.5 100t-93 70t-122.5 26.5t-122.5 -26.5t-93 -70
t-59.5 -100t-21 -115.5t21 -115.5t59.5 -100t93 -70t122.5 -26.5t122.5 26.5t93 70t59.5 100t21 115.5zM402 154q-39 0 -71 14.5t-55.5 41t-36 63.5t-12.5 83q0 54 14.5 94.5t39.5 67.5t58.5 40.5t70.5 13.5q33 0 63.5 -8t57.5 -28q5 -4 5 -8t-2 -9l-12 -27q-6 -11 -18 -4
q-48 29 -93 29q-56 0 -88 -40.5t-32 -116.5q0 -75 32.5 -113t86.5 -38q24 0 48 7t47 18q14 6 18 -7l7 -25q3 -12 -5 -16q-29 -17 -59 -24.5t-64 -7.5z" />
    <glyph glyph-name="trademark" unicode="&#x2122;" horiz-adv-x="904" 
d="M655 397q-2 -5 -5 -7.5t-11 -2.5h-36q-8 0 -11 2.5t-5 7.5l-54 124q-8 17 -18.5 41t-18.5 45q-1 -19 -2.5 -45t-3.5 -46l-13 -185q-1 -12 -14 -12h-36q-12 0 -11 12l30 375q1 9 4.5 11.5t11.5 2.5h36q7 0 10.5 -1.5t6.5 -8.5l73 -169l35 -85q5 13 14 37.5t19 47.5l72 169
q3 7 6.5 8.5t10.5 1.5h36q8 0 11.5 -2.5t4.5 -11.5l30 -375q1 -12 -11 -12h-37q-13 0 -14 12l-14 185q-2 20 -4 50t-3 49l-38 -94zM176 670h-126q-12 0 -12 12v27q0 11 12 11h316q12 0 12 -11v-27q0 -12 -12 -12h-127v-339q0 -12 -12 -12h-40q-11 0 -11 12v339z" />
    <glyph glyph-name="quotedblleft" unicode="&#x201c;" horiz-adv-x="391" 
d="M318 720q15 0 12 -14l-29 -130l17 -7q11 -5 14 -9.5t3 -15.5v-63q0 -14 -15 -14h-76q-16 0 -16 14v42q0 13 1 23.5t4 22t7.5 26t10.5 34.5l25 79q4 12 17 12h25zM147 720q15 0 12 -14l-29 -130l17 -7q11 -5 14 -9.5t3 -15.5v-63q0 -14 -15 -14h-76q-16 0 -16 14v42
q0 13 1 23.5t4 22t7.5 26t10.5 34.5l25 79q4 12 17 12h25z" />
    <glyph glyph-name="quotedblright" unicode="&#x201d;" horiz-adv-x="391" 
d="M73 467q-15 0 -12 14l29 130l-17 7q-11 5 -14 9.5t-3 15.5v63q0 14 15 14h76q16 0 16 -14v-42q0 -13 -1 -23.5t-4 -22t-7.5 -26t-10.5 -34.5l-25 -79q-4 -12 -17 -12h-25zM244 467q-15 0 -12 14l29 130l-17 7q-11 5 -14 9.5t-3 15.5v63q0 14 15 14h76q16 0 16 -14v-42
q0 -13 -1 -23.5t-4 -22t-7.5 -26t-10.5 -34.5l-25 -79q-4 -12 -17 -12h-25z" />
    <glyph glyph-name="quoteleft" unicode="&#x2018;" horiz-adv-x="220" 
d="M147 720q15 0 12 -14l-29 -130l17 -7q11 -5 14 -9.5t3 -15.5v-63q0 -14 -15 -14h-76q-16 0 -16 14v42q0 13 1 23.5t4 22t7.5 26t10.5 34.5l25 79q4 12 17 12h25z" />
    <glyph glyph-name="quoteright" unicode="&#x2019;" horiz-adv-x="220" 
d="M73 467q-15 0 -12 14l29 130l-17 7q-11 5 -14 9.5t-3 15.5v63q0 14 15 14h76q16 0 16 -14v-42q0 -13 -1 -23.5t-4 -22t-7.5 -26t-10.5 -34.5l-25 -79q-4 -12 -17 -12h-25z" />
    <glyph glyph-name="guillemotleft" unicode="&#xab;" horiz-adv-x="501" 
d="M116 302l116 -189q3 -6 2.5 -10t-8.5 -9l-22 -14q-13 -8 -21 5l-131 189q-2 4 -4 9t-2 15v10q0 8 1 12.5t5 9.5l131 189q8 13 21 5l22 -14q8 -5 8.5 -9t-2.5 -10zM320 302l116 -189q3 -6 2.5 -10t-8.5 -9l-22 -14q-13 -8 -21 5l-131 189q-2 4 -4 9t-2 15v10q0 8 1 12.5
t5 9.5l131 189q8 13 21 5l22 -14q8 -5 8.5 -9t-2.5 -10z" />
    <glyph glyph-name="guillemotright" unicode="&#xbb;" horiz-adv-x="501" 
d="M269 491q-3 6 -2.5 10t8.5 9l22 14q13 8 21 -5l131 -189q4 -5 5 -9.5t1 -12.5v-10q0 -10 -2 -15t-4 -9l-131 -189q-8 -13 -21 -5l-22 14q-8 5 -8.5 9t2.5 10l116 189zM65 491q-3 6 -2.5 10t8.5 9l22 14q13 8 21 -5l131 -189q4 -5 5 -9.5t1 -12.5v-10q0 -10 -2 -15t-4 -9
l-131 -189q-8 -13 -21 -5l-22 14q-8 5 -8.5 9t2.5 10l116 189z" />
    <glyph glyph-name="guilsinglleft" unicode="&#x2039;" horiz-adv-x="297" 
d="M116 302l116 -189q3 -6 2.5 -10t-8.5 -9l-22 -14q-13 -8 -21 5l-131 189q-2 4 -4 9t-2 15v10q0 8 1 12.5t5 9.5l131 189q8 13 21 5l22 -14q8 -5 8.5 -9t-2.5 -10z" />
    <glyph glyph-name="guilsinglright" unicode="&#x203a;" horiz-adv-x="298" 
d="M66 491q-4 6 -3 10t9 9l22 14q13 8 21 -5l131 -189q4 -5 5 -9.5t1 -12.5v-10q0 -10 -2 -15t-4 -9l-131 -189q-8 -13 -21 -5l-22 14q-8 5 -9 9t3 10l116 189z" />
    <glyph glyph-name="quotesinglbase" unicode="&#x201a;" horiz-adv-x="220" 
d="M73 -174q-15 0 -12 14l29 130l-17 7q-11 5 -14 9.5t-3 15.5v63q0 14 15 14h76q16 0 16 -14v-42q0 -13 -1 -23.5t-4 -22t-7.5 -26t-10.5 -34.5l-25 -79q-4 -12 -17 -12h-25z" />
    <glyph glyph-name="quotedblbase" unicode="&#x201e;" horiz-adv-x="391" 
d="M73 -174q-15 0 -12 14l29 130l-17 7q-11 5 -14 9.5t-3 15.5v63q0 14 15 14h76q16 0 16 -14v-42q0 -13 -1 -23.5t-4 -22t-7.5 -26t-10.5 -34.5l-25 -79q-4 -12 -17 -12h-25zM244 -174q-15 0 -12 14l29 130l-17 7q-11 5 -14 9.5t-3 15.5v63q0 14 15 14h76q16 0 16 -14v-42
q0 -13 -1 -23.5t-4 -22t-7.5 -26t-10.5 -34.5l-25 -79q-4 -12 -17 -12h-25z" />
    <glyph glyph-name="arrowleft" unicode="&#x2190;" horiz-adv-x="660" 
d="M282 108q6 -8 4.5 -12.5t-7.5 -10.5l-22 -22q-14 -14 -23 -2l-173 207q-7 8 -9 12t-2 9v3q0 5 2 9t9 12l173 207q9 12 23 -2l22 -22q6 -6 7.5 -10.5t-4.5 -12.5l-128 -146h450q14 0 14 -14v-45q0 -14 -14 -14h-450z" />
    <glyph glyph-name="arrowup" unicode="&#x2191;" horiz-adv-x="660" 
d="M367 460v-446q0 -14 -14 -14h-45q-14 0 -14 14v446l-146 -128q-8 -6 -12.5 -4.5t-10.5 7.5l-22 22q-14 14 -2 23l207 173q8 7 12 9t9 2h3q5 0 9 -2t12 -9l207 -173q12 -9 -2 -23l-22 -22q-6 -6 -10.5 -7.5t-12.5 4.5z" />
    <glyph glyph-name="arrowright" unicode="&#x2192;" horiz-adv-x="660" 
d="M506 254h-450q-14 0 -14 14v45q0 14 14 14h450l-128 146q-6 8 -4.5 12.5t7.5 10.5l22 22q14 14 23 2l173 -207q7 -8 9 -12t2 -9v-3q0 -5 -2 -9t-9 -12l-173 -207q-9 -12 -23 2l-22 22q-6 6 -7.5 10.5t4.5 12.5z" />
    <glyph glyph-name="arrowdown" unicode="&#x2193;" horiz-adv-x="660" 
d="M513 232q8 6 12.5 4.5t10.5 -7.5l22 -22q14 -14 2 -23l-207 -173q-8 -7 -12 -9t-9 -2h-3q-5 0 -9 2t-12 9l-207 173q-12 9 2 23l22 22q6 6 10.5 7.5t12.5 -4.5l146 -128v446q0 14 14 14h45q14 0 14 -14v-446z" />
    <glyph glyph-name="uni266A" unicode="&#x266a;" horiz-adv-x="690" 
d="M216 -10q-56 0 -86 24t-30 56t29.5 56t82.5 24q24 0 50 -7t46 -20v588q0 9 9 9h36q9 0 9 -9v-25q24 -18 51 -29t53 -21q25 -9 47.5 -18t39.5 -22t27 -31t10 -46q0 -31 -20 -60.5t-57 -50.5q-7 -4 -11 3l-13 19q-4 6 2 10q32 22 32 50q0 16 -8.5 27t-22 19t-31.5 14
t-37 13q-17 5 -32.5 13t-29.5 20v-472q0 -64 -37.5 -99t-108.5 -35z" />
    <glyph glyph-name="grave" unicode="`" horiz-adv-x="350" 
d="M198 576q-11 0 -16 8l-81 115q-5 6 -3 9.5t7 3.5h67q8 0 11 -1.5t7 -8.5l61 -116q5 -10 -6 -10h-47z" />
    <glyph glyph-name="acute" unicode="&#xb4;" horiz-adv-x="350" 
d="M105 576q-11 0 -6 10l61 116q4 7 7 8.5t11 1.5h67q5 0 7 -3.5t-3 -9.5l-81 -115q-5 -8 -16 -8h-47z" />
    <glyph glyph-name="dieresis" unicode="&#xa8;" horiz-adv-x="350" 
d="M50 600q-14 0 -14 13v66q0 13 14 13h61q16 0 16 -13v-66q0 -13 -16 -13h-61zM238 600q-15 0 -15 13v66q0 13 15 13h61q15 0 15 -13v-66q0 -13 -15 -13h-61z" />
    <glyph glyph-name="circumflex" unicode="&#x2c6;" horiz-adv-x="350" 
d="M326 614q3 -4 3.5 -7.5t-4.5 -8.5l-20 -21q-9 -9 -18 -1l-112 95l-112 -95q-9 -8 -18 1l-20 21q-5 5 -4.5 8.5t3.5 7.5l91 97q7 7 11.5 9.5t13.5 2.5h70q9 0 13.5 -2.5t11.5 -9.5z" />
    <glyph glyph-name="tilde" unicode="&#x2dc;" horiz-adv-x="350" 
d="M321 643q-12 -16 -34.5 -30t-50.5 -14q-19 0 -32.5 4.5t-26.5 10.5t-27.5 10.5t-34.5 4.5q-16 0 -28 -8.5t-20 -16.5q-7 -7 -14 0l-27 33q-6 8 3 18q12 16 34.5 30t50.5 14q19 0 32.5 -4.5t26.5 -10.5t27.5 -10.5t34.5 -4.5q16 0 28 8.5t20 16.5q4 4 7 4.5t7 -4.5l27 -33
q5 -7 -3 -18z" />
    <glyph glyph-name="macron" unicode="&#xaf;" horiz-adv-x="350" 
d="M308 678q14 0 14 -14v-37q0 -14 -14 -14h-267q-14 0 -14 14v37q0 14 14 14h267z" />
    <glyph glyph-name="breve" unicode="&#x2d8;" horiz-adv-x="350" 
d="M175 588q-59 0 -99 24.5t-44 84.5q0 11 12 11h42q11 0 12 -12q2 -29 22 -43t53 -14t55 14t24 43q1 12 12 12h42q12 0 12 -11q-4 -60 -44 -84.5t-99 -24.5z" />
    <glyph glyph-name="dotaccent" unicode="&#x2d9;" horiz-adv-x="350" 
d="M144 600q-15 0 -15 13v66q0 13 15 13h61q15 0 15 -13v-66q0 -13 -15 -13h-61z" />
    <glyph glyph-name="ring" unicode="&#x2da;" horiz-adv-x="350" 
d="M175 573q-18 0 -33.5 6.5t-27.5 17.5t-19 26.5t-7 32.5t7 32t19 26.5t27.5 18t33.5 6.5t33.5 -6.5t27.5 -17.5t19 -26t7 -33t-7 -33t-19 -26t-27.5 -17.5t-33.5 -6.5zM175 613q18 0 30 13t12 30q0 18 -12 30.5t-30 12.5t-30.5 -11.5t-12.5 -31.5t12.5 -31.5t30.5 -11.5z
" />
    <glyph glyph-name="cedilla" unicode="&#xb8;" horiz-adv-x="350" 
d="M160 -216q-20 0 -41.5 3.5t-33.5 8.5q-6 2 -8 5t0 11l6 26q3 12 13 9q14 -4 30 -8t33 -4q50 0 50 38q0 19 -17 26t-44 7q-11 0 -23 -0.5t-22 -1.5q-13 0 -12 11l12 93q1 2 2.5 4.5t9.5 2.5h34q7 0 8.5 -2t1.5 -4l-4 -52q5 1 13.5 1.5t15.5 0.5q17 0 33.5 -5t29 -15.5
t20.5 -25.5t8 -34q0 -18 -6.5 -35t-20.5 -30.5t-35.5 -21.5t-52.5 -8z" />
    <glyph glyph-name="hungarumlaut" unicode="&#x2dd;" horiz-adv-x="350" 
d="M36 572q-12 0 -7 12l54 118q4 7 7.5 8.5t10.5 1.5h57q12 0 5 -13l-73 -118q-4 -5 -6.5 -7t-10.5 -2h-37zM193 572q-12 0 -7 12l54 118q4 7 7.5 8.5t10.5 1.5h57q12 0 5 -13l-73 -118q-4 -5 -6.5 -7t-10.5 -2h-37z" />
    <glyph glyph-name="ogonek" unicode="&#x2db;" horiz-adv-x="350" 
d="M190 -201q-29 0 -49 8t-33 20t-18.5 26.5t-5.5 28.5q0 39 21 70t57 53q7 5 16 6.5t15 1.5h28q7 0 8.5 -3.5t-4.5 -8.5q-35 -26 -52.5 -55t-17.5 -52t16 -30t36 -7q17 0 40 5q12 3 13 -8l5 -30q1 -7 -0.5 -10t-8.5 -5q-14 -5 -31 -7.5t-35 -2.5z" />
    <glyph glyph-name="caron" unicode="&#x2c7;" horiz-adv-x="350" 
d="M235 592q-7 -7 -11.5 -9.5t-13.5 -2.5h-70q-9 0 -13.5 2.5t-11.5 9.5l-91 97q-3 4 -3.5 7.5t4.5 8.5l20 21q9 9 18 1l112 -95l112 95q9 8 18 -1l20 -21q5 -5 4.5 -8.5t-3.5 -7.5z" />
    <glyph glyph-name="commaaccent" unicode="&#xf6c3;" horiz-adv-x="350" 
d="M146 -276q-15 0 -12 14l24 112l-15 7q-10 5 -13.5 8.5t-3.5 13.5v55q0 14 15 14h67q16 0 16 -14v-33q0 -12 -1 -22t-3.5 -21.5t-6.5 -25.5t-10 -33l-19 -63q-4 -12 -17 -12h-21v0z" />
    <glyph glyph-name="grave.cap" horiz-adv-x="350" 
d="M198 775q-11 0 -16 8l-81 115q-5 6 -3 9.5t7 3.5h67q8 0 11 -1.5t7 -8.5l61 -116q5 -10 -6 -10h-47z" />
    <glyph glyph-name="acute.cap" horiz-adv-x="350" 
d="M105 775q-11 0 -6 10l61 116q4 7 7 8.5t11 1.5h67q5 0 7 -3.5t-3 -9.5l-81 -115q-5 -8 -16 -8h-47z" />
    <glyph glyph-name="dieresis.cap" horiz-adv-x="350" 
d="M50 784q-14 0 -14 13v66q0 13 14 13h61q16 0 16 -13v-66q0 -13 -16 -13h-61zM238 784q-15 0 -15 13v66q0 13 15 13h61q15 0 15 -13v-66q0 -13 -15 -13h-61z" />
    <glyph glyph-name="circumflex.cap" horiz-adv-x="350" 
d="M326 804q3 -4 3.5 -7.5t-4.5 -8.5l-20 -21q-9 -9 -18 -1l-112 95l-112 -95q-9 -8 -18 1l-20 21q-5 5 -4.5 8.5t3.5 7.5l91 97q7 7 11.5 9.5t13.5 2.5h70q9 0 13.5 -2.5t11.5 -9.5z" />
    <glyph glyph-name="tilde.cap" horiz-adv-x="350" 
d="M321 824q-12 -16 -34.5 -30t-50.5 -14q-19 0 -32.5 4.5t-26.5 10.5t-27.5 10.5t-34.5 4.5q-16 0 -28 -8.5t-20 -16.5q-7 -7 -14 0l-27 33q-6 8 3 18q12 16 34.5 30t50.5 14q19 0 32.5 -4.5t26.5 -10.5t27.5 -10.5t34.5 -4.5q16 0 28 8.5t20 16.5q4 4 7 4.5t7 -4.5l27 -33
q5 -7 -3 -18z" />
    <glyph glyph-name="macron.cap" horiz-adv-x="350" 
d="M308 856q14 0 14 -14v-37q0 -14 -14 -14h-267q-14 0 -14 14v37q0 14 14 14h267z" />
    <glyph glyph-name="breve.cap" horiz-adv-x="350" 
d="M175 778q-59 0 -99 24.5t-44 84.5q0 11 12 11h42q11 0 12 -12q2 -29 22 -43t53 -14t55 14t24 43q1 12 12 12h42q12 0 12 -11q-4 -60 -44 -84.5t-99 -24.5z" />
    <glyph glyph-name="dotaccent.cap" horiz-adv-x="350" 
d="M144 790q-15 0 -15 13v66q0 13 15 13h61q15 0 15 -13v-66q0 -13 -15 -13h-61z" />
    <glyph glyph-name="ring.cap" horiz-adv-x="350" 
d="M175 754q-18 0 -33.5 6.5t-27.5 17.5t-19 26.5t-7 32.5t7 32t19 26.5t27.5 18t33.5 6.5t33.5 -6.5t27.5 -17.5t19 -26t7 -33t-7 -33t-19 -26t-27.5 -17.5t-33.5 -6.5zM175 794q18 0 30 13t12 30q0 18 -12 30.5t-30 12.5t-30.5 -11.5t-12.5 -31.5t12.5 -31.5t30.5 -11.5z
" />
    <glyph glyph-name="hungarumlaut.cap" horiz-adv-x="350" 
d="M36 771q-12 0 -7 12l54 118q4 7 7.5 8.5t10.5 1.5h57q12 0 5 -13l-73 -118q-4 -5 -6.5 -7t-10.5 -2h-37zM193 771q-12 0 -7 12l54 118q4 7 7.5 8.5t10.5 1.5h57q12 0 5 -13l-73 -118q-4 -5 -6.5 -7t-10.5 -2h-37z" />
    <glyph glyph-name="caron.cap" horiz-adv-x="350" 
d="M235 779q-7 -7 -11.5 -9.5t-13.5 -2.5h-70q-9 0 -13.5 2.5t-11.5 9.5l-91 97q-3 4 -3.5 7.5t4.5 8.5l20 21q9 9 18 1l112 -95l112 95q9 8 18 -1l20 -21q5 -5 4.5 -8.5t-3.5 -7.5z" />
    <glyph glyph-name="zero" unicode="0" 
d="M274 -10q-106 0 -167.5 87t-61.5 267q0 189 65 287.5t181 98.5q52 0 94.5 -20.5t72.5 -64t46 -110t16 -158.5q0 -186 -64 -286.5t-182 -100.5zM278 56q78 0 121 81t43 236q0 143 -40 217t-115 74t-119 -78.5t-44 -234.5q0 -143 38.5 -219t115.5 -76z" />
    <glyph glyph-name="one" unicode="1" 
d="M354 63h133q8 0 10.5 -4t2.5 -12v-31q0 -8 -2.5 -12t-10.5 -4h-361q-8 0 -10.5 4t-2.5 12v31q0 8 2.5 12t10.5 4h149v567l-145 -94q-14 -9 -22 3l-21 30q-8 11 4 20l173 116q14 9 22.5 12t22.5 3h32q8 0 10.5 -4t2.5 -12v-641z" />
    <glyph glyph-name="two" unicode="2" 
d="M72 56q0 58 23.5 105.5t58.5 88t75.5 76t75.5 69.5t58.5 68.5t23.5 73.5q0 33 -10.5 56.5t-28 38.5t-41 22t-49.5 7q-39 0 -76.5 -11t-72.5 -31q-14 -8 -20 3l-16 27q-3 5 -3 11.5t9 12.5q37 25 85 41t102 16q38 0 73.5 -11.5t63 -34.5t44 -58t16.5 -81q0 -52 -22.5 -94
t-57 -78.5t-74.5 -70t-75 -70t-59.5 -77.5t-26.5 -92h322q8 0 10.5 -4t2.5 -12v-31q0 -8 -2.5 -12t-10.5 -4h-385q-8 0 -10.5 4t-2.5 12v40z" />
    <glyph glyph-name="three" unicode="3" 
d="M183 384q0 11 3.5 18.5t14.5 22.5l176 232h-291q-8 0 -10.5 4t-2.5 12v31q0 8 2.5 12t10.5 4h357q11 0 15 -2.5t4 -12.5v-15q0 -12 -1.5 -20.5t-6.5 -18t-14 -21.5t-23 -31l-141 -187q101 -7 155.5 -62t54.5 -140q0 -47 -16.5 -87.5t-47.5 -70t-74.5 -46t-98.5 -16.5
q-48 0 -96 13t-84 33q-16 9 -8 27l11 24q8 17 22 10q37 -17 74 -28.5t82 -11.5q32 0 61 9.5t50.5 28.5t34.5 46.5t13 63.5q0 75 -47 112t-125 37h-41q-8 0 -10.5 3.5t-2.5 11.5v15z" />
    <glyph glyph-name="four" unicode="4" 
d="M129 259h215v186q0 8 4 10.5t12 2.5h48q8 0 12 -2.5t4 -10.5v-186h78q8 0 10.5 -4t2.5 -12v-36q0 -8 -2.5 -12t-10.5 -4h-78v-178q0 -8 -4 -10.5t-12 -2.5h-48q-8 0 -12 2.5t-4 10.5v178h-293q-8 0 -10.5 4t-2.5 12v14q0 19 3 31t11 29l189 426q3 7 6.5 10t11.5 3h58
q16 0 10 -14z" />
    <glyph glyph-name="five" unicode="5" 
d="M458 720q8 0 10.5 -4t2.5 -12v-33q0 -8 -2.5 -12t-10.5 -4h-270v-218q14 3 36 5t40 2q48 0 89 -13t71 -39.5t47.5 -66t17.5 -92.5q0 -62 -20 -107.5t-54 -75.5q-35 -31 -80 -45.5t-99 -14.5q-42 0 -87.5 11t-74.5 28q-8 5 -9.5 9.5t3.5 15.5l11 25q4 9 8.5 12t15.5 -2
q33 -14 66.5 -22t67.5 -8q84 0 129 46q21 21 33 51t12 71q0 49 -14.5 78.5t-37.5 46t-50.5 22t-54.5 5.5q-38 0 -68.5 -3.5t-62.5 -9.5q-11 -2 -13 2.5t-2 9.5v326q0 8 2.5 12t10.5 4h337z" />
    <glyph glyph-name="six" unicode="6" 
d="M300 -10q-65 0 -110 23t-72.5 64.5t-40 98t-12.5 123.5q0 47 5.5 97.5t19 98.5t35.5 90.5t55 74.5t77.5 51t103.5 19q30 0 62.5 -6.5t59.5 -19.5q8 -4 9.5 -8t-1.5 -14l-10 -30q-2 -7 -6 -9.5t-14 0.5q-23 9 -48 14.5t-54 5.5q-53 0 -90.5 -24.5t-62.5 -63t-38.5 -85.5
t-18.5 -93q35 23 79 37t82 14q52 0 90.5 -16.5t63.5 -45.5t37.5 -68.5t12.5 -84.5q0 -111 -54 -177t-160 -66zM302 57q40 0 66 15.5t41.5 40t21.5 55t6 61.5q0 76 -34.5 114.5t-97.5 38.5q-50 0 -91 -15.5t-70 -34.5v-31q0 -56 9 -101.5t28 -77t49 -48.5t72 -17z" />
    <glyph glyph-name="seven" unicode="7" 
d="M478 720q8 0 10.5 -4t2.5 -12v-13q0 -18 -4 -33.5t-13 -38.5l-239 -605q-4 -9 -8.5 -11.5t-13.5 -2.5h-46q-16 0 -9 17l256 638h-322q-8 0 -10.5 4t-2.5 12v33q0 8 2.5 12t10.5 4h386z" />
    <glyph glyph-name="eight" unicode="8" 
d="M202 386q-69 29 -96 73t-27 88q0 46 18 80.5t47.5 57t67.5 34t78 11.5q39 0 75 -10.5t64.5 -32t45.5 -53.5t17 -75q0 -32 -10.5 -59t-28 -48t-39.5 -37t-45 -26q27 -11 54 -28t48 -40.5t34 -53.5t13 -67q0 -49 -19.5 -88t-52.5 -66t-77 -41.5t-93 -14.5q-44 0 -84.5 11.5
t-71.5 35.5t-49.5 61t-18.5 88q0 36 12 67.5t32.5 56.5t48 44.5t57.5 31.5zM289 416q25 11 47.5 24.5t39.5 30t27 37t10 45.5q0 52 -35 82t-92 30q-56 0 -92.5 -30.5t-36.5 -82.5q0 -26 11.5 -46.5t30 -37t42 -29.5t48.5 -23zM281 356q-30 -12 -57.5 -27.5t-48 -36
t-32.5 -46.5t-12 -59q0 -32 11.5 -56.5t31.5 -41t47.5 -25t59.5 -8.5t61 9.5t50.5 27t34 43t12.5 57.5q0 34 -14 59.5t-36.5 44.5t-51 33t-56.5 26z" />
    <glyph glyph-name="nine" unicode="9" 
d="M206 -10q-30 0 -63.5 6.5t-60.5 19.5q-8 4 -9.5 8t1.5 14l10 30q2 7 6 9.5t14 -0.5q23 -8 49.5 -14t55.5 -6q61 0 101 29t63 74t33 99t13 103q-31 -24 -76.5 -41t-88.5 -17q-55 0 -93.5 15.5t-63 43t-35.5 65.5t-11 84q0 52 16.5 92.5t46.5 68.5t71 42.5t91 14.5
q118 0 171 -77.5t53 -231.5q0 -77 -12.5 -154t-45 -138.5t-89.5 -100t-147 -38.5zM258 372q19 0 41.5 4t45 11.5t43 17.5t36.5 21v14q0 224 -151 224q-31 0 -57.5 -9t-46 -28t-30.5 -47t-11 -67q0 -66 30 -103.5t100 -37.5z" />
    <glyph glyph-name="dollar" unicode="$" 
d="M257 25q-42 2 -83.5 14t-70.5 32q-7 5 -11 9t-4 9t6 16l12 21q9 16 22 8q31 -18 64.5 -29.5t64.5 -13.5v265q-29 14 -58.5 30t-52.5 36.5t-37.5 47.5t-14.5 64q0 66 45 108t118 50v73q0 14 14 14h29q14 0 14 -14v-71q36 -2 69.5 -12.5t60.5 -25.5q8 -5 9 -10t-4 -16
l-11 -21q-5 -11 -10.5 -12t-17.5 4q-28 12 -50.5 18t-45.5 8v-223q30 -15 59.5 -31.5t52.5 -39t37.5 -51.5t14.5 -69q0 -73 -40 -124t-124 -62v-81q0 -14 -14 -14h-29q-14 0 -14 14v79zM406 211q0 21 -7.5 37.5t-20 30.5t-29 25.5t-35.5 22.5v-232q44 10 68 40t24 76z
M167 535q0 -35 26.5 -59t63.5 -44v194q-43 -6 -66.5 -27.5t-23.5 -63.5z" />
    <glyph glyph-name="cent" unicode="&#xa2;" 
d="M465 36q-26 -14 -54 -23t-58 -13v-81q0 -14 -14 -14h-29q-14 0 -14 14v79q-44 4 -81 23t-63.5 51.5t-41 77.5t-14.5 99q0 61 16 108t43 80t63.5 52.5t77.5 24.5v81q0 14 14 14h29q14 0 14 -14v-80q32 -3 63 -13t58 -30q8 -6 9 -11.5t-4 -14.5l-15 -28q-5 -8 -9 -10.5
t-15 4.5q-23 15 -44 23t-43 10v-376q41 6 85 28q11 5 16.5 3t9.5 -14l10 -25q3 -9 2 -14.5t-11 -10.5zM173 253q0 -79 34.5 -126.5t88.5 -57.5v375q-55 -11 -89 -61t-34 -130z" />
    <glyph glyph-name="Euro" unicode="&#x20ac;" 
d="M108 454q9 63 30.5 114t55 87t79.5 55.5t105 19.5q46 0 89 -11.5t75 -31.5q9 -5 10 -11t-3 -15l-9 -21q-8 -17 -23 -10q-36 17 -69.5 25.5t-70.5 8.5q-77 0 -126 -53.5t-64 -156.5h250q14 0 14 -14v-29q0 -14 -14 -14h-255q-1 -11 -1 -20.5v-20.5v-21.5t1 -21.5h237
q14 0 14 -14v-29q0 -14 -14 -14h-232q14 -103 60.5 -150.5t127.5 -47.5q31 0 66 8.5t67 21.5q9 4 14.5 2.5t9.5 -9.5l11 -24q5 -9 4.5 -14.5t-10.5 -10.5q-36 -20 -82 -31t-94 -11q-110 0 -174 69t-81 197h-62q-14 0 -14 14v29q0 14 14 14h57v36v24t1 24h-51q-14 0 -14 14
v29q0 14 14 14h57z" />
    <glyph glyph-name="florin" unicode="&#x192;" 
d="M255 432l6 47q5 42 15.5 86.5t32 81t56.5 60t89 23.5q19 0 36 -4t30 -11q7 -4 8 -7t-1 -11l-13 -32q-3 -7 -6.5 -7.5t-11.5 1.5q-10 3 -21 5t-22 2q-27 0 -47 -13t-34 -36.5t-22.5 -56t-13.5 -71.5l-7 -57h125q14 0 14 -14v-29q0 -14 -14 -14h-132l-25 -215
q-7 -58 -18 -107.5t-31.5 -85.5t-53 -56.5t-83.5 -20.5q-21 0 -39 4t-31 11q-7 4 -8 8t1 10l13 32q3 7 6.5 7.5t11.5 -1.5q10 -3 21 -5t22 -2q54 0 78.5 50t35.5 141l27 230h-108q-14 0 -14 14v29q0 14 14 14h114z" />
    <glyph glyph-name="sterling" unicode="&#xa3;" 
d="M82 74q37 29 56.5 71.5t19.5 88.5v112h-74q-14 0 -14 14v29q0 14 14 14h74v85q0 63 14.5 107t40.5 74q55 61 149 61q40 0 79 -10t72 -30q8 -5 8.5 -9t-3.5 -12l-13 -29q-7 -14 -22 -7q-29 14 -57 22t-59 8q-62 0 -97 -41q-34 -41 -34 -128v-91h199q14 0 14 -14v-29
q0 -14 -14 -14h-199v-92q0 -63 -19 -110t-61 -79h353q14 0 14 -14v-37q0 -14 -14 -14h-425q-14 0 -14 14v33q0 11 2 16t10 11z" />
    <glyph glyph-name="yen" unicode="&#xa5;" 
d="M195 397l-129 308q-3 7 0 11t10 4h44q11 0 15 -2t8 -10l137 -338l143 336q4 8 8 11t13 3h43q8 0 11 -4t-1 -12l-131 -307h93q14 0 14 -14v-27q0 -14 -14 -14h-116l-26 -61v-17h142q14 0 14 -14v-27q0 -14 -14 -14h-142v-193q0 -16 -17 -16h-41q-17 0 -17 16v193h-139
q-14 0 -14 14v27q0 14 14 14h139v20l-24 58h-115q-14 0 -14 14v27q0 14 14 14h92z" />
    <glyph glyph-name="uni20B9" unicode="&#x20b9;" 
d="M423 488q-9 -85 -67 -136t-159 -51l267 -279q8 -9 5.5 -15.5t-12.5 -6.5h-49q-14 0 -20 3t-14 11l-264 278q-8 8 -10.5 13t-2.5 16v27q0 16 17 16h68q79 0 118 33t46 91h-249q-11 0 -12 4t1 12l10 30q4 11 8 13.5t18 2.5h223q-3 20 -10 37.5t-19 30.5q-19 20 -47 29
t-74 9h-98q-11 0 -12 4t1 12l10 32q4 11 8 13.5t18 2.5h372q11 0 12.5 -4t-0.5 -12l-10 -32q-4 -11 -8 -13.5t-18 -2.5h-96q19 -18 31.5 -45t17.5 -61h73q10 0 11.5 -4t-0.5 -12l-10 -30q-4 -11 -7.5 -13.5t-17.5 -2.5h-49z" />
    <glyph glyph-name="uni20AE" unicode="&#x20ae;" 
d="M320 654v-167l131 84q12 7 12 -5v-46q0 -15 -10 -21l-133 -86v-93l131 84q12 7 12 -5v-46q0 -15 -10 -21l-133 -86v-230q0 -16 -17 -16h-43q-17 0 -17 16v180l-131 -85q-12 -7 -12 5v48q0 14 10 21l133 85v93l-131 -85q-12 -7 -12 5v48q0 15 10 21l133 85v217h-182
q-17 0 -17 16v34q0 16 17 16h441q17 0 17 -16v-34q0 -16 -17 -16h-182z" />
    <glyph glyph-name="uni20B1" unicode="&#x20b1;" 
d="M100 470v60h-52q-14 0 -14 14v29q0 14 14 14h52v117q0 16 17 16h111q73 0 122.5 -15t80.5 -44q30 -31 44 -74h54q14 0 14 -14v-29q0 -14 -14 -14h-44q1 -6 1 -11.5v-11.5q0 -10 -0.5 -19t-1.5 -18h45q14 0 14 -14v-29q0 -14 -14 -14h-57q-15 -48 -49 -81
q-59 -56 -176 -56h-74v-260q0 -16 -17 -16h-39q-17 0 -17 16v397h-52q-14 0 -14 14v29q0 14 14 14h52zM411 503v13.5t-1 13.5h-237v-60h236q1 8 1.5 16t0.5 17zM173 336h73q46 0 86 15.5t62 61.5h-221v-77zM173 659v-72h223q-11 23 -27.5 37t-37 22t-44 10.5t-47.5 2.5h-67z
" />
    <glyph glyph-name="won" unicode="&#x20a9;" horiz-adv-x="1019" 
d="M127 462l-65 240q-2 8 0 13t13 5h44q11 0 15.5 -3t6.5 -13l61 -242h196l58 242q4 16 24 16h58q11 0 16.5 -3t7.5 -13l60 -242h194l57 242q2 10 8 13t17 3h38q19 0 14 -18l-61 -240h66q14 0 14 -14v-30q0 -14 -14 -14h-81l-25 -98h106q14 0 14 -14v-30q0 -14 -14 -14h-121
l-59 -232q-4 -16 -24 -16h-65q-11 0 -16.5 3t-7.5 13l-58 232h-188l-56 -232q-4 -16 -24 -16h-64q-11 0 -16 3t-8 13l-63 232h-121q-14 0 -14 14v30q0 14 14 14h105l-26 98h-79q-14 0 -14 14v30q0 14 14 14h63zM802 404h-166l24 -98h119zM384 404h-167l25 -98h118zM590 306
l-25 98h-112q-1 -6 -2.5 -12.5t-4 -17t-6.5 -27t-10 -41.5h160zM675 248q13 -52 24.5 -99t22.5 -86l43 185h-90zM304 63q8 35 19.5 85.5t22.5 99.5h-89zM509 649q-8 -33 -19.5 -83.5t-23.5 -103.5h85q-13 53 -23.5 101.5t-18.5 85.5z" />
    <glyph glyph-name="lira" unicode="&#x20a4;" 
d="M158 325v77h-74q-14 0 -14 14v29q0 14 14 14h74v29q0 63 14.5 107t40.5 74q55 61 149 61q40 0 79 -10t72 -30q8 -5 8.5 -9t-3.5 -12l-13 -29q-7 -14 -22 -7q-29 14 -57 22t-59 8q-62 0 -97 -41q-34 -41 -34 -128v-35h213q14 0 14 -14v-29q0 -14 -14 -14h-213v-77h213
q14 0 14 -14v-29q0 -14 -14 -14h-213v-14q0 -63 -19 -110t-61 -79h353q14 0 14 -14v-37q0 -14 -14 -14h-425q-14 0 -14 14v33q0 11 2 16t10 11q37 29 56.5 71.5t19.5 88.5v34h-74q-14 0 -14 14v29q0 14 14 14h74z" />
    <glyph glyph-name="uni20B4" unicode="&#x20b4;" 
d="M183 325q22 21 46 39.5t48 37.5h-194q-14 0 -14 14v29q0 14 14 14h262q22 21 35 44.5t13 51.5q0 29 -11.5 50t-30 34t-43.5 19t-52 6q-65 0 -128 -30q-8 -4 -13.5 -3.5t-10.5 10.5l-12 23q-5 9 -4 13.5t7 8.5q32 21 74.5 32.5t90.5 11.5q94 0 150.5 -46.5t56.5 -129.5
q0 -28 -9 -51.5t-23 -43.5h45q14 0 14 -14v-29q0 -14 -14 -14h-100q-24 -20 -50 -38.5t-51 -38.5h201q14 0 14 -14v-29q0 -14 -14 -14h-262q-18 -22 -28.5 -47t-10.5 -56q0 -29 11.5 -50t30 -34t43.5 -19t52 -6q65 0 128 30q8 4 13.5 3.5t10.5 -10.5l12 -23q5 -9 4 -13.5
t-7 -8.5q-32 -21 -74.5 -32.5t-90.5 -11.5q-94 0 -150.5 46.5t-56.5 129.5v1q0 29 8 54t22 47h-52q-14 0 -14 14v29q0 14 14 14h100z" />
    <glyph glyph-name="dong" unicode="&#x20ab;" 
d="M273 162q49 0 76.5 29.5t27.5 98.5v156q-19 14 -42 21.5t-46 7.5q-58 0 -93.5 -39t-35.5 -120q0 -73 28 -113.5t85 -40.5zM471 55q14 0 14 -16v-24q0 -9 -3 -12t-11 -3h-359q-8 0 -11 3t-3 12v24q0 16 14 16h359zM377 642v63q0 15 16 15h38q16 0 16 -15v-63h36
q8 0 11 -2.5t3 -10.5v-24q0 -9 -3 -12t-11 -3h-36v-382q0 -27 4.5 -35.5t20.5 -8.5q13 0 13 -14v-28q0 -9 -8.5 -12.5t-31.5 -3.5q-21 0 -38 13.5t-22 39.5q-17 -26 -49 -43.5t-70 -17.5q-46 0 -79.5 18t-55.5 47.5t-32.5 68t-10.5 79.5q0 55 15.5 97.5t42.5 71t62.5 43
t74.5 14.5q26 0 50 -7t44 -21v81h-139q-8 0 -11 3t-3 12v24q0 8 3 10.5t11 2.5h139z" />
    <glyph glyph-name="uni20BA" unicode="&#x20ba;" 
d="M239 268v-201q83 8 136.5 50.5t84.5 113.5q6 14 20 8l32 -11q14 -4 7 -20q-18 -51 -49.5 -90t-72 -65.5t-87.5 -39.5t-96 -13h-33q-17 0 -17 16v214l-101 -51q-12 -7 -12 5v40q0 16 10 21l103 51v91l-101 -51q-12 -7 -12 5v40q0 16 10 21l103 51v251q0 16 17 16h41
q17 0 17 -16v-213l169 84q12 7 12 -7v-36q0 -8 -1.5 -12.5t-8.5 -8.5l-171 -86v-91l169 84q12 7 12 -7v-36q0 -8 -1.5 -12.5t-8.5 -8.5z" />
    <glyph glyph-name="uni0E3F" unicode="&#xe3f;" 
d="M262 -88q-15 0 -15 14v74h-148q-17 0 -17 16v688q0 16 17 16h148v74q0 14 15 14h29q15 0 15 -14v-78q79 -11 121 -51q49 -47 49 -133q0 -47 -23 -87.5t-61 -61.5q59 -19 91 -64.5t32 -110.5q0 -55 -16 -93t-44.5 -62t-66.5 -36.5t-82 -15.5v-75q0 -14 -15 -14h-29z
M405 302q-34 32 -99 38v-275q61 7 97 38.5t36 103.5q0 61 -34 95zM247 63v278h-90v-278h90zM247 401v256h-90v-256h90zM370 622q-24 22 -64 31v-247q95 21 95 123q0 29 -7.5 53t-23.5 40z" />
    <glyph glyph-name="numbersign" unicode="#" 
d="M442 493h76q8 0 10 -3.5t2 -10.5v-30q0 -7 -2 -10.5t-10 -3.5h-88l-31 -145h78q8 0 10 -3.5t2 -10.5v-30q0 -7 -2 -10.5t-10 -3.5h-90l-31 -147q-2 -7 -4.5 -9.5t-11.5 -2.5h-31q-16 0 -13 14l30 145h-142l-31 -147q-2 -7 -4.5 -9.5t-11.5 -2.5h-31q-16 0 -13 14l30 145
h-77q-8 0 -10 3.5t-2 10.5v30q0 7 2 10.5t10 3.5h89l31 145h-77q-8 0 -10 3.5t-2 10.5v30q0 7 2 10.5t10 3.5h89l30 142q2 7 4.5 9.5t11.5 2.5h32q16 0 13 -14l-30 -140h142l30 142q2 7 4.5 9.5t11.5 2.5h32q16 0 13 -14zM338 290l31 145h-142l-31 -145h142z" />
    <glyph glyph-name="percent" unicode="%" horiz-adv-x="861" 
d="M295 -9q-4 -8 -8 -11t-13 -3h-36q-19 0 -10 17l340 737q4 8 8 11t13 3h36q18 0 10 -17zM362 536q0 -105 -42.5 -160t-123.5 -55q-75 0 -115.5 50t-40.5 144q0 105 42.5 160t123.5 55q75 0 115.5 -49.5t40.5 -144.5zM295 532q0 66 -23 102.5t-69 36.5q-45 0 -70.5 -38.5
t-25.5 -113.5q0 -66 23 -102.5t69 -36.5q45 0 70.5 38.5t25.5 113.5zM821 205q0 -105 -42.5 -160t-123.5 -55q-75 0 -115.5 50t-40.5 144q0 105 42.5 160t123.5 55q75 0 115.5 -49.5t40.5 -144.5zM754 201q0 66 -23 102.5t-69 36.5q-45 0 -70.5 -38.5t-25.5 -113.5
q0 -66 23 -102.5t69 -36.5q45 0 70.5 38.5t25.5 113.5z" />
    <glyph glyph-name="perthousand" unicode="&#x2030;" horiz-adv-x="1237" 
d="M295 -9q-4 -8 -8 -11t-13 -3h-36q-19 0 -10 17l340 737q4 8 8 11t13 3h36q18 0 10 -17zM362 536q0 -105 -42.5 -160t-123.5 -55q-75 0 -115.5 50t-40.5 144q0 105 42.5 160t123.5 55q75 0 115.5 -49.5t40.5 -144.5zM295 532q0 66 -23 102.5t-69 36.5q-45 0 -70.5 -38.5
t-25.5 -113.5q0 -66 23 -102.5t69 -36.5q45 0 70.5 38.5t25.5 113.5zM821 205q0 -105 -42.5 -160t-123.5 -55q-75 0 -115.5 50t-40.5 144q0 105 42.5 160t123.5 55q75 0 115.5 -49.5t40.5 -144.5zM754 201q0 66 -23 102.5t-69 36.5q-45 0 -70.5 -38.5t-25.5 -113.5
q0 -66 23 -102.5t69 -36.5q45 0 70.5 38.5t25.5 113.5zM1197 205q0 -105 -42.5 -160t-123.5 -55q-75 0 -115.5 50t-40.5 144q0 105 42.5 160t123.5 55q75 0 115.5 -49.5t40.5 -144.5zM1130 201q0 66 -23 102.5t-69 36.5q-45 0 -70.5 -38.5t-25.5 -113.5q0 -66 23 -102.5
t69 -36.5q45 0 70.5 38.5t25.5 113.5z" />
    <glyph glyph-name="plus" unicode="+" 
d="M252 340h-216q-14 0 -14 14v31q0 14 14 14h216v226q0 14 14 14h31q14 0 14 -14v-226h216q14 0 14 -14v-31q0 -14 -14 -14h-216v-226q0 -14 -14 -14h-31q-14 0 -14 14v226z" />
    <glyph glyph-name="minus" unicode="&#x2212;" 
d="M36 340q-14 0 -14 14v31q0 14 14 14h491q14 0 14 -14v-31q0 -14 -14 -14h-491z" />
    <glyph glyph-name="multiply" unicode="&#xd7;" 
d="M281 328l-152 -153q-11 -9 -20 0l-22 22q-9 9 0 20l153 152l-153 153q-9 11 0 20l22 22q9 9 20 0l152 -153l153 153q11 9 20 0l22 -22q9 -9 0 -20l-153 -153l153 -152q9 -11 0 -20l-22 -22q-9 -9 -20 0z" />
    <glyph glyph-name="less" unicode="&#x3c;" 
d="M35 383q0 14 10 19l443 246q12 7 18 -6l14 -28q4 -8 1.5 -12t-9.5 -8l-405 -220l405 -220q14 -7 8 -20l-14 -28q-6 -13 -18 -6l-443 246q-10 5 -10 19v18z" />
    <glyph glyph-name="divide" unicode="&#xf7;" 
d="M36 340q-14 0 -14 14v31q0 14 14 14h491q14 0 14 -14v-31q0 -14 -14 -14h-491zM253 125q-15 0 -15 14v68q0 14 15 14h64q16 0 16 -14v-68q0 -14 -16 -14h-64zM253 514q-15 0 -15 14v68q0 14 15 14h64q16 0 16 -14v-68q0 -14 -16 -14h-64z" />
    <glyph glyph-name="equal" unicode="=" 
d="M36 456q-14 0 -14 14v31q0 14 14 14h491q14 0 14 -14v-31q0 -14 -14 -14h-491zM36 225q-14 0 -14 14v31q0 14 14 14h491q14 0 14 -14v-31q0 -14 -14 -14h-491z" />
    <glyph glyph-name="logicalnot" unicode="&#xac;" 
d="M541 241q0 -14 -14 -14h-31q-14 0 -14 14v215h-446q-14 0 -14 14v31q0 14 14 14h491q14 0 14 -14v-260z" />
    <glyph glyph-name="greater" unicode="&#x3e;" 
d="M528 365q0 -14 -10 -19l-443 -246q-12 -7 -18 6l-14 28q-6 13 8 20l405 220l-405 220q-7 4 -9.5 8t1.5 12l14 28q6 13 18 6l443 -246q10 -5 10 -19v-18z" />
    <glyph glyph-name="notequal" unicode="&#x2260;" 
d="M399 515h128q14 0 14 -14v-31q0 -14 -14 -14h-162l-98 -172h260q14 0 14 -14v-31q0 -14 -14 -14h-294l-46 -80q-4 -7 -7.5 -9t-11.5 -2h-38q-16 0 -8 14l44 77h-130q-14 0 -14 14v31q0 14 14 14h164l98 172h-262q-14 0 -14 14v31q0 14 14 14h296l30 52q4 7 7 9t11 2h39
q16 0 8 -14z" />
    <glyph glyph-name="approxequal" unicode="&#x2248;" 
d="M383 465q32 0 50.5 16.5t25.5 54.5q1 6 4 8.5t13 0.5l27 -6q11 -2 13.5 -5.5t0.5 -9.5q-5 -33 -17.5 -55.5t-30 -35.5t-39.5 -18.5t-46 -5.5q-38 0 -66 12.5t-51.5 27.5t-45.5 27.5t-47 12.5q-32 0 -50.5 -16.5t-25.5 -54.5q-1 -6 -4 -8.5t-13 -0.5l-27 6q-11 2 -13.5 5
t-0.5 10q11 66 47.5 90.5t85.5 24.5q37 0 65 -12.5t52 -27.5t46 -27.5t47 -12.5zM383 229q32 0 50.5 16.5t25.5 54.5q1 6 4 8.5t13 0.5l27 -6q11 -2 13.5 -5.5t0.5 -9.5q-5 -33 -17.5 -55.5t-30 -35.5t-39.5 -18.5t-46 -5.5q-38 0 -66 12.5t-51.5 27.5t-45.5 27.5t-47 12.5
q-32 0 -50.5 -16.5t-25.5 -54.5q-1 -6 -4 -8.5t-13 -0.5l-27 6q-11 2 -13.5 5t-0.5 10q11 66 47.5 90.5t85.5 24.5q37 0 65 -12.5t52 -27.5t46 -27.5t47 -12.5z" />
    <glyph glyph-name="plusminus" unicode="&#xb1;" 
d="M36 0q-14 0 -14 14v31q0 14 14 14h491q14 0 14 -14v-31q0 -14 -14 -14h-491zM252 408h-216q-14 0 -14 14v31q0 14 14 14h216v226q0 14 14 14h31q14 0 14 -14v-226h216q14 0 14 -14v-31q0 -14 -14 -14h-216v-226q0 -14 -14 -14h-31q-14 0 -14 14v226z" />
    <glyph glyph-name="lessequal" unicode="&#x2264;" 
d="M36 0q-14 0 -14 14v31q0 14 14 14h491q14 0 14 -14v-31q0 -14 -14 -14h-491zM35 446q0 14 10 19l443 246q12 7 18 -6l14 -28q4 -8 1.5 -12t-9.5 -8l-405 -220l405 -220q14 -7 8 -20l-14 -28q-6 -13 -18 -6l-443 246q-10 5 -10 19v18z" />
    <glyph glyph-name="greaterequal" unicode="&#x2265;" 
d="M36 0q-14 0 -14 14v31q0 14 14 14h491q14 0 14 -14v-31q0 -14 -14 -14h-491zM528 428q0 -14 -10 -19l-443 -246q-12 -7 -18 6l-14 28q-6 13 8 20l405 220l-405 220q-7 4 -9.5 8t1.5 12l14 28q6 13 18 6l443 -246q10 -5 10 -19v-18z" />
    <glyph glyph-name="asciicircum" unicode="^" horiz-adv-x="564" 
d="M296 730q10 0 14.5 -3.5t9.5 -12.5l197 -363q5 -8 2 -13t-11 -5h-40q-11 0 -14 2t-8 10l-164 313l-164 -313q-5 -8 -8 -10t-14 -2h-40q-8 0 -11 5t2 13l197 363q5 9 9.5 12.5t14.5 3.5h28z" />
    <glyph glyph-name="asciitilde" unicode="~" horiz-adv-x="564" 
d="M383 380q32 0 50.5 16.5t25.5 54.5q1 6 4 8.5t13 0.5l27 -6q11 -2 13.5 -5.5t0.5 -9.5q-5 -33 -17.5 -55.5t-30 -35.5t-39.5 -18.5t-46 -5.5q-38 0 -66 12.5t-51.5 27.5t-45.5 27.5t-47 12.5q-32 0 -50.5 -16.5t-25.5 -54.5q-1 -6 -4 -8.5t-13 -0.5l-27 6q-11 2 -13.5 5
t-0.5 10q11 66 47.5 90.5t85.5 24.5q37 0 65 -12.5t52 -27.5t46 -27.5t47 -12.5z" />
    <glyph glyph-name="lozenge" unicode="&#x25ca;" 
d="M321 9q-5 -9 -16 -9h-44q-8 0 -11.5 2t-7.5 7l-193 305q-5 8 -7 16t-2 22v14q0 14 2 22t7 16l193 307q4 5 7.5 7t11.5 2h44q11 0 16 -9l193 -307q5 -8 7 -16t2 -22v-14q0 -14 -2 -22t-7 -16zM282 82l172 277l-172 279h-1l-172 -279l172 -277h1z" />
    <glyph glyph-name="degree" unicode="&#xb0;" horiz-adv-x="353" 
d="M173 444q-63 0 -102.5 35t-39.5 105q0 67 40.5 106.5t108.5 39.5q64 0 103.5 -34t39.5 -105q0 -67 -40.5 -107t-109.5 -40zM174 503q37 0 57.5 22.5t20.5 64.5q0 81 -72 81q-38 0 -59 -21.5t-21 -63.5q0 -83 74 -83z" />
    <glyph glyph-name="quotesingle" unicode="'" horiz-adv-x="234" 
d="M99 451q-14 0 -14 13l-9 238q0 10 4 14t15 4h44q11 0 15 -4t4 -14l-8 -238q0 -13 -14 -13h-37z" />
    <glyph glyph-name="quotedbl" unicode="&#x22;" horiz-adv-x="414" 
d="M99 451q-14 0 -14 13l-9 238q0 10 4 14t15 4h44q11 0 15 -4t4 -14l-8 -238q0 -13 -14 -13h-37zM279 451q-14 0 -14 13l-9 238q0 10 4 14t15 4h44q11 0 15 -4t4 -14l-8 -238q0 -13 -14 -13h-37z" />
    <glyph glyph-name="radical" unicode="&#x221a;" horiz-adv-x="632" 
d="M132 506h-72q-14 0 -14 15v30q0 15 14 15h111q14 0 18 -3t8 -14l152 -470l260 825q4 10 14 10h47q7 0 10.5 -1t1.5 -9l-287 -894q-4 -10 -15 -10h-63q-8 0 -11 2t-5 7z" />
    <glyph glyph-name="currency" unicode="&#xa4;" 
d="M460 368q0 -101 -49 -158l68 -118q7 -11 -7 -11h-54q-9 0 -12 2t-8 10l-44 74q-35 -16 -81 -16q-42 0 -73 15l-44 -73q-5 -8 -8 -10t-12 -2h-54q-14 0 -7 11l69 119q-21 27 -31 62.5t-10 77.5q0 101 49 158l-68 118q-7 11 7 11h54q9 0 12 -2t8 -10l44 -74q35 16 81 16
q41 0 73 -15l44 73q5 8 8 10t12 2h54q14 0 7 -11l-69 -119q21 -27 31 -62.5t10 -77.5zM391 363q0 23 -4 48t-15.5 46t-32 34.5t-53.5 13.5q-21 0 -41.5 -8t-36.5 -25.5t-26 -46t-10 -69.5q0 -23 4 -48t15.5 -46t32 -34.5t53.5 -13.5q21 0 41.5 8t36.5 25.5t26 46t10 69.5z
" />
    <glyph glyph-name="infinity" unicode="&#x221e;" horiz-adv-x="822" 
d="M209 168q-32 0 -61 10.5t-51 30.5t-35 49.5t-13 67.5q0 36 12 65.5t33.5 51t51.5 33t66 11.5q60 0 107 -29.5t94 -84.5q21 26 42.5 46.5t44.5 35t50.5 22.5t60.5 8q35 0 65 -10.5t51.5 -30.5t34 -49.5t12.5 -66.5q0 -39 -13.5 -69t-36.5 -49.5t-53 -29.5t-63 -10
q-54 0 -99.5 27t-97.5 84q-38 -47 -89 -80t-113 -33zM218 236q48 0 83.5 27t64.5 66q-33 40 -67 67.5t-81 27.5q-45 0 -72.5 -25.5t-27.5 -69.5q0 -45 29 -69t71 -24zM596 236q48 0 77 26.5t29 68.5q0 22 -8.5 39t-23 28.5t-33 17.5t-38.5 6q-47 0 -79 -27t-61 -66
q22 -25 39 -42.5t32.5 -29t31 -16.5t34.5 -5z" />
    <glyph glyph-name="uni00B5" unicode="&#xb5;" horiz-adv-x="589" 
d="M436 60q-26 -31 -71 -50.5t-93 -19.5q-32 0 -64.5 11.5t-53.5 34.5v-263q0 -15 -15 -15h-43q-15 0 -15 15v741q0 14 15 14h43q15 0 15 -14v-255q0 -64 5 -100.5t25 -60.5q30 -36 103 -36q30 0 64 11.5t54 31.5q7 8 15 23.5t11 53.5q2 23 3 62.5t1 88.5v181q0 14 15 14h43
q15 0 15 -14v-302q0 -58 0.5 -108.5t2.5 -89.5q0 -14 -15 -14h-40q-16 0 -17 14q-1 7 -2 21t-1 25z" />
    <glyph glyph-name="Ohm" unicode="&#x2126;" horiz-adv-x="730" 
d="M365 663q-54 0 -95.5 -22t-69.5 -61.5t-42.5 -93t-14.5 -116.5q0 -61 11.5 -109.5t32 -86t49.5 -66t65 -49.5q6 -4 9 -7.5t3 -13.5v-22q0 -16 -17 -16h-219q-17 0 -17 16v28q0 16 17 16h129q-25 15 -50.5 43t-46 67.5t-33.5 89t-13 108.5q0 88 23.5 156t64 113.5t95.5 69
t118 23.5t118 -23.5t96.5 -69t65 -113.5t23.5 -156q0 -59 -13 -108.5t-33.5 -89t-46 -67.5t-50.5 -43h129q17 0 17 -16v-28q0 -16 -17 -16h-219q-17 0 -17 16v22q0 10 3 13.5t9 7.5q36 21 65 49.5t49.5 66t32 86t11.5 109.5q0 63 -14.5 116.5t-42.5 93t-69.5 61.5t-95.5 22z
" />
    <glyph glyph-name="glyph191" unicode="&#x2206;" horiz-adv-x="576" 
d="M529 120q6 -20 10 -32.5t6.5 -21.5t3 -15.5t0.5 -14.5v-20q0 -16 -17 -16h-489q-17 0 -17 16v20q0 8 0.5 14.5t2.5 15.5t6 21.5t11 32.5l191 584q3 9 8 12.5t16 3.5h53q11 0 16 -3.5t8 -12.5zM106 66h357l-175 581z" />
    <glyph glyph-name="partialdiff" unicode="&#x2202;" 
d="M263 -10q-106 0 -160 66t-54 177q0 45 12.5 84.5t37.5 68.5t63.5 45.5t90.5 16.5q38 0 82 -14t79 -37q-5 46 -18.5 93t-38.5 85.5t-62.5 63t-90.5 24.5q-29 0 -54 -5.5t-48 -14.5q-10 -3 -14 -0.5t-6 9.5l-10 30q-3 10 -1.5 14t9.5 8q27 13 59.5 19.5t62.5 6.5
q59 0 103.5 -19t77.5 -51t55 -74.5t35.5 -90.5t19 -98.5t5.5 -97.5q0 -67 -12.5 -123.5t-40 -98t-72.5 -64.5t-110 -23zM261 57q42 0 72 17t49 48.5t28 77t9 101.5v31q-29 19 -70 34.5t-91 15.5q-63 0 -97.5 -38.5t-34.5 -114.5q0 -31 6 -61.5t21.5 -55t41.5 -40t66 -15.5z
" />
    <glyph glyph-name="summation" unicode="&#x2211;" horiz-adv-x="553" 
d="M21 -131q0 14 3.5 22.5t16.5 24.5l300 367l-294 354q-13 16 -16.5 24.5t-3.5 22.5v20q0 16 17 16h474q17 0 17 -16v-34q0 -16 -17 -16h-394l280 -336q5 -7 6.5 -11.5t1.5 -13.5v-10q0 -11 -2 -15.5t-8 -12.5l-286 -356h409q17 0 17 -16v-34q0 -16 -17 -16h-487
q-17 0 -17 16v20v0z" />
    <glyph glyph-name="product" unicode="&#x220f;" horiz-adv-x="667" 
d="M551 -151q0 -16 -17 -16h-43q-17 0 -17 16v805h-281v-805q0 -16 -17 -16h-43q-17 0 -17 16v805h-79q-17 0 -17 16v34q0 16 17 16h593q17 0 17 -16v-34q0 -16 -17 -16h-79v-805z" />
    <glyph glyph-name="integral" unicode="&#x222b;" horiz-adv-x="354" 
d="M248 56q0 -107 -44.5 -155t-120.5 -48q-14 0 -29 1.5t-28 5.5q-16 4 -12 23l7 30q2 10 6.5 11.5t12.5 -0.5q19 -4 41 -4q31 0 49 10t28 28t13 41.5t3 50.5q0 62 -11 117.5t-23.5 111.5t-23.5 116.5t-11 131.5q0 107 44 155t121 48q14 0 29 -1.5t28 -5.5q16 -4 12 -23
l-7 -30q-2 -10 -6.5 -11.5t-12.5 0.5q-19 4 -41 4q-31 0 -49.5 -10t-28 -28t-12.5 -41.5t-3 -50.5q0 -69 11 -127t23.5 -113t23.5 -112.5t11 -124.5z" />
    <glyph glyph-name="litre" unicode="&#x2113;" horiz-adv-x="233" 
d="M148 114q0 -33 6.5 -45.5t32.5 -12.5q14 0 14 -13v-20q0 -8 -2 -11.5t-8 -5.5q-5 -2 -15.5 -4t-21.5 -2q-25 0 -42 9.5t-25 25.5q-8 14 -10 36.5t-2 61.5v383q0 67 -1 109.5t-2 68.5t-2 38.5t-1 19.5q0 14 13 14h45q13 0 14 -11q3 -23 5 -86.5t2 -165.5v-389z" />
    <glyph glyph-name="estimated" unicode="&#x212e;" horiz-adv-x="922" 
d="M462 -10q-85 0 -160 29t-131 79.5t-88.5 117.5t-32.5 144t32.5 144.5t88.5 117.5t131 79t160 29t159.5 -29t130 -79t88 -117.5t32.5 -144.5v-8h-666q-5 0 -5 -6v-202q0 -12 9 -24q48 -48 113 -78t140 -30q80 0 148 32.5t116 89.5h60q-57 -66 -141 -105t-184 -39zM716 371
q5 0 5 6v203q0 13 -10 25q-48 48 -112 75.5t-136 27.5q-75 0 -139 -29t-113 -77q-10 -10 -10 -26v-199q0 -6 5 -6h510z" />
    <glyph glyph-name="numero" unicode="&#x2116;" horiz-adv-x="1043" 
d="M993 474q0 -105 -42.5 -160t-123.5 -55q-75 0 -115.5 50t-40.5 144q0 105 42.5 160t123.5 55q75 0 115.5 -49.5t40.5 -144.5zM926 470q0 66 -23 102.5t-69 36.5q-45 0 -70.5 -38.5t-25.5 -113.5q0 -66 23 -102.5t69 -36.5q45 0 70.5 38.5t25.5 113.5zM155 16
q0 -16 -17 -16h-39q-17 0 -17 16v688q0 16 16 16h43q14 0 20.5 -3.5t14.5 -17.5l250 -403q34 -56 59.5 -98.5t50.5 -86.5q-2 40 -2.5 91t-0.5 104v398q0 16 17 16h39q17 0 17 -16v-688q0 -16 -17 -16h-42q-14 0 -20.5 3.5t-14.5 17.5l-250 403q-35 57 -61 99.5t-49 85.5
q2 -40 2.5 -91t0.5 -104v-398z" />
    <glyph glyph-name="ordfeminine" unicode="&#xaa;" horiz-adv-x="412" 
d="M291 352q-17 -25 -43.5 -39.5t-65.5 -14.5q-30 0 -57.5 11t-49 33.5t-34 56.5t-12.5 80q0 43 12.5 78.5t34.5 61.5t52 40.5t65 14.5t59.5 -12.5t39.5 -29.5l7 24q2 7 5 9t11 2h33q7 0 10.5 -2t2.5 -11q-1 -7 -2 -20t-1.5 -28.5t-1 -31.5t-0.5 -29v-90q0 -42 0.5 -72
t4.5 -66q1 -12 -13 -12h-38q-12 0 -13 11zM289 573q-15 19 -36.5 30t-46.5 11q-50 0 -79 -35t-29 -94q0 -22 5.5 -45t17.5 -41.5t31 -30t46 -11.5q39 0 62 27q29 34 29 106v83z" />
    <glyph glyph-name="ordmasculine" unicode="&#xba;" horiz-adv-x="408" 
d="M200 358q21 0 41 7.5t36 23t26 41t10 61.5q0 19 -5 41t-17.5 40t-32.5 30t-50 12q-21 0 -41 -7.5t-36 -23t-26 -41t-10 -61.5q0 -20 5 -41.5t17.5 -39.5t32.5 -30t50 -12zM198 298q-83 0 -127 47.5t-44 131.5q0 49 13.5 86t38 61.5t58 37t73.5 12.5q83 0 127 -47.5
t44 -131.5q0 -49 -13.5 -86t-38 -61.5t-58 -37t-73.5 -12.5z" />
    <glyph glyph-name="onesuperior" unicode="&#xb9;" horiz-adv-x="300" 
d="M61 401q-10 0 -10 10v30q0 10 10 10h80v281l-80 -47q-11 -6 -17 4l-13 22q-6 11 3 17l96 59q8 5 14.5 7t17.5 2h29q8 0 10 -3.5t2 -8.5v-333h67q10 0 10 -10v-30q0 -10 -10 -10h-209z" />
    <glyph glyph-name="twosuperior" unicode="&#xb2;" horiz-adv-x="311" 
d="M38 401q-10 0 -10 12v16q0 31 13.5 56.5t34 47t44.5 40t44.5 37t34 37.5t13.5 41q0 29 -17.5 44t-49.5 15q-21 0 -42.5 -7t-43.5 -19q-8 -5 -11.5 -3t-6.5 7l-12 24q-6 10 4 17q24 15 54.5 24.5t65.5 9.5q51 0 87 -28t36 -80q0 -28 -12 -50.5t-31 -42t-41.5 -37
t-42.5 -35t-35.5 -36t-19.5 -40.5h181q10 0 10 -10v-30q0 -10 -10 -10h-237z" />
    <glyph glyph-name="threesuperior" unicode="&#xb3;" horiz-adv-x="321" 
d="M96 607q0 8 1.5 14t11.5 19l87 106h-150q-10 0 -10 10v30q0 10 10 10h211q7 0 9.5 -1.5t2.5 -9.5v-12q0 -11 -4.5 -20.5t-21.5 -30.5l-74 -90q53 -3 84.5 -33t31.5 -77q0 -55 -36.5 -90t-108.5 -35q-32 0 -64 9t-49 20q-6 4 -6 8.5t2 9.5l10 23q5 12 16 7q23 -11 45 -18
t45 -7q41 0 61.5 19.5t20.5 51.5q0 31 -18 48q-12 11 -32 14.5t-48 3.5h-16q-11 0 -11 10v11z" />
    <glyph glyph-name="fraction" unicode="&#x2044;" horiz-adv-x="387" 
d="M57 -9q-4 -8 -8 -11t-13 -3h-36q-19 0 -10 17l340 737q4 8 8 11t13 3h36q18 0 10 -17z" />
    <glyph glyph-name="onehalf" unicode="&#xbd;" horiz-adv-x="871" 
d="M79 325q-10 0 -10 10v30q0 10 10 10h80v281l-80 -47q-11 -6 -17 4l-13 22q-6 11 3 17l96 59q8 5 14.5 7t17.5 2h30q8 0 10 -3.5t2 -8.5v-333h66q10 0 10 -10v-30q0 -10 -10 -10h-209zM538 0q-10 0 -10 12v16q0 31 13.5 56.5t34 47t44.5 40t44.5 37t34 37.5t13.5 41
q0 29 -17.5 44t-49.5 15q-21 0 -42.5 -7t-43.5 -19q-8 -5 -11.5 -3t-6.5 7l-12 24q-6 10 4 17q24 15 54.5 24.5t65.5 9.5q51 0 87 -28t36 -80q0 -28 -12 -50.5t-31 -42t-41.5 -37t-42.5 -35t-35.5 -36t-19.5 -40.5h181q10 0 10 -10v-30q0 -10 -10 -10h-237zM303 -9
q-4 -8 -8 -11t-13 -3h-36q-19 0 -10 17l340 737q4 8 8 11t13 3h36q18 0 10 -17z" />
    <glyph glyph-name="onequarter" unicode="&#xbc;" horiz-adv-x="871" 
d="M79 325q-10 0 -10 10v30q0 10 10 10h80v281l-80 -47q-11 -6 -17 4l-13 22q-6 11 3 17l96 59q8 5 14.5 7t17.5 2h30q8 0 10 -3.5t2 -8.5v-333h66q10 0 10 -10v-30q0 -10 -10 -10h-209zM564 143h117v70q0 10 9 10h42q9 0 9 -10v-70h47q10 0 10 -10v-32q0 -10 -10 -10h-47
v-81q0 -10 -9 -10h-42q-9 0 -9 10v81h-178q-8 0 -8 8v18q0 7 0.5 14.5t3.5 13.5l128 241q4 9 15 9h38q14 0 9 -11zM303 -9q-4 -8 -8 -11t-13 -3h-36q-19 0 -10 17l340 737q4 8 8 11t13 3h36q18 0 10 -17z" />
    <glyph glyph-name="threequarters" unicode="&#xbe;" horiz-adv-x="871" 
d="M145 531q0 8 1.5 14t11.5 19l87 106h-150q-10 0 -10 10v30q0 10 10 10h211q7 0 9.5 -1.5t2.5 -9.5v-12q0 -11 -4.5 -20.5t-21.5 -30.5l-74 -90q53 -3 84.5 -33t31.5 -77q0 -55 -36.5 -90t-108.5 -35q-32 0 -64 9t-49 20q-6 4 -6 8.5t2 9.5l10 23q5 12 16 7q23 -11 45 -18
t45 -7q41 0 61.5 19.5t20.5 51.5q0 31 -18 48q-12 11 -32 14.5t-48 3.5h-16q-11 0 -11 10v11zM567 143h117v70q0 10 9 10h42q9 0 9 -10v-70h47q10 0 10 -10v-32q0 -10 -10 -10h-47v-81q0 -10 -9 -10h-42q-9 0 -9 10v81h-178q-8 0 -8 8v18q0 7 0.5 14.5t3.5 13.5l128 241
q4 9 15 9h38q14 0 9 -11zM316 -9q-4 -8 -8 -11t-13 -3h-36q-19 0 -10 17l340 737q4 8 8 11t13 3h36q18 0 10 -17z" />
    <glyph glyph-name="Agrave" unicode="&#xc0;" horiz-adv-x="645" 
d="M345 720q11 0 16 -3.5t8 -12.5l244 -686q6 -18 -13 -18h-47q-12 0 -17 3.5t-8 12.5l-56 172h-306l-55 -172q-3 -9 -7.5 -12.5t-16.5 -3.5h-44q-18 0 -11 18l235 686q3 9 8 12.5t16 3.5h54zM450 256l-132 391l-130 -391h262zM296 775q-11 0 -16 8l-81 115q-5 6 -3 9.5
t7 3.5h67q8 0 11 -1.5t7 -8.5l61 -116q5 -10 -6 -10h-47z" />
    <glyph glyph-name="Aacute" unicode="&#xc1;" horiz-adv-x="645" 
d="M345 720q11 0 16 -3.5t8 -12.5l244 -686q6 -18 -13 -18h-47q-12 0 -17 3.5t-8 12.5l-56 172h-306l-55 -172q-3 -9 -7.5 -12.5t-16.5 -3.5h-44q-18 0 -11 18l235 686q3 9 8 12.5t16 3.5h54zM450 256l-132 391l-130 -391h262zM294 775q-11 0 -6 10l61 116q4 7 7 8.5t11 1.5
h67q5 0 7 -3.5t-3 -9.5l-81 -115q-5 -8 -16 -8h-47z" />
    <glyph glyph-name="Acircumflex" unicode="&#xc2;" horiz-adv-x="645" 
d="M345 720q11 0 16 -3.5t8 -12.5l244 -686q6 -18 -13 -18h-47q-12 0 -17 3.5t-8 12.5l-56 172h-306l-55 -172q-3 -9 -7.5 -12.5t-16.5 -3.5h-44q-18 0 -11 18l235 686q3 9 8 12.5t16 3.5h54zM450 256l-132 391l-130 -391h262zM469 804q3 -4 3.5 -7.5t-4.5 -8.5l-20 -21
q-9 -9 -18 -1l-112 95l-112 -95q-9 -8 -18 1l-20 21q-5 5 -4.5 8.5t3.5 7.5l91 97q7 7 11.5 9.5t13.5 2.5h70q9 0 13.5 -2.5t11.5 -9.5z" />
    <glyph glyph-name="Atilde" unicode="&#xc3;" horiz-adv-x="645" 
d="M345 720q11 0 16 -3.5t8 -12.5l244 -686q6 -18 -13 -18h-47q-12 0 -17 3.5t-8 12.5l-56 172h-306l-55 -172q-3 -9 -7.5 -12.5t-16.5 -3.5h-44q-18 0 -11 18l235 686q3 9 8 12.5t16 3.5h54zM450 256l-132 391l-130 -391h262zM464 824q-12 -16 -34.5 -30t-50.5 -14
q-19 0 -32.5 4.5t-26.5 10.5t-27.5 10.5t-34.5 4.5q-16 0 -28 -8.5t-20 -16.5q-7 -7 -14 0l-27 33q-6 8 3 18q12 16 34.5 30t50.5 14q19 0 32.5 -4.5t26.5 -10.5t27.5 -10.5t34.5 -4.5q16 0 28 8.5t20 16.5q4 4 7 4.5t7 -4.5l27 -33q5 -7 -3 -18z" />
    <glyph glyph-name="Adieresis" unicode="&#xc4;" horiz-adv-x="645" 
d="M345 720q11 0 16 -3.5t8 -12.5l244 -686q6 -18 -13 -18h-47q-12 0 -17 3.5t-8 12.5l-56 172h-306l-55 -172q-3 -9 -7.5 -12.5t-16.5 -3.5h-44q-18 0 -11 18l235 686q3 9 8 12.5t16 3.5h54zM450 256l-132 391l-130 -391h262zM193 784q-14 0 -14 13v66q0 13 14 13h61
q16 0 16 -13v-66q0 -13 -16 -13h-61zM381 784q-15 0 -15 13v66q0 13 15 13h61q15 0 15 -13v-66q0 -13 -15 -13h-61z" />
    <glyph glyph-name="Amacron" unicode="&#x100;" horiz-adv-x="645" 
d="M345 720q11 0 16 -3.5t8 -12.5l244 -686q6 -18 -13 -18h-47q-12 0 -17 3.5t-8 12.5l-56 172h-306l-55 -172q-3 -9 -7.5 -12.5t-16.5 -3.5h-44q-18 0 -11 18l235 686q3 9 8 12.5t16 3.5h54zM450 256l-132 391l-130 -391h262zM452 856q14 0 14 -14v-37q0 -14 -14 -14h-267
q-14 0 -14 14v37q0 14 14 14h267z" />
    <glyph glyph-name="Abreve" unicode="&#x102;" horiz-adv-x="645" 
d="M345 720q11 0 16 -3.5t8 -12.5l244 -686q6 -18 -13 -18h-47q-12 0 -17 3.5t-8 12.5l-56 172h-306l-55 -172q-3 -9 -7.5 -12.5t-16.5 -3.5h-44q-18 0 -11 18l235 686q3 9 8 12.5t16 3.5h54zM450 256l-132 391l-130 -391h262zM318 778q-59 0 -99 24.5t-44 84.5q0 11 12 11
h42q11 0 12 -12q2 -29 22 -43t53 -14t55 14t24 43q1 12 12 12h42q12 0 12 -11q-4 -60 -44 -84.5t-99 -24.5z" />
    <glyph glyph-name="Acaron" unicode="&#x1cd;" horiz-adv-x="645" 
d="M345 720q11 0 16 -3.5t8 -12.5l244 -686q6 -18 -13 -18h-47q-12 0 -17 3.5t-8 12.5l-56 172h-306l-55 -172q-3 -9 -7.5 -12.5t-16.5 -3.5h-44q-18 0 -11 18l235 686q3 9 8 12.5t16 3.5h54zM450 256l-132 391l-130 -391h262zM378 779q-7 -7 -11.5 -9.5t-13.5 -2.5h-70
q-9 0 -13.5 2.5t-11.5 9.5l-91 97q-3 4 -3.5 7.5t4.5 8.5l20 21q9 9 18 1l112 -95l112 95q9 8 18 -1l20 -21q5 -5 4.5 -8.5t-3.5 -7.5z" />
    <glyph glyph-name="Aring" unicode="&#xc5;" horiz-adv-x="645" 
d="M345 720q11 0 16 -3.5t8 -12.5l244 -686q6 -18 -13 -18h-47q-12 0 -17 3.5t-8 12.5l-56 172h-306l-55 -172q-3 -9 -7.5 -12.5t-16.5 -3.5h-44q-18 0 -11 18l235 686q3 9 8 12.5t16 3.5h54zM450 256l-132 391l-130 -391h262zM318 754q-18 0 -33.5 6.5t-27.5 17.5t-19 26.5
t-7 32.5t7 32t19 26.5t27.5 18t33.5 6.5t33.5 -6.5t27.5 -17.5t19 -26t7 -33t-7 -33t-19 -26t-27.5 -17.5t-33.5 -6.5zM318 794q18 0 30 13t12 30q0 18 -12 30.5t-30 12.5t-30.5 -11.5t-12.5 -31.5t12.5 -31.5t30.5 -11.5z" />
    <glyph glyph-name="Aringacute" unicode="&#x1fa;" horiz-adv-x="645" 
d="M345 720q11 0 16 -3.5t8 -12.5l244 -686q6 -18 -13 -18h-47q-12 0 -17 3.5t-8 12.5l-56 172h-306l-55 -172q-3 -9 -7.5 -12.5t-16.5 -3.5h-44q-18 0 -11 18l235 686q3 9 8 12.5t16 3.5h54zM450 256l-132 391l-130 -391h262zM322 755q-18 0 -33.5 6.5t-27.5 17.5t-19 26.5
t-7 32.5t7 32t19 26.5t27.5 18t33.5 6.5t33.5 -6.5t27.5 -17.5t19 -26t7 -33t-7 -33t-19 -26t-27.5 -17.5t-33.5 -6.5zM322 795q18 0 30 13t12 30q0 18 -12 30.5t-30 12.5t-30.5 -11.5t-12.5 -31.5t12.5 -31.5t30.5 -11.5zM252 940q-11 0 -6 10l61 116q4 7 7 8.5t11 1.5h67
q5 0 7 -3.5t-3 -9.5l-81 -115q-5 -8 -16 -8h-47z" />
    <glyph glyph-name="Aogonek" unicode="&#x104;" horiz-adv-x="645" 
d="M472 188h-306l-55 -172q-3 -9 -7.5 -12.5t-16.5 -3.5h-44q-18 0 -11 18l235 686q3 9 8 12.5t16 3.5h54q11 0 16 -3.5t8 -12.5l244 -686q5 -15 -10 -18q-16 -3 -31.5 -12t-28 -22.5t-20.5 -30.5t-8 -35q0 -23 16 -33t36 -10q17 0 40 5q12 3 13 -8l5 -30q1 -7 -0.5 -10
t-8.5 -5q-14 -5 -31 -7.5t-35 -2.5q-29 0 -49 8t-33 20t-18.5 26.5t-5.5 28.5q0 76 86 127zM450 256l-132 391l-130 -391h262z" />
    <glyph glyph-name="AE" unicode="&#xc6;" horiz-adv-x="877" 
d="M806 720q17 0 17 -16v-34q0 -16 -17 -16h-304v-257h257q17 0 17 -15v-34q0 -16 -17 -16h-257v-266h308q17 0 17 -16v-34q0 -16 -17 -16h-368q-17 0 -17 16v171h-232l-96 -178q-5 -9 -16 -9h-62q-6 0 -8.5 4t1.5 10l384 691q5 9 9.5 12t15.5 3h385zM229 255h196v360
q-23 -41 -48 -87.5t-61 -112.5z" />
    <glyph glyph-name="AEacute" unicode="&#x1fc;" horiz-adv-x="877" 
d="M806 720q17 0 17 -16v-34q0 -16 -17 -16h-304v-257h257q17 0 17 -15v-34q0 -16 -17 -16h-257v-266h308q17 0 17 -16v-34q0 -16 -17 -16h-368q-17 0 -17 16v171h-232l-96 -178q-5 -9 -16 -9h-62q-6 0 -8.5 4t1.5 10l384 691q5 9 9.5 12t15.5 3h385zM229 255h196v360
q-23 -41 -48 -87.5t-61 -112.5zM453 775q-11 0 -6 10l61 116q4 7 7 8.5t11 1.5h67q5 0 7 -3.5t-3 -9.5l-81 -115q-5 -8 -16 -8h-47z" />
    <glyph glyph-name="Cacute" unicode="&#x106;" horiz-adv-x="566" 
d="M335 -10q-141 0 -213 94t-72 265q0 85 17.5 155t54.5 120t94 78t136 28q46 0 89.5 -11t75.5 -31q9 -5 10 -11t-3 -15l-9 -21q-8 -17 -23 -10q-36 17 -70 25t-71 8q-109 0 -165 -79t-56 -229q0 -155 57 -226.5t162 -71.5q31 0 66.5 8t67.5 21q9 4 14.5 3.5t9.5 -10.5
l10 -24q5 -11 3.5 -15.5t-9.5 -9.5q-36 -18 -82 -29.5t-94 -11.5zM299 775q-11 0 -6 10l61 116q4 7 7 8.5t11 1.5h67q5 0 7 -3.5t-3 -9.5l-81 -115q-5 -8 -16 -8h-47z" />
    <glyph glyph-name="Ccedilla" unicode="&#xc7;" horiz-adv-x="566" 
d="M351 -216q-20 0 -41.5 3.5t-33.5 8.5q-6 2 -8 5t0 11l6 26q3 12 13 9q14 -4 30 -8t33 -4q50 0 50 38q0 19 -17 26t-44 7q-11 0 -23 -0.5t-22 -1.5q-13 0 -12 11l10 78q-120 14 -181 106t-61 250q0 85 17.5 155t54.5 120t94 78t136 28q46 0 89.5 -11t75.5 -31q9 -5 10 -11
t-3 -15l-9 -21q-8 -17 -23 -10q-36 17 -70 25t-71 8q-109 0 -165 -79t-56 -229q0 -155 57 -226.5t162 -71.5q31 0 66 8t67 21q9 4 14.5 2.5t9.5 -9.5l11 -24q5 -9 4.5 -14.5t-10.5 -10.5q-34 -18 -76 -28.5t-87 -12.5l-2 -33q5 1 13.5 1.5t15.5 0.5q17 0 33.5 -5t29 -15.5
t20.5 -25.5t8 -34q0 -18 -6.5 -35t-20.5 -30.5t-35.5 -21.5t-52.5 -8z" />
    <glyph glyph-name="Ccircumflex" unicode="&#x108;" horiz-adv-x="566" 
d="M335 -10q-141 0 -213 94t-72 265q0 85 17.5 155t54.5 120t94 78t136 28q46 0 89.5 -11t75.5 -31q9 -5 10 -11t-3 -15l-9 -21q-8 -17 -23 -10q-36 17 -70 25t-71 8q-109 0 -165 -79t-56 -229q0 -155 57 -226.5t162 -71.5q31 0 66.5 8t67.5 21q9 4 14.5 3.5t9.5 -10.5
l10 -24q5 -11 3.5 -15.5t-9.5 -9.5q-36 -18 -82 -29.5t-94 -11.5zM503 804q3 -4 3.5 -7.5t-4.5 -8.5l-20 -21q-9 -9 -18 -1l-112 95l-112 -95q-9 -8 -18 1l-20 21q-5 5 -4.5 8.5t3.5 7.5l91 97q7 7 11.5 9.5t13.5 2.5h70q9 0 13.5 -2.5t11.5 -9.5z" />
    <glyph glyph-name="Ccaron" unicode="&#x10c;" horiz-adv-x="566" 
d="M335 -10q-141 0 -213 94t-72 265q0 85 17.5 155t54.5 120t94 78t136 28q46 0 89.5 -11t75.5 -31q9 -5 10 -11t-3 -15l-9 -21q-8 -17 -23 -10q-36 17 -70 25t-71 8q-109 0 -165 -79t-56 -229q0 -155 57 -226.5t162 -71.5q31 0 66.5 8t67.5 21q9 4 14.5 3.5t9.5 -10.5
l10 -24q5 -11 3.5 -15.5t-9.5 -9.5q-36 -18 -82 -29.5t-94 -11.5zM409 779q-7 -7 -11.5 -9.5t-13.5 -2.5h-70q-9 0 -13.5 2.5t-11.5 9.5l-91 97q-3 4 -3.5 7.5t4.5 8.5l20 21q9 9 18 1l112 -95l112 95q9 8 18 -1l20 -21q5 -5 4.5 -8.5t-3.5 -7.5z" />
    <glyph glyph-name="Cdotaccent" unicode="&#x10a;" horiz-adv-x="566" 
d="M335 -10q-141 0 -213 94t-72 265q0 85 17.5 155t54.5 120t94 78t136 28q46 0 89.5 -11t75.5 -31q9 -5 10 -11t-3 -15l-9 -21q-8 -17 -23 -10q-36 17 -70 25t-71 8q-109 0 -165 -79t-56 -229q0 -155 57 -226.5t162 -71.5q31 0 66.5 8t67.5 21q9 4 14.5 3.5t9.5 -10.5
l10 -24q5 -11 3.5 -15.5t-9.5 -9.5q-36 -18 -82 -29.5t-94 -11.5zM323 790q-15 0 -15 13v66q0 13 15 13h61q15 0 15 -13v-66q0 -13 -15 -13h-61z" />
    <glyph glyph-name="Dcaron" unicode="&#x10e;" horiz-adv-x="648" 
d="M598 360q0 -96 -23 -162.5t-65 -109.5q-47 -49 -112 -68.5t-161 -19.5h-138q-17 0 -17 16v688q0 16 17 16h138q96 0 161 -19.5t112 -68.5q42 -43 65 -109.5t23 -162.5zM518 360q0 72 -15.5 125t-44.5 88q-29 38 -80.5 59.5t-131.5 21.5h-87v-588h87q80 0 131.5 21.5
t80.5 59.5q29 35 44.5 88t15.5 125zM384 779q-7 -7 -11.5 -9.5t-13.5 -2.5h-70q-9 0 -13.5 2.5t-11.5 9.5l-91 97q-3 4 -3.5 7.5t4.5 8.5l20 21q9 9 18 1l112 -95l112 95q9 8 18 -1l20 -21q5 -5 4.5 -8.5t-3.5 -7.5z" />
    <glyph glyph-name="Dcroat" unicode="&#x110;" horiz-adv-x="668" 
d="M618 360q0 -96 -23 -162.5t-65 -109.5q-47 -49 -112 -68.5t-161 -19.5h-138q-17 0 -17 16v319h-50q-14 0 -14 14v33q0 14 14 14h50v308q0 16 17 16h138q96 0 161 -19.5t112 -68.5q42 -43 65 -109.5t23 -162.5zM538 360q0 72 -15.5 125t-44.5 88q-29 38 -80.5 59.5
t-131.5 21.5h-87v-258h186q14 0 14 -14v-33q0 -14 -14 -14h-186v-269h87q80 0 131.5 21.5t80.5 59.5q29 35 44.5 88t15.5 125z" />
    <glyph glyph-name="Eth" unicode="&#xd0;" horiz-adv-x="668" 
d="M618 360q0 -96 -23 -162.5t-65 -109.5q-47 -49 -112 -68.5t-161 -19.5h-138q-17 0 -17 16v319h-50q-14 0 -14 14v33q0 14 14 14h50v308q0 16 17 16h138q96 0 161 -19.5t112 -68.5q42 -43 65 -109.5t23 -162.5zM538 360q0 72 -15.5 125t-44.5 88q-29 38 -80.5 59.5
t-131.5 21.5h-87v-258h186q14 0 14 -14v-33q0 -14 -14 -14h-186v-269h87q80 0 131.5 21.5t80.5 59.5q29 35 44.5 88t15.5 125z" />
    <glyph glyph-name="Egrave" unicode="&#xc8;" horiz-adv-x="534" 
d="M99 0q-17 0 -17 16v688q0 16 17 16h364q17 0 17 -16v-34q0 -16 -17 -16h-304v-257h257q17 0 17 -15v-34q0 -16 -17 -16h-257v-266h308q17 0 17 -16v-34q0 -16 -17 -16h-368zM300 775q-11 0 -16 8l-81 115q-5 6 -3 9.5t7 3.5h67q8 0 11 -1.5t7 -8.5l61 -116q5 -10 -6 -10
h-47z" />
    <glyph glyph-name="Eacute" unicode="&#xc9;" horiz-adv-x="534" 
d="M99 0q-17 0 -17 16v688q0 16 17 16h364q17 0 17 -16v-34q0 -16 -17 -16h-304v-257h257q17 0 17 -15v-34q0 -16 -17 -16h-257v-266h308q17 0 17 -16v-34q0 -16 -17 -16h-368zM246 775q-11 0 -6 10l61 116q4 7 7 8.5t11 1.5h67q5 0 7 -3.5t-3 -9.5l-81 -115q-5 -8 -16 -8
h-47z" />
    <glyph glyph-name="Ecircumflex" unicode="&#xca;" horiz-adv-x="534" 
d="M99 0q-17 0 -17 16v688q0 16 17 16h364q17 0 17 -16v-34q0 -16 -17 -16h-304v-257h257q17 0 17 -15v-34q0 -16 -17 -16h-257v-266h308q17 0 17 -16v-34q0 -16 -17 -16h-368zM438 804q3 -4 3.5 -7.5t-4.5 -8.5l-20 -21q-9 -9 -18 -1l-112 95l-112 -95q-9 -8 -18 1l-20 21
q-5 5 -4.5 8.5t3.5 7.5l91 97q7 7 11.5 9.5t13.5 2.5h70q9 0 13.5 -2.5t11.5 -9.5z" />
    <glyph glyph-name="Ecaron" unicode="&#x11a;" horiz-adv-x="534" 
d="M99 0q-17 0 -17 16v688q0 16 17 16h364q17 0 17 -16v-34q0 -16 -17 -16h-304v-257h257q17 0 17 -15v-34q0 -16 -17 -16h-257v-266h308q17 0 17 -16v-34q0 -16 -17 -16h-368zM349 779q-7 -7 -11.5 -9.5t-13.5 -2.5h-70q-9 0 -13.5 2.5t-11.5 9.5l-91 97q-3 4 -3.5 7.5
t4.5 8.5l20 21q9 9 18 1l112 -95l112 95q9 8 18 -1l20 -21q5 -5 4.5 -8.5t-3.5 -7.5z" />
    <glyph glyph-name="Edieresis" unicode="&#xcb;" horiz-adv-x="534" 
d="M99 0q-17 0 -17 16v688q0 16 17 16h364q17 0 17 -16v-34q0 -16 -17 -16h-304v-257h257q17 0 17 -15v-34q0 -16 -17 -16h-257v-266h308q17 0 17 -16v-34q0 -16 -17 -16h-368zM160 784q-14 0 -14 13v66q0 13 14 13h61q16 0 16 -13v-66q0 -13 -16 -13h-61zM348 784
q-15 0 -15 13v66q0 13 15 13h61q15 0 15 -13v-66q0 -13 -15 -13h-61z" />
    <glyph glyph-name="Emacron" unicode="&#x112;" horiz-adv-x="534" 
d="M99 0q-17 0 -17 16v688q0 16 17 16h364q17 0 17 -16v-34q0 -16 -17 -16h-304v-257h257q17 0 17 -15v-34q0 -16 -17 -16h-257v-266h308q17 0 17 -16v-34q0 -16 -17 -16h-368zM416 856q14 0 14 -14v-37q0 -14 -14 -14h-267q-14 0 -14 14v37q0 14 14 14h267z" />
    <glyph glyph-name="Ebreve" unicode="&#x114;" horiz-adv-x="534" 
d="M99 0q-17 0 -17 16v688q0 16 17 16h364q17 0 17 -16v-34q0 -16 -17 -16h-304v-257h257q17 0 17 -15v-34q0 -16 -17 -16h-257v-266h308q17 0 17 -16v-34q0 -16 -17 -16h-368zM280 778q-59 0 -99 24.5t-44 84.5q0 11 12 11h42q11 0 12 -12q2 -29 22 -43t53 -14t55 14t24 43
q1 12 12 12h42q12 0 12 -11q-4 -60 -44 -84.5t-99 -24.5z" />
    <glyph glyph-name="Edotaccent" unicode="&#x116;" horiz-adv-x="534" 
d="M99 0q-17 0 -17 16v688q0 16 17 16h364q17 0 17 -16v-34q0 -16 -17 -16h-304v-257h257q17 0 17 -15v-34q0 -16 -17 -16h-257v-266h308q17 0 17 -16v-34q0 -16 -17 -16h-368zM257 790q-15 0 -15 13v66q0 13 15 13h61q15 0 15 -13v-66q0 -13 -15 -13h-61z" />
    <glyph glyph-name="Eogonek" unicode="&#x118;" horiz-adv-x="534" 
d="M297 -118q0 37 18.5 67t51.5 51h-268q-17 0 -17 16v688q0 16 17 16h364q17 0 17 -16v-34q0 -16 -17 -16h-304v-257h257q17 0 17 -15v-34q0 -16 -17 -16h-257v-266h308q17 0 17 -16v-34q0 -14 -11 -15q-24 -3 -43.5 -14t-33 -25.5t-21 -31.5t-7.5 -32q0 -23 16 -32t36 -9
q17 0 40 5q12 3 13 -8l5 -30q1 -7 -0.5 -10t-8.5 -5q-14 -5 -31 -7.5t-35 -2.5q-29 0 -49 8t-33 20t-18.5 26.5t-5.5 28.5z" />
    <glyph glyph-name="Gcircumflex" unicode="&#x11c;" horiz-adv-x="649" 
d="M342 320q-17 0 -17 16v33q0 15 17 15h224q17 0 17 -15v-311q0 -11 -3.5 -17.5t-16.5 -11.5q-42 -18 -93.5 -28.5t-102.5 -10.5q-75 0 -131 21t-94 60q-46 47 -69 117.5t-23 161.5q0 96 24.5 170.5t71.5 124.5q39 42 93.5 63.5t123.5 21.5q63 0 112.5 -14.5t83.5 -37.5
q14 -10 6 -26l-10 -21q-5 -9 -9.5 -12t-13.5 2q-76 44 -167 44q-106 0 -163 -65q-37 -41 -54.5 -102.5t-17.5 -139.5q0 -79 18 -140t56 -100q29 -29 71.5 -45t102.5 -16q32 0 69 7t62 17v239h-167zM510 804q3 -4 3.5 -7.5t-4.5 -8.5l-20 -21q-9 -9 -18 -1l-112 95l-112 -95
q-9 -8 -18 1l-20 21q-5 5 -4.5 8.5t3.5 7.5l91 97q7 7 11.5 9.5t13.5 2.5h70q9 0 13.5 -2.5t11.5 -9.5z" />
    <glyph glyph-name="Gbreve" unicode="&#x11e;" horiz-adv-x="649" 
d="M342 320q-17 0 -17 16v33q0 15 17 15h224q17 0 17 -15v-311q0 -11 -3.5 -17.5t-16.5 -11.5q-42 -18 -93.5 -28.5t-102.5 -10.5q-75 0 -131 21t-94 60q-46 47 -69 117.5t-23 161.5q0 96 24.5 170.5t71.5 124.5q39 42 93.5 63.5t123.5 21.5q63 0 112.5 -14.5t83.5 -37.5
q14 -10 6 -26l-10 -21q-5 -9 -9.5 -12t-13.5 2q-76 44 -167 44q-106 0 -163 -65q-37 -41 -54.5 -102.5t-17.5 -139.5q0 -79 18 -140t56 -100q29 -29 71.5 -45t102.5 -16q32 0 69 7t62 17v239h-167zM367 778q-59 0 -99 24.5t-44 84.5q0 11 12 11h42q11 0 12 -12q2 -29 22 -43
t53 -14t55 14t24 43q1 12 12 12h42q12 0 12 -11q-4 -60 -44 -84.5t-99 -24.5z" />
    <glyph glyph-name="Gdotaccent" unicode="&#x120;" horiz-adv-x="649" 
d="M342 320q-17 0 -17 16v33q0 15 17 15h224q17 0 17 -15v-311q0 -11 -3.5 -17.5t-16.5 -11.5q-42 -18 -93.5 -28.5t-102.5 -10.5q-75 0 -131 21t-94 60q-46 47 -69 117.5t-23 161.5q0 96 24.5 170.5t71.5 124.5q39 42 93.5 63.5t123.5 21.5q63 0 112.5 -14.5t83.5 -37.5
q14 -10 6 -26l-10 -21q-5 -9 -9.5 -12t-13.5 2q-76 44 -167 44q-106 0 -163 -65q-37 -41 -54.5 -102.5t-17.5 -139.5q0 -79 18 -140t56 -100q29 -29 71.5 -45t102.5 -16q32 0 69 7t62 17v239h-167zM334 790q-15 0 -15 13v66q0 13 15 13h61q15 0 15 -13v-66q0 -13 -15 -13
h-61z" />
    <glyph glyph-name="Gcommaaccent" unicode="&#x122;" horiz-adv-x="649" 
d="M342 320q-17 0 -17 16v33q0 15 17 15h224q17 0 17 -15v-311q0 -11 -3.5 -17.5t-16.5 -11.5q-42 -18 -93.5 -28.5t-102.5 -10.5q-75 0 -131 21t-94 60q-46 47 -69 117.5t-23 161.5q0 96 24.5 170.5t71.5 124.5q39 42 93.5 63.5t123.5 21.5q63 0 112.5 -14.5t83.5 -37.5
q14 -10 6 -26l-10 -21q-5 -9 -9.5 -12t-13.5 2q-76 44 -167 44q-106 0 -163 -65q-37 -41 -54.5 -102.5t-17.5 -139.5q0 -79 18 -140t56 -100q29 -29 71.5 -45t102.5 -16q32 0 69 7t62 17v239h-167zM339 -276q-15 0 -12 14l24 112l-15 7q-10 5 -13.5 8.5t-3.5 13.5v55
q0 14 15 14h67q16 0 16 -14v-33q0 -12 -1 -22t-3.5 -21.5t-6.5 -25.5t-10 -33l-19 -63q-4 -12 -17 -12h-21v0z" />
    <glyph glyph-name="Hcircumflex" unicode="&#x124;" horiz-adv-x="654" 
d="M99 0q-17 0 -17 16v688q0 16 17 16h43q17 0 17 -16v-307h336v307q0 16 17 16h43q17 0 17 -16v-688q0 -16 -17 -16h-43q-17 0 -17 16v316h-336v-316q0 -16 -17 -16h-43zM478 804q3 -4 3.5 -7.5t-4.5 -8.5l-20 -21q-9 -9 -18 -1l-112 95l-112 -95q-9 -8 -18 1l-20 21
q-5 5 -4.5 8.5t3.5 7.5l91 97q7 7 11.5 9.5t13.5 2.5h70q9 0 13.5 -2.5t11.5 -9.5z" />
    <glyph glyph-name="Hbar" unicode="&#x126;" horiz-adv-x="686" 
d="M115 0q-17 0 -17 16v519h-52q-14 0 -14 14v29q0 14 14 14h52v112q0 16 17 16h43q17 0 17 -16v-112h336v112q0 16 17 16h43q17 0 17 -16v-112h52q14 0 14 -14v-29q0 -14 -14 -14h-52v-519q0 -16 -17 -16h-43q-17 0 -17 16v316h-336v-316q0 -16 -17 -16h-43zM511 397v138
h-336v-138h336z" />
    <glyph glyph-name="Igrave" unicode="&#xcc;" horiz-adv-x="249" 
d="M103 0q-17 0 -17 16v688q0 16 17 16h43q17 0 17 -16v-688q0 -16 -17 -16h-43zM109 775q-11 0 -16 8l-81 115q-5 6 -3 9.5t7 3.5h67q8 0 11 -1.5t7 -8.5l61 -116q5 -10 -6 -10h-47z" />
    <glyph glyph-name="Iacute" unicode="&#xcd;" horiz-adv-x="249" 
d="M103 0q-17 0 -17 16v688q0 16 17 16h43q17 0 17 -16v-688q0 -16 -17 -16h-43zM100 775q-11 0 -6 10l61 116q4 7 7 8.5t11 1.5h67q5 0 7 -3.5t-3 -9.5l-81 -115q-5 -8 -16 -8h-47z" />
    <glyph glyph-name="Icircumflex" unicode="&#xce;" horiz-adv-x="249" 
d="M103 0q-17 0 -17 16v688q0 16 17 16h43q17 0 17 -16v-688q0 -16 -17 -16h-43zM276 804q3 -4 3.5 -7.5t-4.5 -8.5l-20 -21q-9 -9 -18 -1l-112 95l-112 -95q-9 -8 -18 1l-20 21q-5 5 -4.5 8.5t3.5 7.5l91 97q7 7 11.5 9.5t13.5 2.5h70q9 0 13.5 -2.5t11.5 -9.5z" />
    <glyph glyph-name="Itilde" unicode="&#x128;" horiz-adv-x="249" 
d="M103 0q-17 0 -17 16v688q0 16 17 16h43q17 0 17 -16v-688q0 -16 -17 -16h-43zM271 824q-12 -16 -34.5 -30t-50.5 -14q-19 0 -32.5 4.5t-26.5 10.5t-27.5 10.5t-34.5 4.5q-16 0 -28 -8.5t-20 -16.5q-7 -7 -14 0l-27 33q-6 8 3 18q12 16 34.5 30t50.5 14q19 0 32.5 -4.5
t26.5 -10.5t27.5 -10.5t34.5 -4.5q16 0 28 8.5t20 16.5q4 4 7 4.5t7 -4.5l27 -33q5 -7 -3 -18z" />
    <glyph glyph-name="Idieresis" unicode="&#xcf;" horiz-adv-x="249" 
d="M103 0q-17 0 -17 16v688q0 16 17 16h43q17 0 17 -16v-688q0 -16 -17 -16h-43zM0 784q-14 0 -14 13v66q0 13 14 13h61q16 0 16 -13v-66q0 -13 -16 -13h-61zM188 784q-15 0 -15 13v66q0 13 15 13h61q15 0 15 -13v-66q0 -13 -15 -13h-61z" />
    <glyph glyph-name="Imacron" unicode="&#x12a;" horiz-adv-x="249" 
d="M103 0q-17 0 -17 16v688q0 16 17 16h43q17 0 17 -16v-688q0 -16 -17 -16h-43zM258 856q14 0 14 -14v-37q0 -14 -14 -14h-267q-14 0 -14 14v37q0 14 14 14h267z" />
    <glyph glyph-name="Ibreve" unicode="&#x12c;" horiz-adv-x="249" 
d="M103 0q-17 0 -17 16v688q0 16 17 16h43q17 0 17 -16v-688q0 -16 -17 -16h-43zM125 778q-59 0 -99 24.5t-44 84.5q0 11 12 11h42q11 0 12 -12q2 -29 22 -43t53 -14t55 14t24 43q1 12 12 12h42q12 0 12 -11q-4 -60 -44 -84.5t-99 -24.5z" />
    <glyph glyph-name="Idotaccent" unicode="&#x130;" horiz-adv-x="249" 
d="M103 0q-17 0 -17 16v688q0 16 17 16h43q17 0 17 -16v-688q0 -16 -17 -16h-43zM94 790q-15 0 -15 13v66q0 13 15 13h61q15 0 15 -13v-66q0 -13 -15 -13h-61z" />
    <glyph glyph-name="Iogonek" unicode="&#x12e;" horiz-adv-x="249" 
d="M24 -118q0 35 16.5 65.5t45.5 51.5v705q0 16 17 16h43q17 0 17 -16v-687q0 -6 -1 -9t-8 -8q-26 -19 -42.5 -44t-16.5 -57q0 -23 16 -32.5t36 -9.5q17 0 40 5q12 3 13 -8l5 -30q1 -7 -0.5 -10t-8.5 -5q-14 -5 -31 -7.5t-35 -2.5q-29 0 -49 8t-33 20t-18.5 26.5t-5.5 28.5z
" />
    <glyph glyph-name="IJ" unicode="&#x132;" horiz-adv-x="705" 
d="M103 0q-17 0 -17 16v688q0 16 17 16h43q17 0 17 -16v-688q0 -16 -17 -16h-43zM370 654q-17 0 -17 16v34q0 16 17 16h242q17 0 17 -16v-495q0 -56 -10 -97.5t-35 -69.5q-23 -26 -61.5 -39t-88.5 -13q-20 0 -40.5 3t-40 7.5t-37 10.5t-30.5 13q-9 5 -10 10.5t3 16.5l8 22
q4 11 10 12t17 -3q36 -13 66 -19.5t56 -6.5q58 0 88 33q17 19 22.5 46t5.5 60v459h-182z" />
    <glyph glyph-name="Jcircumflex" unicode="&#x134;" horiz-adv-x="456" 
d="M121 654q-17 0 -17 16v34q0 16 17 16h242q17 0 17 -16v-495q0 -56 -10 -97.5t-35 -69.5q-23 -26 -61.5 -39t-88.5 -13q-20 0 -40.5 3t-40 7.5t-37 10.5t-30.5 13q-9 5 -10 10.5t3 16.5l8 22q4 11 10 12t17 -3q36 -13 66 -19.5t56 -6.5q58 0 88 33q17 19 22.5 46t5.5 60
v459h-182zM384 804q3 -4 3.5 -7.5t-4.5 -8.5l-20 -21q-9 -9 -18 -1l-112 95l-112 -95q-9 -8 -18 1l-20 21q-5 5 -4.5 8.5t3.5 7.5l91 97q7 7 11.5 9.5t13.5 2.5h70q9 0 13.5 -2.5t11.5 -9.5z" />
    <glyph glyph-name="Kcommaaccent" unicode="&#x136;" 
d="M449 705q7 10 12 12.5t17 2.5h38q13 0 14.5 -6t-3.5 -14l-232 -329l240 -351q6 -8 3.5 -14t-11.5 -6h-52q-11 0 -16 3t-12 13l-201 298q-8 11 -14 14t-20 3h-53v-315q0 -16 -17 -16h-43q-17 0 -17 16v688q0 16 17 16h43q17 0 17 -16v-306h51q14 0 20.5 3t14.5 14z
M280 -276q-15 0 -12 14l24 112l-15 7q-10 5 -13.5 8.5t-3.5 13.5v55q0 14 15 14h67q16 0 16 -14v-33q0 -12 -1 -22t-3.5 -21.5t-6.5 -25.5t-10 -33l-19 -63q-4 -12 -17 -12h-21v0z" />
    <glyph glyph-name="Lacute" unicode="&#x139;" horiz-adv-x="501" 
d="M159 66h285q17 0 17 -16v-34q0 -16 -17 -16h-345q-17 0 -17 16v688q0 16 17 16h43q17 0 17 -16v-638zM96 775q-11 0 -6 10l61 116q4 7 7 8.5t11 1.5h67q5 0 7 -3.5t-3 -9.5l-81 -115q-5 -8 -16 -8h-47z" />
    <glyph glyph-name="Lcaron" unicode="&#x13d;" horiz-adv-x="501" 
d="M159 66h285q17 0 17 -16v-34q0 -16 -17 -16h-345q-17 0 -17 16v688q0 16 17 16h43q17 0 17 -16v-638zM270 507q-15 0 -12 14l24 112l-15 7q-10 5 -13.5 8.5t-3.5 13.5v55q0 14 15 14h67q16 0 16 -14v-33q0 -12 -1 -22t-3.5 -21.5t-6.5 -25.5t-10 -33l-19 -63
q-4 -12 -17 -12h-21v0z" />
    <glyph glyph-name="Lcommaaccent" unicode="&#x13b;" horiz-adv-x="501" 
d="M159 66h285q17 0 17 -16v-34q0 -16 -17 -16h-345q-17 0 -17 16v688q0 16 17 16h43q17 0 17 -16v-638zM256 -276q-15 0 -12 14l24 112l-15 7q-10 5 -13.5 8.5t-3.5 13.5v55q0 14 15 14h67q16 0 16 -14v-33q0 -12 -1 -22t-3.5 -21.5t-6.5 -25.5t-10 -33l-19 -63
q-4 -12 -17 -12h-21v0z" />
    <glyph glyph-name="Lslash" unicode="&#x141;" horiz-adv-x="505" 
d="M163 391l121 98q5 4 8.5 2.5t3.5 -7.5v-50q0 -8 -2 -12t-8 -9l-123 -100v-247h285q17 0 17 -16v-34q0 -16 -17 -16h-345q-17 0 -17 16v235l-54 -43q-5 -4 -8.5 -2.5t-3.5 7.5v50q0 8 2.5 12t7.5 9l56 45v375q0 16 17 16h43q17 0 17 -16v-313z" />
    <glyph glyph-name="Ldot" unicode="&#x13f;" horiz-adv-x="501" 
d="M159 66h285q17 0 17 -16v-34q0 -16 -17 -16h-345q-17 0 -17 16v688q0 16 17 16h43q17 0 17 -16v-638zM337 339q-15 0 -15 13v66q0 13 15 13h61q15 0 15 -13v-66q0 -13 -15 -13h-61z" />
    <glyph glyph-name="Nacute" unicode="&#x143;" horiz-adv-x="688" 
d="M155 16q0 -16 -17 -16h-39q-17 0 -17 16v688q0 16 16 16h43q14 0 20.5 -3.5t14.5 -17.5l250 -403q34 -56 59.5 -98.5t50.5 -86.5q-2 40 -2.5 91t-0.5 104v398q0 16 17 16h39q17 0 17 -16v-688q0 -16 -17 -16h-42q-14 0 -20.5 3.5t-14.5 17.5l-250 403q-35 57 -61 99.5
t-49 85.5q2 -40 2.5 -91t0.5 -104v-398zM319 775q-11 0 -6 10l61 116q4 7 7 8.5t11 1.5h67q5 0 7 -3.5t-3 -9.5l-81 -115q-5 -8 -16 -8h-47z" />
    <glyph glyph-name="Ncaron" unicode="&#x147;" horiz-adv-x="688" 
d="M155 16q0 -16 -17 -16h-39q-17 0 -17 16v688q0 16 16 16h43q14 0 20.5 -3.5t14.5 -17.5l250 -403q34 -56 59.5 -98.5t50.5 -86.5q-2 40 -2.5 91t-0.5 104v398q0 16 17 16h39q17 0 17 -16v-688q0 -16 -17 -16h-42q-14 0 -20.5 3.5t-14.5 17.5l-250 403q-35 57 -61 99.5
t-49 85.5q2 -40 2.5 -91t0.5 -104v-398zM408 779q-7 -7 -11.5 -9.5t-13.5 -2.5h-70q-9 0 -13.5 2.5t-11.5 9.5l-91 97q-3 4 -3.5 7.5t4.5 8.5l20 21q9 9 18 1l112 -95l112 95q9 8 18 -1l20 -21q5 -5 4.5 -8.5t-3.5 -7.5z" />
    <glyph glyph-name="Ntilde" unicode="&#xd1;" horiz-adv-x="688" 
d="M155 16q0 -16 -17 -16h-39q-17 0 -17 16v688q0 16 16 16h43q14 0 20.5 -3.5t14.5 -17.5l250 -403q34 -56 59.5 -98.5t50.5 -86.5q-2 40 -2.5 91t-0.5 104v398q0 16 17 16h39q17 0 17 -16v-688q0 -16 -17 -16h-42q-14 0 -20.5 3.5t-14.5 17.5l-250 403q-35 57 -61 99.5
t-49 85.5q2 -40 2.5 -91t0.5 -104v-398zM490 824q-12 -16 -34.5 -30t-50.5 -14q-19 0 -32.5 4.5t-26.5 10.5t-27.5 10.5t-34.5 4.5q-16 0 -28 -8.5t-20 -16.5q-7 -7 -14 0l-27 33q-6 8 3 18q12 16 34.5 30t50.5 14q19 0 32.5 -4.5t26.5 -10.5t27.5 -10.5t34.5 -4.5
q16 0 28 8.5t20 16.5q4 4 7 4.5t7 -4.5l27 -33q5 -7 -3 -18z" />
    <glyph glyph-name="Ncommaaccent" unicode="&#x145;" horiz-adv-x="688" 
d="M155 16q0 -16 -17 -16h-39q-17 0 -17 16v688q0 16 16 16h43q14 0 20.5 -3.5t14.5 -17.5l250 -403q34 -56 59.5 -98.5t50.5 -86.5q-2 40 -2.5 91t-0.5 104v398q0 16 17 16h39q17 0 17 -16v-688q0 -16 -17 -16h-42q-14 0 -20.5 3.5t-14.5 17.5l-250 403q-35 57 -61 99.5
t-49 85.5q2 -40 2.5 -91t0.5 -104v-398zM320 -276q-15 0 -12 14l24 112l-15 7q-10 5 -13.5 8.5t-3.5 13.5v55q0 14 15 14h67q16 0 16 -14v-33q0 -12 -1 -22t-3.5 -21.5t-6.5 -25.5t-10 -33l-19 -63q-4 -12 -17 -12h-21v0z" />
    <glyph glyph-name="Eng" unicode="&#x14a;" horiz-adv-x="688" 
d="M508 -100q9 14 15 35.5t8 52.5l-269 435q-35 57 -61 99.5t-49 85.5q2 -40 2.5 -91t0.5 -104v-397q0 -16 -17 -16h-39q-17 0 -17 16v688q0 16 16 16h44q14 0 20.5 -3.5t14.5 -17.5l249 -402q34 -56 59.5 -98.5t50.5 -86.5q-2 40 -2.5 91t-0.5 104v397q0 16 17 16h39
q17 0 17 -16v-669q0 -63 -9.5 -106t-31.5 -72q-42 -55 -133 -55q-19 0 -39.5 3t-31.5 7q-6 2 -8.5 6t-0.5 13l5 26q2 8 5.5 10.5t13.5 0.5q11 -2 24 -3t28 -1q24 0 45 7.5t35 28.5z" />
    <glyph glyph-name="Ograve" unicode="&#xd2;" horiz-adv-x="697" 
d="M341 57q52 0 94 20.5t72 60.5t46 97t16 131q0 69 -14.5 124.5t-41.5 93.5t-66.5 58.5t-90.5 20.5q-52 0 -94 -20.5t-72 -60.5t-46 -97.5t-16 -130.5q0 -69 14.5 -124.5t41.5 -93.5t66.5 -58.5t90.5 -20.5zM337 -10q-64 0 -117 23.5t-91.5 69.5t-59.5 113t-21 154
q0 88 22.5 158.5t64 119.5t99 75.5t126.5 26.5q64 0 117 -23.5t91.5 -69.5t59.5 -113t21 -154q0 -88 -22.5 -158.5t-64 -119.5t-99 -75.5t-126.5 -26.5zM342 775q-11 0 -16 8l-81 115q-5 6 -3 9.5t7 3.5h67q8 0 11 -1.5t7 -8.5l61 -116q5 -10 -6 -10h-47z" />
    <glyph glyph-name="Oacute" unicode="&#xd3;" horiz-adv-x="697" 
d="M341 57q52 0 94 20.5t72 60.5t46 97t16 131q0 69 -14.5 124.5t-41.5 93.5t-66.5 58.5t-90.5 20.5q-52 0 -94 -20.5t-72 -60.5t-46 -97.5t-16 -130.5q0 -69 14.5 -124.5t41.5 -93.5t66.5 -58.5t90.5 -20.5zM337 -10q-64 0 -117 23.5t-91.5 69.5t-59.5 113t-21 154
q0 88 22.5 158.5t64 119.5t99 75.5t126.5 26.5q64 0 117 -23.5t91.5 -69.5t59.5 -113t21 -154q0 -88 -22.5 -158.5t-64 -119.5t-99 -75.5t-126.5 -26.5zM338 775q-11 0 -6 10l61 116q4 7 7 8.5t11 1.5h67q5 0 7 -3.5t-3 -9.5l-81 -115q-5 -8 -16 -8h-47z" />
    <glyph glyph-name="Ocircumflex" unicode="&#xd4;" horiz-adv-x="697" 
d="M341 57q52 0 94 20.5t72 60.5t46 97t16 131q0 69 -14.5 124.5t-41.5 93.5t-66.5 58.5t-90.5 20.5q-52 0 -94 -20.5t-72 -60.5t-46 -97.5t-16 -130.5q0 -69 14.5 -124.5t41.5 -93.5t66.5 -58.5t90.5 -20.5zM337 -10q-64 0 -117 23.5t-91.5 69.5t-59.5 113t-21 154
q0 88 22.5 158.5t64 119.5t99 75.5t126.5 26.5q64 0 117 -23.5t91.5 -69.5t59.5 -113t21 -154q0 -88 -22.5 -158.5t-64 -119.5t-99 -75.5t-126.5 -26.5zM499 804q3 -4 3.5 -7.5t-4.5 -8.5l-20 -21q-9 -9 -18 -1l-112 95l-112 -95q-9 -8 -18 1l-20 21q-5 5 -4.5 8.5t3.5 7.5
l91 97q7 7 11.5 9.5t13.5 2.5h70q9 0 13.5 -2.5t11.5 -9.5z" />
    <glyph glyph-name="Otilde" unicode="&#xd5;" horiz-adv-x="697" 
d="M343 57q52 0 94 20.5t72 60.5t46 97t16 131q0 69 -14.5 124.5t-41.5 93.5t-66.5 58.5t-90.5 20.5q-52 0 -94 -20.5t-72 -60.5t-46 -97.5t-16 -130.5q0 -69 14.5 -124.5t41.5 -93.5t66.5 -58.5t90.5 -20.5zM339 -10q-64 0 -117 23.5t-91.5 69.5t-59.5 113t-21 154
q0 88 22.5 158.5t64 119.5t99 75.5t126.5 26.5q64 0 117 -23.5t91.5 -69.5t59.5 -113t21 -154q0 -88 -22.5 -158.5t-64 -119.5t-99 -75.5t-126.5 -26.5zM496 824q-12 -16 -34.5 -30t-50.5 -14q-19 0 -32.5 4.5t-26.5 10.5t-27.5 10.5t-34.5 4.5q-16 0 -28 -8.5t-20 -16.5
q-7 -7 -14 0l-27 33q-6 8 3 18q12 16 34.5 30t50.5 14q19 0 32.5 -4.5t26.5 -10.5t27.5 -10.5t34.5 -4.5q16 0 28 8.5t20 16.5q4 4 7 4.5t7 -4.5l27 -33q5 -7 -3 -18z" />
    <glyph glyph-name="Odieresis" unicode="&#xd6;" horiz-adv-x="697" 
d="M341 57q52 0 94 20.5t72 60.5t46 97t16 131q0 69 -14.5 124.5t-41.5 93.5t-66.5 58.5t-90.5 20.5q-52 0 -94 -20.5t-72 -60.5t-46 -97.5t-16 -130.5q0 -69 14.5 -124.5t41.5 -93.5t66.5 -58.5t90.5 -20.5zM337 -10q-64 0 -117 23.5t-91.5 69.5t-59.5 113t-21 154
q0 88 22.5 158.5t64 119.5t99 75.5t126.5 26.5q64 0 117 -23.5t91.5 -69.5t59.5 -113t21 -154q0 -88 -22.5 -158.5t-64 -119.5t-99 -75.5t-126.5 -26.5zM223 784q-14 0 -14 13v66q0 13 14 13h61q16 0 16 -13v-66q0 -13 -16 -13h-61zM411 784q-15 0 -15 13v66q0 13 15 13h61
q15 0 15 -13v-66q0 -13 -15 -13h-61z" />
    <glyph glyph-name="Omacron" unicode="&#x14c;" horiz-adv-x="697" 
d="M341 57q52 0 94 20.5t72 60.5t46 97t16 131q0 69 -14.5 124.5t-41.5 93.5t-66.5 58.5t-90.5 20.5q-52 0 -94 -20.5t-72 -60.5t-46 -97.5t-16 -130.5q0 -69 14.5 -124.5t41.5 -93.5t66.5 -58.5t90.5 -20.5zM337 -10q-64 0 -117 23.5t-91.5 69.5t-59.5 113t-21 154
q0 88 22.5 158.5t64 119.5t99 75.5t126.5 26.5q64 0 117 -23.5t91.5 -69.5t59.5 -113t21 -154q0 -88 -22.5 -158.5t-64 -119.5t-99 -75.5t-126.5 -26.5zM482 856q14 0 14 -14v-37q0 -14 -14 -14h-267q-14 0 -14 14v37q0 14 14 14h267z" />
    <glyph glyph-name="Obreve" unicode="&#x14e;" horiz-adv-x="697" 
d="M341 57q52 0 94 20.5t72 60.5t46 97t16 131q0 69 -14.5 124.5t-41.5 93.5t-66.5 58.5t-90.5 20.5q-52 0 -94 -20.5t-72 -60.5t-46 -97.5t-16 -130.5q0 -69 14.5 -124.5t41.5 -93.5t66.5 -58.5t90.5 -20.5zM337 -10q-64 0 -117 23.5t-91.5 69.5t-59.5 113t-21 154
q0 88 22.5 158.5t64 119.5t99 75.5t126.5 26.5q64 0 117 -23.5t91.5 -69.5t59.5 -113t21 -154q0 -88 -22.5 -158.5t-64 -119.5t-99 -75.5t-126.5 -26.5zM348 778q-59 0 -99 24.5t-44 84.5q0 11 12 11h42q11 0 12 -12q2 -29 22 -43t53 -14t55 14t24 43q1 12 12 12h42
q12 0 12 -11q-4 -60 -44 -84.5t-99 -24.5z" />
    <glyph glyph-name="Ohungarumlaut" unicode="&#x150;" horiz-adv-x="697" 
d="M341 57q52 0 94 20.5t72 60.5t46 97t16 131q0 69 -14.5 124.5t-41.5 93.5t-66.5 58.5t-90.5 20.5q-52 0 -94 -20.5t-72 -60.5t-46 -97.5t-16 -130.5q0 -69 14.5 -124.5t41.5 -93.5t66.5 -58.5t90.5 -20.5zM337 -10q-64 0 -117 23.5t-91.5 69.5t-59.5 113t-21 154
q0 88 22.5 158.5t64 119.5t99 75.5t126.5 26.5q64 0 117 -23.5t91.5 -69.5t59.5 -113t21 -154q0 -88 -22.5 -158.5t-64 -119.5t-99 -75.5t-126.5 -26.5zM229 771q-12 0 -7 12l54 118q4 7 7.5 8.5t10.5 1.5h57q12 0 5 -13l-73 -118q-4 -5 -6.5 -7t-10.5 -2h-37zM386 771
q-12 0 -7 12l54 118q4 7 7.5 8.5t10.5 1.5h57q12 0 5 -13l-73 -118q-4 -5 -6.5 -7t-10.5 -2h-37z" />
    <glyph glyph-name="Oslash" unicode="&#xd8;" horiz-adv-x="697" 
d="M337 -10q-54 0 -100.5 16.5t-83.5 49.5l-60 -77q-11 -14 -25 -4l-25 20q-9 8 -10 12.5t5 12.5l70 90q-29 45 -44.5 105t-15.5 135q0 88 22.5 158.5t64 119.5t99 75.5t126.5 26.5q108 0 183 -66l58 74q11 14 25 4l25 -20q9 -8 10 -12.5t-5 -12.5l-68 -87q29 -45 45 -105
t16 -135q0 -88 -22.5 -158.5t-64 -119.5t-99 -75.5t-126.5 -26.5zM341 57q52 0 94 20.5t72 60.5t46 97t16 131q0 53 -8.5 98t-24.5 80l-336 -428q53 -59 141 -59zM128 354q0 -108 33 -178l335 428q-54 59 -140 59q-52 0 -94 -20.5t-72 -60.5t-46 -97.5t-16 -130.5z" />
    <glyph glyph-name="Oslashacute" unicode="&#x1fe;" horiz-adv-x="697" 
d="M337 -10q-54 0 -100.5 16.5t-83.5 49.5l-60 -77q-11 -14 -25 -4l-25 20q-9 8 -10 12.5t5 12.5l70 90q-29 45 -44.5 105t-15.5 135q0 88 22.5 158.5t64 119.5t99 75.5t126.5 26.5q108 0 183 -66l58 74q11 14 25 4l25 -20q9 -8 10 -12.5t-5 -12.5l-68 -87q29 -45 45 -105
t16 -135q0 -88 -22.5 -158.5t-64 -119.5t-99 -75.5t-126.5 -26.5zM341 57q52 0 94 20.5t72 60.5t46 97t16 131q0 53 -8.5 98t-24.5 80l-336 -428q53 -59 141 -59zM128 354q0 -108 33 -178l335 428q-54 59 -140 59q-52 0 -94 -20.5t-72 -60.5t-46 -97.5t-16 -130.5zM328 775
q-11 0 -6 10l61 116q4 7 7 8.5t11 1.5h67q5 0 7 -3.5t-3 -9.5l-81 -115q-5 -8 -16 -8h-47z" />
    <glyph glyph-name="OE" unicode="&#x152;" horiz-adv-x="920" 
d="M508 0q-47 0 -85.5 -5t-73.5 -5q-69 0 -124.5 21.5t-95 65.5t-60.5 110t-21 156q0 94 22 166.5t63.5 121.5t100 74t132.5 25q43 0 77 -5t61 -5h345q17 0 17 -16v-34q0 -16 -17 -16h-304v-257h257q17 0 17 -15v-34q0 -16 -17 -16h-257v-266h308q17 0 17 -16v-34
q0 -16 -17 -16h-345zM354 52q31 0 58 2t56 7v594q-29 7 -53 9t-50 2q-116 0 -176.5 -78.5t-60.5 -236.5q0 -146 56 -222.5t170 -76.5z" />
    <glyph glyph-name="Thorn" unicode="&#xde;" horiz-adv-x="538" 
d="M99 0q-17 0 -17 16v688q0 16 17 16h43q17 0 17 -16v-114h91q73 0 122.5 -15t80.5 -44q55 -54 55 -154q0 -115 -63 -175q-59 -56 -176 -56q-23 0 -53.5 2t-56.5 7v-139q0 -16 -17 -16h-43zM159 526v-309q28 -5 55 -6.5t50 -1.5q86 0 127 45q18 20 28 50t10 69
q0 78 -38 114q-21 21 -54 30t-79 9h-99z" />
    <glyph glyph-name="Racute" unicode="&#x154;" 
d="M159 656v-292h106q46 0 78 12t51.5 33t28 48.5t8.5 58.5q0 66 -32 99q-20 21 -54 31t-86 10h-100zM159 302v-286q0 -16 -17 -16h-43q-17 0 -17 16v688q0 16 17 16h163q137 0 197 -59q52 -50 52 -142q0 -81 -40 -133.5t-115 -75.5l159 -288q6 -11 3 -16.5t-13 -5.5h-45
q-14 0 -19 3t-10 11l-144 271q-6 11 -12 14t-20 3h-96zM251 775q-11 0 -6 10l61 116q4 7 7 8.5t11 1.5h67q5 0 7 -3.5t-3 -9.5l-81 -115q-5 -8 -16 -8h-47z" />
    <glyph glyph-name="Rcaron" unicode="&#x158;" 
d="M159 656v-292h106q46 0 78 12t51.5 33t28 48.5t8.5 58.5q0 66 -32 99q-20 21 -54 31t-86 10h-100zM159 302v-286q0 -16 -17 -16h-43q-17 0 -17 16v688q0 16 17 16h163q137 0 197 -59q52 -50 52 -142q0 -81 -40 -133.5t-115 -75.5l159 -288q6 -11 3 -16.5t-13 -5.5h-45
q-14 0 -19 3t-10 11l-144 271q-6 11 -12 14t-20 3h-96zM361 779q-7 -7 -11.5 -9.5t-13.5 -2.5h-70q-9 0 -13.5 2.5t-11.5 9.5l-91 97q-3 4 -3.5 7.5t4.5 8.5l20 21q9 9 18 1l112 -95l112 95q9 8 18 -1l20 -21q5 -5 4.5 -8.5t-3.5 -7.5z" />
    <glyph glyph-name="Rcommaaccent" unicode="&#x156;" 
d="M159 656v-292h106q46 0 78 12t51.5 33t28 48.5t8.5 58.5q0 66 -32 99q-20 21 -54 31t-86 10h-100zM159 302v-286q0 -16 -17 -16h-43q-17 0 -17 16v688q0 16 17 16h163q137 0 197 -59q52 -50 52 -142q0 -81 -40 -133.5t-115 -75.5l159 -288q6 -11 3 -16.5t-13 -5.5h-45
q-14 0 -19 3t-10 11l-144 271q-6 11 -12 14t-20 3h-96zM273 -276q-15 0 -12 14l24 112l-15 7q-10 5 -13.5 8.5t-3.5 13.5v55q0 14 15 14h67q16 0 16 -14v-33q0 -12 -1 -22t-3.5 -21.5t-6.5 -25.5t-10 -33l-19 -63q-4 -12 -17 -12h-21v0z" />
    <glyph glyph-name="Sacute" unicode="&#x15a;" horiz-adv-x="507" 
d="M68 92q8 14 24 6q35 -20 76 -31.5t77 -11.5q76 0 116 40q37 37 37 98q0 42 -25 70.5t-62.5 50.5t-81.5 41.5t-81.5 45.5t-62.5 62t-25 91q0 41 15.5 74t43 55.5t66.5 34.5t86 12q48 0 90.5 -11.5t74.5 -32.5q6 -4 7 -8.5t-4 -13.5l-12 -23q-5 -10 -10.5 -10.5t-13.5 3.5
q-63 30 -128 30q-70 0 -106 -29q-17 -14 -26 -34t-9 -46q0 -39 25 -65t62.5 -47.5t81.5 -42t81.5 -48t62.5 -65t25 -92.5q0 -44 -13.5 -81.5t-41 -65t-69.5 -43t-99 -15.5q-49 0 -101 13.5t-88 37.5q-15 9 -5 27zM223 775q-11 0 -6 10l61 116q4 7 7 8.5t11 1.5h67
q5 0 7 -3.5t-3 -9.5l-81 -115q-5 -8 -16 -8h-47z" />
    <glyph glyph-name="Scircumflex" unicode="&#x15c;" horiz-adv-x="507" 
d="M68 92q8 14 24 6q35 -20 76 -31.5t77 -11.5q76 0 116 40q37 37 37 98q0 42 -25 70.5t-62.5 50.5t-81.5 41.5t-81.5 45.5t-62.5 62t-25 91q0 41 15.5 74t43 55.5t66.5 34.5t86 12q48 0 90.5 -11.5t74.5 -32.5q6 -4 7 -8.5t-4 -13.5l-12 -23q-5 -10 -10.5 -10.5t-13.5 3.5
q-63 30 -128 30q-70 0 -106 -29q-17 -14 -26 -34t-9 -46q0 -39 25 -65t62.5 -47.5t81.5 -42t81.5 -48t62.5 -65t25 -92.5q0 -44 -13.5 -81.5t-41 -65t-69.5 -43t-99 -15.5q-49 0 -101 13.5t-88 37.5q-15 9 -5 27zM424 804q3 -4 3.5 -7.5t-4.5 -8.5l-20 -21q-9 -9 -18 -1
l-112 95l-112 -95q-9 -8 -18 1l-20 21q-5 5 -4.5 8.5t3.5 7.5l91 97q7 7 11.5 9.5t13.5 2.5h70q9 0 13.5 -2.5t11.5 -9.5z" />
    <glyph glyph-name="Scaron" unicode="&#x160;" horiz-adv-x="507" 
d="M68 92q8 14 24 6q35 -20 76 -31.5t77 -11.5q76 0 116 40q37 37 37 98q0 42 -25 70.5t-62.5 50.5t-81.5 41.5t-81.5 45.5t-62.5 62t-25 91q0 41 15.5 74t43 55.5t66.5 34.5t86 12q48 0 90.5 -11.5t74.5 -32.5q6 -4 7 -8.5t-4 -13.5l-12 -23q-5 -10 -10.5 -10.5t-13.5 3.5
q-63 30 -128 30q-70 0 -106 -29q-17 -14 -26 -34t-9 -46q0 -39 25 -65t62.5 -47.5t81.5 -42t81.5 -48t62.5 -65t25 -92.5q0 -44 -13.5 -81.5t-41 -65t-69.5 -43t-99 -15.5q-49 0 -101 13.5t-88 37.5q-15 9 -5 27zM334 779q-7 -7 -11.5 -9.5t-13.5 -2.5h-70q-9 0 -13.5 2.5
t-11.5 9.5l-91 97q-3 4 -3.5 7.5t4.5 8.5l20 21q9 9 18 1l112 -95l112 95q9 8 18 -1l20 -21q5 -5 4.5 -8.5t-3.5 -7.5z" />
    <glyph glyph-name="Scedilla" unicode="&#x15e;" horiz-adv-x="507" 
d="M280 -216q-20 0 -41.5 3.5t-33.5 8.5q-6 2 -8 5t0 11l6 26q3 12 13 9q14 -4 30 -8t33 -4q50 0 50 38q0 19 -17 26t-44 7q-11 0 -23 -0.5t-22 -1.5q-13 0 -12 11l10 76q-44 4 -87 16.5t-74 33.5q-15 9 -5 27l13 24q8 14 24 6q35 -20 76 -31.5t77 -11.5q76 0 116 40
q37 37 37 98q0 42 -25 70.5t-62.5 50.5t-81.5 41.5t-81.5 45.5t-62.5 62t-25 91q0 41 15.5 74t43 55.5t66.5 34.5t86 12q48 0 90.5 -11.5t74.5 -32.5q6 -4 7 -8.5t-4 -13.5l-12 -23q-5 -10 -10.5 -10.5t-13.5 3.5q-63 30 -128 30q-70 0 -106 -29q-17 -14 -26 -34t-9 -46
q0 -39 25 -65t62.5 -47.5t81.5 -42t81.5 -48t62.5 -65t25 -92.5q0 -84 -47.5 -140t-147.5 -64l-2 -34q5 1 13.5 1.5t15.5 0.5q17 0 33.5 -5t29 -15.5t20.5 -25.5t8 -34q0 -18 -6.5 -35t-20.5 -30.5t-35.5 -21.5t-52.5 -8z" />
    <glyph glyph-name="Scommaaccent" unicode="&#x218;" horiz-adv-x="507" 
d="M68 92q8 14 24 6q35 -20 76 -31.5t77 -11.5q76 0 116 40q37 37 37 98q0 42 -25 70.5t-62.5 50.5t-81.5 41.5t-81.5 45.5t-62.5 62t-25 91q0 41 15.5 74t43 55.5t66.5 34.5t86 12q48 0 90.5 -11.5t74.5 -32.5q6 -4 7 -8.5t-4 -13.5l-12 -23q-5 -10 -10.5 -10.5t-13.5 3.5
q-63 30 -128 30q-70 0 -106 -29q-17 -14 -26 -34t-9 -46q0 -39 25 -65t62.5 -47.5t81.5 -42t81.5 -48t62.5 -65t25 -92.5q0 -44 -13.5 -81.5t-41 -65t-69.5 -43t-99 -15.5q-49 0 -101 13.5t-88 37.5q-15 9 -5 27zM228 -276q-15 0 -12 14l24 112l-15 7q-10 5 -13.5 8.5
t-3.5 13.5v55q0 14 15 14h67q16 0 16 -14v-33q0 -12 -1 -22t-3.5 -21.5t-6.5 -25.5t-10 -33l-19 -63q-4 -12 -17 -12h-21v0z" />
    <glyph glyph-name="Tcaron" unicode="&#x164;" horiz-adv-x="503" 
d="M290 654v-638q0 -16 -17 -16h-43q-17 0 -17 16v638h-182q-17 0 -17 16v34q0 16 17 16h441q17 0 17 -16v-34q0 -16 -17 -16h-182zM311 779q-7 -7 -11.5 -9.5t-13.5 -2.5h-70q-9 0 -13.5 2.5t-11.5 9.5l-91 97q-3 4 -3.5 7.5t4.5 8.5l20 21q9 9 18 1l112 -95l112 95
q9 8 18 -1l20 -21q5 -5 4.5 -8.5t-3.5 -7.5z" />
    <glyph glyph-name="Tcommaaccent" unicode="&#x162;" horiz-adv-x="503" 
d="M290 654v-638q0 -16 -17 -16h-43q-17 0 -17 16v638h-182q-17 0 -17 16v34q0 16 17 16h441q17 0 17 -16v-34q0 -16 -17 -16h-182zM223 -276q-15 0 -12 14l24 112l-15 7q-10 5 -13.5 8.5t-3.5 13.5v55q0 14 15 14h67q16 0 16 -14v-33q0 -12 -1 -22t-3.5 -21.5t-6.5 -25.5
t-10 -33l-19 -63q-4 -12 -17 -12h-21v0z" />
    <glyph glyph-name="uni021A" unicode="&#x21a;" horiz-adv-x="503" 
d="M290 654v-638q0 -16 -17 -16h-43q-17 0 -17 16v638h-182q-17 0 -17 16v34q0 16 17 16h441q17 0 17 -16v-34q0 -16 -17 -16h-182zM223 -276q-15 0 -12 14l24 112l-15 7q-10 5 -13.5 8.5t-3.5 13.5v55q0 14 15 14h67q16 0 16 -14v-33q0 -12 -1 -22t-3.5 -21.5t-6.5 -25.5
t-10 -33l-19 -63q-4 -12 -17 -12h-21v0z" />
    <glyph glyph-name="Tbar" unicode="&#x166;" horiz-adv-x="503" 
d="M290 654v-262h108q14 0 14 -14v-26q0 -14 -14 -14h-108v-322q0 -16 -17 -16h-43q-17 0 -17 16v322h-108q-14 0 -14 14v26q0 14 14 14h108v262h-182q-17 0 -17 16v34q0 16 17 16h441q17 0 17 -16v-34q0 -16 -17 -16h-182z" />
    <glyph glyph-name="Ugrave" unicode="&#xd9;" horiz-adv-x="675" 
d="M599 265q0 -73 -16.5 -123.5t-48.5 -83.5q-66 -68 -196 -68t-196 67q-32 33 -49 83.5t-17 123.5v440q0 16 17 16h43q17 0 17 -16v-431q0 -66 13.5 -107.5t40.5 -66.5q48 -44 131 -44t131 44q27 25 40.5 66.5t13.5 107.5v431q0 16 17 16h43q16 0 16 -16v-439zM337 775
q-11 0 -16 8l-81 115q-5 6 -3 9.5t7 3.5h67q8 0 11 -1.5t7 -8.5l61 -116q5 -10 -6 -10h-47z" />
    <glyph glyph-name="Uacute" unicode="&#xda;" horiz-adv-x="675" 
d="M599 265q0 -73 -16.5 -123.5t-48.5 -83.5q-66 -68 -196 -68t-196 67q-32 33 -49 83.5t-17 123.5v440q0 16 17 16h43q17 0 17 -16v-431q0 -66 13.5 -107.5t40.5 -66.5q48 -44 131 -44t131 44q27 25 40.5 66.5t13.5 107.5v431q0 16 17 16h43q16 0 16 -16v-439zM307 775
q-11 0 -6 10l61 116q4 7 7 8.5t11 1.5h67q5 0 7 -3.5t-3 -9.5l-81 -115q-5 -8 -16 -8h-47z" />
    <glyph glyph-name="Ucircumflex" unicode="&#xdb;" horiz-adv-x="675" 
d="M599 265q0 -73 -16.5 -123.5t-48.5 -83.5q-66 -68 -196 -68t-196 67q-32 33 -49 83.5t-17 123.5v440q0 16 17 16h43q17 0 17 -16v-431q0 -66 13.5 -107.5t40.5 -66.5q48 -44 131 -44t131 44q27 25 40.5 66.5t13.5 107.5v431q0 16 17 16h43q16 0 16 -16v-439zM488 804
q3 -4 3.5 -7.5t-4.5 -8.5l-20 -21q-9 -9 -18 -1l-112 95l-112 -95q-9 -8 -18 1l-20 21q-5 5 -4.5 8.5t3.5 7.5l91 97q7 7 11.5 9.5t13.5 2.5h70q9 0 13.5 -2.5t11.5 -9.5z" />
    <glyph glyph-name="Utilde" unicode="&#x168;" horiz-adv-x="675" 
d="M599 265q0 -73 -16.5 -123.5t-48.5 -83.5q-66 -68 -196 -68t-196 67q-32 33 -49 83.5t-17 123.5v440q0 16 17 16h43q17 0 17 -16v-431q0 -66 13.5 -107.5t40.5 -66.5q48 -44 131 -44t131 44q27 25 40.5 66.5t13.5 107.5v431q0 16 17 16h43q16 0 16 -16v-439zM483 824
q-12 -16 -34.5 -30t-50.5 -14q-19 0 -32.5 4.5t-26.5 10.5t-27.5 10.5t-34.5 4.5q-16 0 -28 -8.5t-20 -16.5q-7 -7 -14 0l-27 33q-6 8 3 18q12 16 34.5 30t50.5 14q19 0 32.5 -4.5t26.5 -10.5t27.5 -10.5t34.5 -4.5q16 0 28 8.5t20 16.5q4 4 7 4.5t7 -4.5l27 -33
q5 -7 -3 -18z" />
    <glyph glyph-name="Udieresis" unicode="&#xdc;" horiz-adv-x="675" 
d="M599 265q0 -73 -16.5 -123.5t-48.5 -83.5q-66 -68 -196 -68t-196 67q-32 33 -49 83.5t-17 123.5v440q0 16 17 16h43q17 0 17 -16v-431q0 -66 13.5 -107.5t40.5 -66.5q48 -44 131 -44t131 44q27 25 40.5 66.5t13.5 107.5v431q0 16 17 16h43q16 0 16 -16v-439zM212 784
q-14 0 -14 13v66q0 13 14 13h61q16 0 16 -13v-66q0 -13 -16 -13h-61zM400 784q-15 0 -15 13v66q0 13 15 13h61q15 0 15 -13v-66q0 -13 -15 -13h-61z" />
    <glyph glyph-name="Umacron" unicode="&#x16a;" horiz-adv-x="675" 
d="M599 265q0 -73 -16.5 -123.5t-48.5 -83.5q-66 -68 -196 -68t-196 67q-32 33 -49 83.5t-17 123.5v440q0 16 17 16h43q17 0 17 -16v-431q0 -66 13.5 -107.5t40.5 -66.5q48 -44 131 -44t131 44q27 25 40.5 66.5t13.5 107.5v431q0 16 17 16h43q16 0 16 -16v-439zM471 856
q14 0 14 -14v-37q0 -14 -14 -14h-267q-14 0 -14 14v37q0 14 14 14h267z" />
    <glyph glyph-name="Ubreve" unicode="&#x16c;" horiz-adv-x="675" 
d="M599 265q0 -73 -16.5 -123.5t-48.5 -83.5q-66 -68 -196 -68t-196 67q-32 33 -49 83.5t-17 123.5v440q0 16 17 16h43q17 0 17 -16v-431q0 -66 13.5 -107.5t40.5 -66.5q48 -44 131 -44t131 44q27 25 40.5 66.5t13.5 107.5v431q0 16 17 16h43q16 0 16 -16v-439zM337 778
q-59 0 -99 24.5t-44 84.5q0 11 12 11h42q11 0 12 -12q2 -29 22 -43t53 -14t55 14t24 43q1 12 12 12h42q12 0 12 -11q-4 -60 -44 -84.5t-99 -24.5z" />
    <glyph glyph-name="Uring" unicode="&#x16e;" horiz-adv-x="675" 
d="M599 265q0 -73 -16.5 -123.5t-48.5 -83.5q-66 -68 -196 -68t-196 67q-32 33 -49 83.5t-17 123.5v440q0 16 17 16h43q17 0 17 -16v-431q0 -66 13.5 -107.5t40.5 -66.5q48 -44 131 -44t131 44q27 25 40.5 66.5t13.5 107.5v431q0 16 17 16h43q16 0 16 -16v-439zM337 754
q-18 0 -33.5 6.5t-27.5 17.5t-19 26.5t-7 32.5t7 32t19 26.5t27.5 18t33.5 6.5t33.5 -6.5t27.5 -17.5t19 -26t7 -33t-7 -33t-19 -26t-27.5 -17.5t-33.5 -6.5zM337 794q18 0 30 13t12 30q0 18 -12 30.5t-30 12.5t-30.5 -11.5t-12.5 -31.5t12.5 -31.5t30.5 -11.5z" />
    <glyph glyph-name="Uhungarumlaut" unicode="&#x170;" horiz-adv-x="675" 
d="M599 265q0 -73 -16.5 -123.5t-48.5 -83.5q-66 -68 -196 -68t-196 67q-32 33 -49 83.5t-17 123.5v440q0 16 17 16h43q17 0 17 -16v-431q0 -66 13.5 -107.5t40.5 -66.5q48 -44 131 -44t131 44q27 25 40.5 66.5t13.5 107.5v431q0 16 17 16h43q16 0 16 -16v-439zM233 771
q-12 0 -7 12l54 118q4 7 7.5 8.5t10.5 1.5h57q12 0 5 -13l-73 -118q-4 -5 -6.5 -7t-10.5 -2h-37zM390 771q-12 0 -7 12l54 118q4 7 7.5 8.5t10.5 1.5h57q12 0 5 -13l-73 -118q-4 -5 -6.5 -7t-10.5 -2h-37z" />
    <glyph glyph-name="Uogonek" unicode="&#x172;" horiz-adv-x="675" 
d="M301 -118q0 35 19.5 63.5t47.5 47.5q-14 -3 -30 -3q-130 0 -196 67q-32 33 -49 83.5t-17 123.5v440q0 16 17 16h43q17 0 17 -16v-431q0 -66 13.5 -107.5t40.5 -66.5q48 -44 131 -44t131 44q27 25 40.5 66.5t13.5 107.5v431q0 16 17 16h43q16 0 16 -16v-431
q0 -87 -23.5 -140.5t-56.5 -86.5q-24 -25 -50 -42.5t-47.5 -33t-35.5 -32t-14 -39.5q0 -24 16 -33t36 -9q17 0 40 5q12 3 13 -8l5 -30q1 -7 -0.5 -10t-8.5 -5q-14 -5 -31 -7.5t-35 -2.5q-29 0 -49 8t-33 20t-18.5 26.5t-5.5 28.5z" />
    <glyph glyph-name="Wgrave" unicode="&#x1e80;" horiz-adv-x="956" 
d="M845 704q2 10 8 13t17 3h38q19 0 14 -18l-175 -686q-4 -16 -24 -16h-65q-11 0 -16.5 3t-7.5 13l-86 346q-10 39 -19.5 78.5t-18 77t-16 71t-13.5 60.5q-6 -25 -14 -61t-17 -75.5t-18 -79.5t-17 -73l-83 -344q-4 -16 -24 -16h-64q-11 0 -16 3t-8 13l-186 686q-2 8 0 13
t13 5h44q11 0 15.5 -3t6.5 -13l90 -354l73 -287q6 28 15 67t18.5 79.5t18.5 78t15 63.5l85 353q4 16 24 16h58q11 0 16.5 -3t7.5 -13l88 -354l38.5 -154t33.5 -133l68 288zM464 775q-11 0 -16 8l-81 115q-5 6 -3 9.5t7 3.5h67q8 0 11 -1.5t7 -8.5l61 -116q5 -10 -6 -10h-47z
" />
    <glyph glyph-name="Wacute" unicode="&#x1e82;" horiz-adv-x="956" 
d="M845 704q2 10 8 13t17 3h38q19 0 14 -18l-175 -686q-4 -16 -24 -16h-65q-11 0 -16.5 3t-7.5 13l-86 346q-10 39 -19.5 78.5t-18 77t-16 71t-13.5 60.5q-6 -25 -14 -61t-17 -75.5t-18 -79.5t-17 -73l-83 -344q-4 -16 -24 -16h-64q-11 0 -16 3t-8 13l-186 686q-2 8 0 13
t13 5h44q11 0 15.5 -3t6.5 -13l90 -354l73 -287q6 28 15 67t18.5 79.5t18.5 78t15 63.5l85 353q4 16 24 16h58q11 0 16.5 -3t7.5 -13l88 -354l38.5 -154t33.5 -133l68 288zM453 775q-11 0 -6 10l61 116q4 7 7 8.5t11 1.5h67q5 0 7 -3.5t-3 -9.5l-81 -115q-5 -8 -16 -8h-47z
" />
    <glyph glyph-name="Wcircumflex" unicode="&#x174;" horiz-adv-x="956" 
d="M845 704q2 10 8 13t17 3h38q19 0 14 -18l-175 -686q-4 -16 -24 -16h-65q-11 0 -16.5 3t-7.5 13l-86 346q-10 39 -19.5 78.5t-18 77t-16 71t-13.5 60.5q-6 -25 -14 -61t-17 -75.5t-18 -79.5t-17 -73l-83 -344q-4 -16 -24 -16h-64q-11 0 -16 3t-8 13l-186 686q-2 8 0 13
t13 5h44q11 0 15.5 -3t6.5 -13l90 -354l73 -287q6 28 15 67t18.5 79.5t18.5 78t15 63.5l85 353q4 16 24 16h58q11 0 16.5 -3t7.5 -13l88 -354l38.5 -154t33.5 -133l68 288zM629 804q3 -4 3.5 -7.5t-4.5 -8.5l-20 -21q-9 -9 -18 -1l-112 95l-112 -95q-9 -8 -18 1l-20 21
q-5 5 -4.5 8.5t3.5 7.5l91 97q7 7 11.5 9.5t13.5 2.5h70q9 0 13.5 -2.5t11.5 -9.5z" />
    <glyph glyph-name="Wdieresis" unicode="&#x1e84;" horiz-adv-x="956" 
d="M845 704q2 10 8 13t17 3h38q19 0 14 -18l-175 -686q-4 -16 -24 -16h-65q-11 0 -16.5 3t-7.5 13l-86 346q-10 39 -19.5 78.5t-18 77t-16 71t-13.5 60.5q-6 -25 -14 -61t-17 -75.5t-18 -79.5t-17 -73l-83 -344q-4 -16 -24 -16h-64q-11 0 -16 3t-8 13l-186 686q-2 8 0 13
t13 5h44q11 0 15.5 -3t6.5 -13l90 -354l73 -287q6 28 15 67t18.5 79.5t18.5 78t15 63.5l85 353q4 16 24 16h58q11 0 16.5 -3t7.5 -13l88 -354l38.5 -154t33.5 -133l68 288zM353 784q-14 0 -14 13v66q0 13 14 13h61q16 0 16 -13v-66q0 -13 -16 -13h-61zM541 784q-15 0 -15 13
v66q0 13 15 13h61q15 0 15 -13v-66q0 -13 -15 -13h-61z" />
    <glyph glyph-name="Ygrave" unicode="&#x1ef2;" horiz-adv-x="526" 
d="M239 0q-17 0 -17 16v268l-205 421q-3 7 0 11t10 4h49q11 0 15 -2t8 -10l83 -178q30 -64 50 -108.5t31 -73.5q6 15 14.5 36t19 45.5t23 51t24.5 51.5l85 174q4 8 8 11t13 3h48q8 0 11 -4t-1 -12l-209 -423v-265q0 -16 -17 -16h-43zM255 775q-11 0 -16 8l-81 115
q-5 6 -3 9.5t7 3.5h67q8 0 11 -1.5t7 -8.5l61 -116q5 -10 -6 -10h-47z" />
    <glyph glyph-name="Yacute" unicode="&#xdd;" horiz-adv-x="526" 
d="M239 0q-17 0 -17 16v268l-205 421q-3 7 0 11t10 4h49q11 0 15 -2t8 -10l83 -178q30 -64 50 -108.5t31 -73.5q6 15 14.5 36t19 45.5t23 51t24.5 51.5l85 174q4 8 8 11t13 3h48q8 0 11 -4t-1 -12l-209 -423v-265q0 -16 -17 -16h-43zM236 775q-11 0 -6 10l61 116q4 7 7 8.5
t11 1.5h67q5 0 7 -3.5t-3 -9.5l-81 -115q-5 -8 -16 -8h-47z" />
    <glyph glyph-name="Ycircumflex" unicode="&#x176;" horiz-adv-x="526" 
d="M239 0q-17 0 -17 16v268l-205 421q-3 7 0 11t10 4h49q11 0 15 -2t8 -10l83 -178q30 -64 50 -108.5t31 -73.5q6 15 14.5 36t19 45.5t23 51t24.5 51.5l85 174q4 8 8 11t13 3h48q8 0 11 -4t-1 -12l-209 -423v-265q0 -16 -17 -16h-43zM414 804q3 -4 3.5 -7.5t-4.5 -8.5
l-20 -21q-9 -9 -18 -1l-112 95l-112 -95q-9 -8 -18 1l-20 21q-5 5 -4.5 8.5t3.5 7.5l91 97q7 7 11.5 9.5t13.5 2.5h70q9 0 13.5 -2.5t11.5 -9.5z" />
    <glyph glyph-name="Ydieresis" unicode="&#x178;" horiz-adv-x="526" 
d="M239 0q-17 0 -17 16v268l-205 421q-3 7 0 11t10 4h49q11 0 15 -2t8 -10l83 -178q30 -64 50 -108.5t31 -73.5q6 15 14.5 36t19 45.5t23 51t24.5 51.5l85 174q4 8 8 11t13 3h48q8 0 11 -4t-1 -12l-209 -423v-265q0 -16 -17 -16h-43zM138 784q-14 0 -14 13v66q0 13 14 13h61
q16 0 16 -13v-66q0 -13 -16 -13h-61zM326 784q-15 0 -15 13v66q0 13 15 13h61q15 0 15 -13v-66q0 -13 -15 -13h-61z" />
    <glyph glyph-name="Zacute" unicode="&#x179;" horiz-adv-x="537" 
d="M57 0q-16 0 -16 16v32q0 14 2 22.5t10 20.5l353 563h-327q-16 0 -16 16v34q0 16 16 16h400q17 0 17 -16v-29q0 -11 -2.5 -18t-8.5 -17l-360 -574h362q16 0 16 -16v-34q0 -16 -17 -16h-429zM244 775q-11 0 -6 10l61 116q4 7 7 8.5t11 1.5h67q5 0 7 -3.5t-3 -9.5l-81 -115
q-5 -8 -16 -8h-47z" />
    <glyph glyph-name="Zcaron" unicode="&#x17d;" horiz-adv-x="537" 
d="M57 0q-16 0 -16 16v32q0 14 2 22.5t10 20.5l353 563h-327q-16 0 -16 16v34q0 16 16 16h400q17 0 17 -16v-29q0 -11 -2.5 -18t-8.5 -17l-360 -574h362q16 0 16 -16v-34q0 -16 -17 -16h-429zM338 779q-7 -7 -11.5 -9.5t-13.5 -2.5h-70q-9 0 -13.5 2.5t-11.5 9.5l-91 97
q-3 4 -3.5 7.5t4.5 8.5l20 21q9 9 18 1l112 -95l112 95q9 8 18 -1l20 -21q5 -5 4.5 -8.5t-3.5 -7.5z" />
    <glyph glyph-name="Zdotaccent" unicode="&#x17b;" horiz-adv-x="537" 
d="M57 0q-16 0 -16 16v32q0 14 2 22.5t10 20.5l353 563h-327q-16 0 -16 16v34q0 16 16 16h400q17 0 17 -16v-29q0 -11 -2.5 -18t-8.5 -17l-360 -574h362q16 0 16 -16v-34q0 -16 -17 -16h-429zM251 790q-15 0 -15 13v66q0 13 15 13h61q15 0 15 -13v-66q0 -13 -15 -13h-61z
" />
    <glyph glyph-name="agrave" unicode="&#xe0;" horiz-adv-x="565" 
d="M431 13q-3 12 -6 29t-5 36q-24 -42 -65 -65t-92 -23q-57 0 -97.5 22.5t-67 59t-38.5 84.5t-12 99q0 66 18 118.5t48.5 89t72 56t88.5 19.5q44 0 81.5 -18t62.5 -49q1 10 2 25t3 21q2 11 15 11h36q9 0 12 -3t3 -10q-2 -41 -3.5 -83.5t-1.5 -80.5v-123q0 -55 4 -114t11 -99
q3 -15 -13 -15h-38q-15 0 -18 13zM272 56q29 0 56.5 12.5t46.5 36.5q17 22 27 55t10 78v164q-9 14 -23.5 27t-32 22.5t-37 15t-38.5 5.5q-42 0 -71.5 -18t-48 -47t-27.5 -67.5t-9 -78.5q0 -44 9 -81.5t27 -65t45.5 -43t65.5 -15.5zM286 576q-11 0 -16 8l-81 115q-5 6 -3 9.5
t7 3.5h67q8 0 11 -1.5t7 -8.5l61 -116q5 -10 -6 -10h-47z" />
    <glyph glyph-name="aacute" unicode="&#xe1;" horiz-adv-x="565" 
d="M431 13q-3 12 -6 29t-5 36q-24 -42 -65 -65t-92 -23q-57 0 -97.5 22.5t-67 59t-38.5 84.5t-12 99q0 66 18 118.5t48.5 89t72 56t88.5 19.5q44 0 81.5 -18t62.5 -49q1 10 2 25t3 21q2 11 15 11h36q9 0 12 -3t3 -10q-2 -41 -3.5 -83.5t-1.5 -80.5v-123q0 -55 4 -114t11 -99
q3 -15 -13 -15h-38q-15 0 -18 13zM272 56q29 0 56.5 12.5t46.5 36.5q17 22 27 55t10 78v164q-9 14 -23.5 27t-32 22.5t-37 15t-38.5 5.5q-42 0 -71.5 -18t-48 -47t-27.5 -67.5t-9 -78.5q0 -44 9 -81.5t27 -65t45.5 -43t65.5 -15.5zM232 576q-11 0 -6 10l61 116q4 7 7 8.5
t11 1.5h67q5 0 7 -3.5t-3 -9.5l-81 -115q-5 -8 -16 -8h-47z" />
    <glyph glyph-name="acircumflex" unicode="&#xe2;" horiz-adv-x="565" 
d="M431 13q-3 12 -6 29t-5 36q-24 -42 -65 -65t-92 -23q-57 0 -97.5 22.5t-67 59t-38.5 84.5t-12 99q0 66 18 118.5t48.5 89t72 56t88.5 19.5q44 0 81.5 -18t62.5 -49q1 10 2 25t3 21q2 11 15 11h36q9 0 12 -3t3 -10q-2 -41 -3.5 -83.5t-1.5 -80.5v-123q0 -55 4 -114t11 -99
q3 -15 -13 -15h-38q-15 0 -18 13zM272 56q29 0 56.5 12.5t46.5 36.5q17 22 27 55t10 78v164q-9 14 -23.5 27t-32 22.5t-37 15t-38.5 5.5q-42 0 -71.5 -18t-48 -47t-27.5 -67.5t-9 -78.5q0 -44 9 -81.5t27 -65t45.5 -43t65.5 -15.5zM433 614q3 -4 3.5 -7.5t-4.5 -8.5l-20 -21
q-9 -9 -18 -1l-112 95l-112 -95q-9 -8 -18 1l-20 21q-5 5 -4.5 8.5t3.5 7.5l91 97q7 7 11.5 9.5t13.5 2.5h70q9 0 13.5 -2.5t11.5 -9.5z" />
    <glyph glyph-name="atilde" unicode="&#xe3;" horiz-adv-x="565" 
d="M431 13q-3 12 -6 29t-5 36q-24 -42 -65 -65t-92 -23q-57 0 -97.5 22.5t-67 59t-38.5 84.5t-12 99q0 66 18 118.5t48.5 89t72 56t88.5 19.5q44 0 81.5 -18t62.5 -49q1 10 2 25t3 21q2 11 15 11h36q9 0 12 -3t3 -10q-2 -41 -3.5 -83.5t-1.5 -80.5v-123q0 -55 4 -114t11 -99
q3 -15 -13 -15h-38q-15 0 -18 13zM272 56q29 0 56.5 12.5t46.5 36.5q17 22 27 55t10 78v164q-9 14 -23.5 27t-32 22.5t-37 15t-38.5 5.5q-42 0 -71.5 -18t-48 -47t-27.5 -67.5t-9 -78.5q0 -44 9 -81.5t27 -65t45.5 -43t65.5 -15.5zM428 643q-12 -16 -34.5 -30t-50.5 -14
q-19 0 -32.5 4.5t-26.5 10.5t-27.5 10.5t-34.5 4.5q-16 0 -28 -8.5t-20 -16.5q-7 -7 -14 0l-27 33q-6 8 3 18q12 16 34.5 30t50.5 14q19 0 32.5 -4.5t26.5 -10.5t27.5 -10.5t34.5 -4.5q16 0 28 8.5t20 16.5q4 4 7 4.5t7 -4.5l27 -33q5 -7 -3 -18z" />
    <glyph glyph-name="adieresis" unicode="&#xe4;" horiz-adv-x="565" 
d="M431 13q-3 12 -6 29t-5 36q-24 -42 -65 -65t-92 -23q-57 0 -97.5 22.5t-67 59t-38.5 84.5t-12 99q0 66 18 118.5t48.5 89t72 56t88.5 19.5q44 0 81.5 -18t62.5 -49q1 10 2 25t3 21q2 11 15 11h36q9 0 12 -3t3 -10q-2 -41 -3.5 -83.5t-1.5 -80.5v-123q0 -55 4 -114t11 -99
q3 -15 -13 -15h-38q-15 0 -18 13zM272 56q29 0 56.5 12.5t46.5 36.5q17 22 27 55t10 78v164q-9 14 -23.5 27t-32 22.5t-37 15t-38.5 5.5q-42 0 -71.5 -18t-48 -47t-27.5 -67.5t-9 -78.5q0 -44 9 -81.5t27 -65t45.5 -43t65.5 -15.5zM147 600q-14 0 -14 13v66q0 13 14 13h61
q16 0 16 -13v-66q0 -13 -16 -13h-61zM335 600q-15 0 -15 13v66q0 13 15 13h61q15 0 15 -13v-66q0 -13 -15 -13h-61z" />
    <glyph glyph-name="amacron" unicode="&#x101;" horiz-adv-x="565" 
d="M431 13q-3 12 -6 29t-5 36q-24 -42 -65 -65t-92 -23q-57 0 -97.5 22.5t-67 59t-38.5 84.5t-12 99q0 66 18 118.5t48.5 89t72 56t88.5 19.5q44 0 81.5 -18t62.5 -49q1 10 2 25t3 21q2 11 15 11h36q9 0 12 -3t3 -10q-2 -41 -3.5 -83.5t-1.5 -80.5v-123q0 -55 4 -114t11 -99
q3 -15 -13 -15h-38q-15 0 -18 13zM272 56q29 0 56.5 12.5t46.5 36.5q17 22 27 55t10 78v164q-9 14 -23.5 27t-32 22.5t-37 15t-38.5 5.5q-42 0 -71.5 -18t-48 -47t-27.5 -67.5t-9 -78.5q0 -44 9 -81.5t27 -65t45.5 -43t65.5 -15.5zM416 678q14 0 14 -14v-37q0 -14 -14 -14
h-267q-14 0 -14 14v37q0 14 14 14h267z" />
    <glyph glyph-name="abreve" unicode="&#x103;" horiz-adv-x="565" 
d="M431 13q-3 12 -6 29t-5 36q-24 -42 -65 -65t-92 -23q-57 0 -97.5 22.5t-67 59t-38.5 84.5t-12 99q0 66 18 118.5t48.5 89t72 56t88.5 19.5q44 0 81.5 -18t62.5 -49q1 10 2 25t3 21q2 11 15 11h36q9 0 12 -3t3 -10q-2 -41 -3.5 -83.5t-1.5 -80.5v-123q0 -55 4 -114t11 -99
q3 -15 -13 -15h-38q-15 0 -18 13zM272 56q29 0 56.5 12.5t46.5 36.5q17 22 27 55t10 78v164q-9 14 -23.5 27t-32 22.5t-37 15t-38.5 5.5q-42 0 -71.5 -18t-48 -47t-27.5 -67.5t-9 -78.5q0 -44 9 -81.5t27 -65t45.5 -43t65.5 -15.5zM276 588q-59 0 -99 24.5t-44 84.5
q0 11 12 11h42q11 0 12 -12q2 -29 22 -43t53 -14t55 14t24 43q1 12 12 12h42q12 0 12 -11q-4 -60 -44 -84.5t-99 -24.5z" />
    <glyph glyph-name="acaron" unicode="&#x1ce;" horiz-adv-x="565" 
d="M431 13q-3 12 -6 29t-5 36q-24 -42 -65 -65t-92 -23q-57 0 -97.5 22.5t-67 59t-38.5 84.5t-12 99q0 66 18 118.5t48.5 89t72 56t88.5 19.5q44 0 81.5 -18t62.5 -49q1 10 2 25t3 21q2 11 15 11h36q9 0 12 -3t3 -10q-2 -41 -3.5 -83.5t-1.5 -80.5v-123q0 -55 4 -114t11 -99
q3 -15 -13 -15h-38q-15 0 -18 13zM272 56q29 0 56.5 12.5t46.5 36.5q17 22 27 55t10 78v164q-9 14 -23.5 27t-32 22.5t-37 15t-38.5 5.5q-42 0 -71.5 -18t-48 -47t-27.5 -67.5t-9 -78.5q0 -44 9 -81.5t27 -65t45.5 -43t65.5 -15.5zM334 592q-7 -7 -11.5 -9.5t-13.5 -2.5h-70
q-9 0 -13.5 2.5t-11.5 9.5l-91 97q-3 4 -3.5 7.5t4.5 8.5l20 21q9 9 18 1l112 -95l112 95q9 8 18 -1l20 -21q5 -5 4.5 -8.5t-3.5 -7.5z" />
    <glyph glyph-name="aring" unicode="&#xe5;" horiz-adv-x="565" 
d="M431 13q-3 12 -6 29t-5 36q-24 -42 -65 -65t-92 -23q-57 0 -97.5 22.5t-67 59t-38.5 84.5t-12 99q0 66 18 118.5t48.5 89t72 56t88.5 19.5q44 0 81.5 -18t62.5 -49q1 10 2 25t3 21q2 11 15 11h36q9 0 12 -3t3 -10q-2 -41 -3.5 -83.5t-1.5 -80.5v-123q0 -55 4 -114t11 -99
q3 -15 -13 -15h-38q-15 0 -18 13zM272 56q29 0 56.5 12.5t46.5 36.5q17 22 27 55t10 78v164q-9 14 -23.5 27t-32 22.5t-37 15t-38.5 5.5q-42 0 -71.5 -18t-48 -47t-27.5 -67.5t-9 -78.5q0 -44 9 -81.5t27 -65t45.5 -43t65.5 -15.5zM273 573q-18 0 -33.5 6.5t-27.5 17.5
t-19 26.5t-7 32.5t7 32t19 26.5t27.5 18t33.5 6.5t33.5 -6.5t27.5 -17.5t19 -26t7 -33t-7 -33t-19 -26t-27.5 -17.5t-33.5 -6.5zM273 613q18 0 30 13t12 30q0 18 -12 30.5t-30 12.5t-30.5 -11.5t-12.5 -31.5t12.5 -31.5t30.5 -11.5z" />
    <glyph glyph-name="aringacute" unicode="&#x1fb;" horiz-adv-x="565" 
d="M431 13q-3 12 -6 29t-5 36q-24 -42 -65 -65t-92 -23q-57 0 -97.5 22.5t-67 59t-38.5 84.5t-12 99q0 66 18 118.5t48.5 89t72 56t88.5 19.5q44 0 81.5 -18t62.5 -49q1 10 2 25t3 21q2 11 15 11h36q9 0 12 -3t3 -10q-2 -41 -3.5 -83.5t-1.5 -80.5v-123q0 -55 4 -114t11 -99
q3 -15 -13 -15h-38q-15 0 -18 13zM272 56q29 0 56.5 12.5t46.5 36.5q17 22 27 55t10 78v164q-9 14 -23.5 27t-32 22.5t-37 15t-38.5 5.5q-42 0 -71.5 -18t-48 -47t-27.5 -67.5t-9 -78.5q0 -44 9 -81.5t27 -65t45.5 -43t65.5 -15.5zM276 568q-18 0 -33.5 6.5t-27.5 17.5
t-19 26.5t-7 32.5t7 32t19 26.5t27.5 18t33.5 6.5t33.5 -6.5t27.5 -17.5t19 -26t7 -33t-7 -33t-19 -26t-27.5 -17.5t-33.5 -6.5zM276 608q18 0 30 13t12 30q0 18 -12 30.5t-30 12.5t-30.5 -11.5t-12.5 -31.5t12.5 -31.5t30.5 -11.5zM212 758q-11 0 -6 10l61 116q4 7 7 8.5
t11 1.5h67q5 0 7 -3.5t-3 -9.5l-81 -115q-5 -8 -16 -8h-47z" />
    <glyph glyph-name="aogonek" unicode="&#x105;" horiz-adv-x="565" 
d="M361 -118q0 38 18.5 67t53.5 58q-4 14 -8 34t-5 37q-24 -42 -65 -65t-92 -23q-57 0 -97.5 22.5t-67 59t-38.5 84.5t-12 99q0 66 18 118.5t48.5 89t72 56t88.5 19.5q44 0 81.5 -18t62.5 -49q1 15 2 26.5t3 19.5q2 11 15 11h36q9 0 12 -3t3 -10q-2 -41 -3.5 -83.5
t-1.5 -80.5v-123q0 -55 4.5 -113t10.5 -98q1 -5 -0.5 -8.5t-8.5 -8.5q-26 -19 -42.5 -44t-16.5 -57q0 -23 16 -32.5t36 -9.5q17 0 40 5q12 3 13 -8l5 -30q1 -7 -0.5 -10t-8.5 -5q-14 -5 -31 -7.5t-35 -2.5q-29 0 -49 8t-33 20t-18.5 26.5t-5.5 28.5zM272 56q29 0 56.5 12.5
t46.5 36.5q17 22 27 55t10 78v164q-9 14 -23.5 27t-32 22.5t-37 15t-38.5 5.5q-42 0 -71.5 -18t-48 -47t-27.5 -67.5t-9 -78.5q0 -44 9 -81.5t27 -65t45.5 -43t65.5 -15.5z" />
    <glyph glyph-name="ae" unicode="&#xe6;" horiz-adv-x="900" 
d="M645 -10q-79 0 -131.5 29.5t-79.5 83.5q-26 -51 -78 -82t-120 -31q-56 0 -92.5 15t-59 37.5t-31.5 49.5t-9 52q0 65 44 106q53 50 165 50q47 0 88.5 -6t62.5 -11v32q0 40 -7 68.5t-24 47.5q-33 39 -109 39q-38 0 -74.5 -8.5t-71.5 -24.5q-12 -5 -17 -5t-8 8l-16 37
q-5 12 10 19q47 22 92 32t89 10q106 0 157 -53q9 -10 17 -21t14 -24q31 46 78.5 72t108.5 26q53 0 92.5 -20.5t66 -56.5t39.5 -85.5t13 -107.5q0 -31 -17 -31h-356q2 -92 47 -135.5t133 -43.5q29 0 62 7.5t69 24.5q13 6 19 -6l13 -31q5 -13 -8 -21q-71 -42 -171 -42zM235 56
q46 0 77.5 14t51 37.5t28.5 53.5t11 62q-36 8 -73.5 11.5t-72.5 3.5q-71 0 -103.5 -24t-32.5 -69q0 -39 29.5 -64t84.5 -25zM644 470q-69 0 -109.5 -44.5t-51.5 -124.5h296q0 30 -8 60t-24.5 54t-42 39.5t-60.5 15.5z" />
    <glyph glyph-name="aeacute" unicode="&#x1fd;" horiz-adv-x="900" 
d="M645 -10q-79 0 -131.5 29.5t-79.5 83.5q-26 -51 -78 -82t-120 -31q-56 0 -92.5 15t-59 37.5t-31.5 49.5t-9 52q0 65 44 106q53 50 165 50q47 0 88.5 -6t62.5 -11v32q0 40 -7 68.5t-24 47.5q-33 39 -109 39q-38 0 -74.5 -8.5t-71.5 -24.5q-12 -5 -17 -5t-8 8l-16 37
q-5 12 10 19q47 22 92 32t89 10q106 0 157 -53q9 -10 17 -21t14 -24q31 46 78.5 72t108.5 26q53 0 92.5 -20.5t66 -56.5t39.5 -85.5t13 -107.5q0 -31 -17 -31h-356q2 -92 47 -135.5t133 -43.5q29 0 62 7.5t69 24.5q13 6 19 -6l13 -31q5 -13 -8 -21q-71 -42 -171 -42zM235 56
q46 0 77.5 14t51 37.5t28.5 53.5t11 62q-36 8 -73.5 11.5t-72.5 3.5q-71 0 -103.5 -24t-32.5 -69q0 -39 29.5 -64t84.5 -25zM644 470q-69 0 -109.5 -44.5t-51.5 -124.5h296q0 30 -8 60t-24.5 54t-42 39.5t-60.5 15.5zM437 576q-11 0 -6 10l61 116q4 7 7 8.5t11 1.5h67
q5 0 7 -3.5t-3 -9.5l-81 -115q-5 -8 -16 -8h-47z" />
    <glyph glyph-name="cacute" unicode="&#x107;" horiz-adv-x="483" 
d="M278 -10q-51 0 -93.5 19t-73 53.5t-47 83.5t-16.5 109q0 70 19 123.5t52 88.5t76.5 53t92.5 18q86 0 159 -47q11 -8 4 -22l-16 -32q-5 -8 -11 -8.5t-12 3.5q-33 20 -62 29t-61 9q-73 0 -118.5 -55t-45.5 -155q0 -49 12 -86.5t34 -63t52 -39t65 -13.5q32 0 64 9t61 23
q16 8 22 -7l11 -30q6 -15 -6 -22q-35 -20 -75.5 -30.5t-86.5 -10.5zM251 576q-11 0 -6 10l61 116q4 7 7 8.5t11 1.5h67q5 0 7 -3.5t-3 -9.5l-81 -115q-5 -8 -16 -8h-47z" />
    <glyph glyph-name="ccedilla" unicode="&#xe7;" horiz-adv-x="483" 
d="M296 -216q-20 0 -41.5 3.5t-33.5 8.5q-6 2 -8 5t0 11l6 26q3 12 13 9q14 -4 30 -8t33 -4q50 0 50 38q0 19 -17 26t-44 7q-11 0 -23 -0.5t-22 -1.5q-13 0 -12 11l10 79q-86 14 -137.5 83t-51.5 178q0 70 19 123.5t52 88.5t76.5 53t92.5 18q88 0 159 -47q11 -8 4 -22
l-16 -32q-5 -8 -11 -8.5t-12 3.5q-33 20 -62 29t-61 9q-73 0 -118.5 -55t-45.5 -155q0 -49 12 -86.5t34 -63t52 -39t65 -13.5q32 0 64 9t61 23q17 9 23 -9l10 -28q6 -15 -7 -22q-32 -20 -69 -29.5t-77 -11.5l-2 -33q5 1 13.5 1.5t15.5 0.5q17 0 33.5 -5t29 -15.5t20.5 -25.5
t8 -34q0 -18 -6.5 -35t-20.5 -30.5t-35.5 -21.5t-52.5 -8z" />
    <glyph glyph-name="ccircumflex" unicode="&#x109;" horiz-adv-x="483" 
d="M278 -10q-51 0 -93.5 19t-73 53.5t-47 83.5t-16.5 109q0 70 19 123.5t52 88.5t76.5 53t92.5 18q86 0 159 -47q11 -8 4 -22l-16 -32q-5 -8 -11 -8.5t-12 3.5q-33 20 -62 29t-61 9q-73 0 -118.5 -55t-45.5 -155q0 -49 12 -86.5t34 -63t52 -39t65 -13.5q32 0 64 9t61 23
q16 8 22 -7l11 -30q6 -15 -6 -22q-35 -20 -75.5 -30.5t-86.5 -10.5zM434 614q3 -4 3.5 -7.5t-4.5 -8.5l-20 -21q-9 -9 -18 -1l-112 95l-112 -95q-9 -8 -18 1l-20 21q-5 5 -4.5 8.5t3.5 7.5l91 97q7 7 11.5 9.5t13.5 2.5h70q9 0 13.5 -2.5t11.5 -9.5z" />
    <glyph glyph-name="ccaron" unicode="&#x10d;" horiz-adv-x="483" 
d="M278 -10q-51 0 -93.5 19t-73 53.5t-47 83.5t-16.5 109q0 70 19 123.5t52 88.5t76.5 53t92.5 18q86 0 159 -47q11 -8 4 -22l-16 -32q-5 -8 -11 -8.5t-12 3.5q-33 20 -62 29t-61 9q-73 0 -118.5 -55t-45.5 -155q0 -49 12 -86.5t34 -63t52 -39t65 -13.5q32 0 64 9t61 23
q16 8 22 -7l11 -30q6 -15 -6 -22q-35 -20 -75.5 -30.5t-86.5 -10.5zM350 592q-7 -7 -11.5 -9.5t-13.5 -2.5h-70q-9 0 -13.5 2.5t-11.5 9.5l-91 97q-3 4 -3.5 7.5t4.5 8.5l20 21q9 9 18 1l112 -95l112 95q9 8 18 -1l20 -21q5 -5 4.5 -8.5t-3.5 -7.5z" />
    <glyph glyph-name="cdotaccent" unicode="&#x10b;" horiz-adv-x="483" 
d="M278 -10q-51 0 -93.5 19t-73 53.5t-47 83.5t-16.5 109q0 70 19 123.5t52 88.5t76.5 53t92.5 18q86 0 159 -47q11 -8 4 -22l-16 -32q-5 -8 -11 -8.5t-12 3.5q-33 20 -62 29t-61 9q-73 0 -118.5 -55t-45.5 -155q0 -49 12 -86.5t34 -63t52 -39t65 -13.5q32 0 64 9t61 23
q16 8 22 -7l11 -30q6 -15 -6 -22q-35 -20 -75.5 -30.5t-86.5 -10.5zM257 600q-15 0 -15 13v66q0 13 15 13h61q15 0 15 -13v-66q0 -13 -15 -13h-61z" />
    <glyph glyph-name="dcaron" unicode="&#x10f;" horiz-adv-x="648" 
d="M493 -1q-70 0 -79 72q-24 -39 -64 -60t-89 -21q-57 0 -97.5 22.5t-66 59t-37.5 84.5t-12 99q0 71 20.5 125.5t55.5 91.5q30 32 71 49t87 17q35 0 68.5 -10t59.5 -30v254q0 14 15 14h43q15 0 15 -14v-631q0 -38 7 -50.5t32 -12.5q13 0 13 -13v-25q0 -11 -8 -16t-34 -5z
M270 56q29 0 56.5 12.5t46.5 36.5q17 22 27 55t10 78v194q-26 20 -57.5 30t-63.5 10q-68 0 -106 -38q-31 -30 -44.5 -76t-13.5 -97q0 -44 8.5 -81.5t26 -65t45 -43t65.5 -15.5zM572 509q-15 0 -12 14l24 112l-15 7q-10 5 -13.5 8.5t-3.5 13.5v55q0 14 15 14h67q16 0 16 -14
v-33q0 -12 -1 -22t-3.5 -21.5t-6.5 -25.5t-10 -33l-19 -63q-4 -12 -17 -12h-21v0z" />
    <glyph glyph-name="dcroat" unicode="&#x111;" horiz-adv-x="575" 
d="M418 78q-24 -42 -65 -65t-92 -23q-57 0 -97.5 22.5t-66 59t-37.5 84.5t-12 99q0 71 20.5 125.5t55.5 91.5q30 32 71 49t87 17q35 0 68.5 -10t59.5 -30v117h-161q-14 0 -14 14v23q0 14 14 14h161v86q0 14 15 14h43q15 0 15 -14v-86h50q14 0 14 -14v-23q0 -14 -14 -14h-50
v-494q0 -38 7 -50.5t32 -12.5q13 0 13 -13v-26q0 -13 -12 -16q-7 -2 -15.5 -3t-19.5 -1q-26 0 -47 19t-23 60zM270 56q29 0 56.5 12.5t46.5 36.5q17 22 27 55t10 78v194q-26 20 -57.5 30t-63.5 10q-68 0 -106 -38q-31 -30 -44.5 -76t-13.5 -97q0 -44 8.5 -81.5t26 -65
t45 -43t65.5 -15.5z" />
    <glyph glyph-name="eth" unicode="&#xf0;" horiz-adv-x="551" 
d="M293 674q104 -68 158 -163t54 -234q0 -86 -20.5 -142t-53 -88t-73 -44.5t-80.5 -12.5q-51 0 -94 17t-74.5 50t-49.5 81t-18 111t18 112t48.5 82.5t71 51t85.5 17.5q34 0 66 -8.5t58 -25.5q-37 52 -73 89.5t-88 70.5l-117 -65q-12 -8 -19 4l-16 26q-8 14 6 22l85 47
q-19 10 -40 20t-45 21q-4 2 -7 5.5t2 13.5l13 27q4 8 7.5 8.5t9.5 -1.5q69 -27 126 -57l118 65q12 8 19 -4l16 -26q8 -14 -6 -22zM281 59q77 0 113 58.5t36 166.5q0 32 -2.5 60.5t-7.5 54.5q-29 23 -72 36.5t-80 13.5q-47 0 -76.5 -20.5t-45.5 -50.5t-21.5 -64.5t-5.5 -61.5
q0 -87 42.5 -140t119.5 -53z" />
    <glyph glyph-name="egrave" unicode="&#xe8;" horiz-adv-x="544" 
d="M289 -10q-62 0 -107 18.5t-75 52.5t-44.5 82t-14.5 107q0 63 17 116t48 91.5t75 59.5t99 21q53 0 92.5 -20.5t66 -56.5t39.5 -85.5t13 -107.5q0 -31 -17 -31h-356q2 -92 47 -135.5t133 -43.5q29 0 62 7.5t69 24.5q13 6 19 -6l13 -31q5 -13 -8 -21q-71 -42 -171 -42z
M288 470q-69 0 -109.5 -44.5t-51.5 -124.5h296q0 30 -8 60t-24.5 54t-42 39.5t-60.5 15.5zM273 576q-11 0 -16 8l-81 115q-5 6 -3 9.5t7 3.5h67q8 0 11 -1.5t7 -8.5l61 -116q5 -10 -6 -10h-47z" />
    <glyph glyph-name="eacute" unicode="&#xe9;" horiz-adv-x="544" 
d="M289 -10q-62 0 -107 18.5t-75 52.5t-44.5 82t-14.5 107q0 63 17 116t48 91.5t75 59.5t99 21q53 0 92.5 -20.5t66 -56.5t39.5 -85.5t13 -107.5q0 -31 -17 -31h-356q2 -92 47 -135.5t133 -43.5q29 0 62 7.5t69 24.5q13 6 19 -6l13 -31q5 -13 -8 -21q-71 -42 -171 -42z
M288 470q-69 0 -109.5 -44.5t-51.5 -124.5h296q0 30 -8 60t-24.5 54t-42 39.5t-60.5 15.5zM247 576q-11 0 -6 10l61 116q4 7 7 8.5t11 1.5h67q5 0 7 -3.5t-3 -9.5l-81 -115q-5 -8 -16 -8h-47z" />
    <glyph glyph-name="ecircumflex" unicode="&#xea;" horiz-adv-x="544" 
d="M289 -10q-62 0 -107 18.5t-75 52.5t-44.5 82t-14.5 107q0 63 17 116t48 91.5t75 59.5t99 21q53 0 92.5 -20.5t66 -56.5t39.5 -85.5t13 -107.5q0 -31 -17 -31h-356q2 -92 47 -135.5t133 -43.5q29 0 62 7.5t69 24.5q13 6 19 -6l13 -31q5 -13 -8 -21q-71 -42 -171 -42z
M288 470q-69 0 -109.5 -44.5t-51.5 -124.5h296q0 30 -8 60t-24.5 54t-42 39.5t-60.5 15.5zM437 614q3 -4 3.5 -7.5t-4.5 -8.5l-20 -21q-9 -9 -18 -1l-112 95l-112 -95q-9 -8 -18 1l-20 21q-5 5 -4.5 8.5t3.5 7.5l91 97q7 7 11.5 9.5t13.5 2.5h70q9 0 13.5 -2.5t11.5 -9.5z
" />
    <glyph glyph-name="ecaron" unicode="&#x11b;" horiz-adv-x="544" 
d="M289 -10q-62 0 -107 18.5t-75 52.5t-44.5 82t-14.5 107q0 63 17 116t48 91.5t75 59.5t99 21q53 0 92.5 -20.5t66 -56.5t39.5 -85.5t13 -107.5q0 -31 -17 -31h-356q2 -92 47 -135.5t133 -43.5q29 0 62 7.5t69 24.5q13 6 19 -6l13 -31q5 -13 -8 -21q-71 -42 -171 -42z
M288 470q-69 0 -109.5 -44.5t-51.5 -124.5h296q0 30 -8 60t-24.5 54t-42 39.5t-60.5 15.5zM346 592q-7 -7 -11.5 -9.5t-13.5 -2.5h-70q-9 0 -13.5 2.5t-11.5 9.5l-91 97q-3 4 -3.5 7.5t4.5 8.5l20 21q9 9 18 1l112 -95l112 95q9 8 18 -1l20 -21q5 -5 4.5 -8.5t-3.5 -7.5z
" />
    <glyph glyph-name="edieresis" unicode="&#xeb;" horiz-adv-x="544" 
d="M289 -10q-62 0 -107 18.5t-75 52.5t-44.5 82t-14.5 107q0 63 17 116t48 91.5t75 59.5t99 21q53 0 92.5 -20.5t66 -56.5t39.5 -85.5t13 -107.5q0 -31 -17 -31h-356q2 -92 47 -135.5t133 -43.5q29 0 62 7.5t69 24.5q13 6 19 -6l13 -31q5 -13 -8 -21q-71 -42 -171 -42z
M288 470q-69 0 -109.5 -44.5t-51.5 -124.5h296q0 30 -8 60t-24.5 54t-42 39.5t-60.5 15.5zM162 600q-14 0 -14 13v66q0 13 14 13h61q16 0 16 -13v-66q0 -13 -16 -13h-61zM350 600q-15 0 -15 13v66q0 13 15 13h61q15 0 15 -13v-66q0 -13 -15 -13h-61z" />
    <glyph glyph-name="emacron" unicode="&#x113;" horiz-adv-x="544" 
d="M289 -10q-62 0 -107 18.5t-75 52.5t-44.5 82t-14.5 107q0 63 17 116t48 91.5t75 59.5t99 21q53 0 92.5 -20.5t66 -56.5t39.5 -85.5t13 -107.5q0 -31 -17 -31h-356q2 -92 47 -135.5t133 -43.5q29 0 62 7.5t69 24.5q13 6 19 -6l13 -31q5 -13 -8 -21q-71 -42 -171 -42z
M288 470q-69 0 -109.5 -44.5t-51.5 -124.5h296q0 30 -8 60t-24.5 54t-42 39.5t-60.5 15.5zM421 678q14 0 14 -14v-37q0 -14 -14 -14h-267q-14 0 -14 14v37q0 14 14 14h267z" />
    <glyph glyph-name="ebreve" unicode="&#x115;" horiz-adv-x="544" 
d="M289 -10q-62 0 -107 18.5t-75 52.5t-44.5 82t-14.5 107q0 63 17 116t48 91.5t75 59.5t99 21q53 0 92.5 -20.5t66 -56.5t39.5 -85.5t13 -107.5q0 -31 -17 -31h-356q2 -92 47 -135.5t133 -43.5q29 0 62 7.5t69 24.5q13 6 19 -6l13 -31q5 -13 -8 -21q-71 -42 -171 -42z
M288 470q-69 0 -109.5 -44.5t-51.5 -124.5h296q0 30 -8 60t-24.5 54t-42 39.5t-60.5 15.5zM287 588q-59 0 -99 24.5t-44 84.5q0 11 12 11h42q11 0 12 -12q2 -29 22 -43t53 -14t55 14t24 43q1 12 12 12h42q12 0 12 -11q-4 -60 -44 -84.5t-99 -24.5z" />
    <glyph glyph-name="edotaccent" unicode="&#x117;" horiz-adv-x="544" 
d="M289 -10q-62 0 -107 18.5t-75 52.5t-44.5 82t-14.5 107q0 63 17 116t48 91.5t75 59.5t99 21q53 0 92.5 -20.5t66 -56.5t39.5 -85.5t13 -107.5q0 -31 -17 -31h-356q2 -92 47 -135.5t133 -43.5q29 0 62 7.5t69 24.5q13 6 19 -6l13 -31q5 -13 -8 -21q-71 -42 -171 -42z
M288 470q-69 0 -109.5 -44.5t-51.5 -124.5h296q0 30 -8 60t-24.5 54t-42 39.5t-60.5 15.5zM241 600q-15 0 -15 13v66q0 13 15 13h61q15 0 15 -13v-66q0 -13 -15 -13h-61z" />
    <glyph glyph-name="eogonek" unicode="&#x119;" horiz-adv-x="544" 
d="M460 32q-56 -38 -79.5 -68t-23.5 -62q0 -24 14.5 -34.5t37.5 -10.5q17 0 40 5q12 3 13 -8l5 -30q1 -7 -0.5 -10t-8.5 -5q-14 -5 -31 -7.5t-35 -2.5q-29 0 -49 8t-33 20t-18.5 26.5t-5.5 28.5q0 35 16 63t45 49q-14 -2 -28.5 -3t-29.5 -1q-62 0 -107 18.5t-75 52.5
t-44.5 82t-14.5 107q0 63 17 116t48 91.5t75 59.5t99 21q53 0 92.5 -20.5t66 -56.5t39.5 -85.5t13 -107.5q0 -31 -17 -31h-356q2 -92 47 -135.5t133 -43.5q29 0 62 7.5t69 24.5q14 6 19 -6l13 -31q3 -8 1.5 -12t-9.5 -9zM288 470q-69 0 -109.5 -44.5t-51.5 -124.5h296
q0 30 -8 60t-24.5 54t-42 39.5t-60.5 15.5z" />
    <glyph glyph-name="gcircumflex" unicode="&#x11d;" horiz-adv-x="566" 
d="M379 -145q21 24 30 57.5t9 78.5v81q-25 -35 -64.5 -55.5t-86.5 -20.5q-57 0 -98.5 22t-68 58t-39.5 83.5t-13 98.5q0 66 18.5 118t50.5 88t75 55t91 19q41 0 79.5 -18.5t62.5 -48.5q1 15 2 26.5t3 19.5q2 11 15 11h26q10 0 13 -3.5t4 -11.5q2 -28 2.5 -65.5t0.5 -73.5
v-390q0 -57 -14 -101.5t-46 -76.5q-28 -28 -70 -43t-104 -15q-33 0 -68.5 5t-53.5 10q-10 3 -12 7.5t0 11.5l6 29q2 9 6 11.5t15 0.5q27 -5 53 -8t56 -3q43 0 72.5 11.5t47.5 31.5zM276 63q29 0 57.5 12.5t47.5 36.5q17 22 27 55t10 78v157q-9 15 -23.5 27.5t-32.5 22
t-38 14.5t-39 5q-42 0 -72 -17t-49.5 -46t-29 -66.5t-9.5 -77.5q0 -44 9.5 -81t28 -63.5t47 -41.5t66.5 -15zM434 614q3 -4 3.5 -7.5t-4.5 -8.5l-20 -21q-9 -9 -18 -1l-112 95l-112 -95q-9 -8 -18 1l-20 21q-5 5 -4.5 8.5t3.5 7.5l91 97q7 7 11.5 9.5t13.5 2.5h70
q9 0 13.5 -2.5t11.5 -9.5z" />
    <glyph glyph-name="gbreve" unicode="&#x11f;" horiz-adv-x="566" 
d="M379 -145q21 24 30 57.5t9 78.5v81q-25 -35 -64.5 -55.5t-86.5 -20.5q-57 0 -98.5 22t-68 58t-39.5 83.5t-13 98.5q0 66 18.5 118t50.5 88t75 55t91 19q41 0 79.5 -18.5t62.5 -48.5q1 15 2 26.5t3 19.5q2 11 15 11h26q10 0 13 -3.5t4 -11.5q2 -28 2.5 -65.5t0.5 -73.5
v-390q0 -57 -14 -101.5t-46 -76.5q-28 -28 -70 -43t-104 -15q-33 0 -68.5 5t-53.5 10q-10 3 -12 7.5t0 11.5l6 29q2 9 6 11.5t15 0.5q27 -5 53 -8t56 -3q43 0 72.5 11.5t47.5 31.5zM276 63q29 0 57.5 12.5t47.5 36.5q17 22 27 55t10 78v157q-9 15 -23.5 27.5t-32.5 22
t-38 14.5t-39 5q-42 0 -72 -17t-49.5 -46t-29 -66.5t-9.5 -77.5q0 -44 9.5 -81t28 -63.5t47 -41.5t66.5 -15zM283 588q-59 0 -99 24.5t-44 84.5q0 11 12 11h42q11 0 12 -12q2 -29 22 -43t53 -14t55 14t24 43q1 12 12 12h42q12 0 12 -11q-4 -60 -44 -84.5t-99 -24.5z" />
    <glyph glyph-name="gdotaccent" unicode="&#x121;" horiz-adv-x="566" 
d="M379 -145q21 24 30 57.5t9 78.5v81q-25 -35 -64.5 -55.5t-86.5 -20.5q-57 0 -98.5 22t-68 58t-39.5 83.5t-13 98.5q0 66 18.5 118t50.5 88t75 55t91 19q41 0 79.5 -18.5t62.5 -48.5q1 15 2 26.5t3 19.5q2 11 15 11h26q10 0 13 -3.5t4 -11.5q2 -28 2.5 -65.5t0.5 -73.5
v-390q0 -57 -14 -101.5t-46 -76.5q-28 -28 -70 -43t-104 -15q-33 0 -68.5 5t-53.5 10q-10 3 -12 7.5t0 11.5l6 29q2 9 6 11.5t15 0.5q27 -5 53 -8t56 -3q43 0 72.5 11.5t47.5 31.5zM276 63q29 0 57.5 12.5t47.5 36.5q17 22 27 55t10 78v157q-9 15 -23.5 27.5t-32.5 22
t-38 14.5t-39 5q-42 0 -72 -17t-49.5 -46t-29 -66.5t-9.5 -77.5q0 -44 9.5 -81t28 -63.5t47 -41.5t66.5 -15zM252 600q-15 0 -15 13v66q0 13 15 13h61q15 0 15 -13v-66q0 -13 -15 -13h-61z" />
    <glyph glyph-name="gcommaaccent" unicode="&#x123;" horiz-adv-x="566" 
d="M313 816q15 0 12 -14l-27 -112l15 -7q10 -3 13.5 -7t3.5 -15v-52q0 -14 -15 -14h-62q-16 0 -16 14v30q0 15 1 26t3 22.5t5.5 24t9.5 29.5l19 63q4 12 17 12h21zM379 -145q21 24 30 57.5t9 78.5v81q-25 -35 -64.5 -55.5t-86.5 -20.5q-57 0 -98.5 22t-68 58t-39.5 83.5
t-13 98.5q0 66 18.5 118t50.5 88t75 55t91 19q41 0 79.5 -18.5t62.5 -48.5q1 15 2 26.5t3 19.5q2 11 15 11h26q10 0 13 -3.5t4 -11.5q2 -28 2.5 -65.5t0.5 -73.5v-390q0 -57 -14 -101.5t-46 -76.5q-28 -28 -70 -43t-104 -15q-33 0 -68.5 5t-53.5 10q-10 3 -12 7.5t0 11.5
l6 29q2 9 6 11.5t15 0.5q27 -5 53 -8t56 -3q43 0 72.5 11.5t47.5 31.5zM276 63q29 0 57.5 12.5t47.5 36.5q17 22 27 55t10 78v157q-9 15 -23.5 27.5t-32.5 22t-38 14.5t-39 5q-42 0 -72 -17t-49.5 -46t-29 -66.5t-9.5 -77.5q0 -44 9.5 -81t28 -63.5t47 -41.5t66.5 -15z" />
    <glyph glyph-name="hcircumflex" unicode="&#x125;" horiz-adv-x="583" 
d="M153 14q0 -14 -15 -14h-43q-15 0 -15 14v738q0 14 15 14h43q15 0 15 -14v-283q26 29 70.5 49t93.5 20q42 0 79.5 -13.5t63.5 -39.5q28 -28 39.5 -69t11.5 -104v-298q0 -14 -15 -14h-43q-15 0 -15 14v255q0 64 -4.5 100.5t-25.5 60.5q-32 36 -105 36q-33 0 -66.5 -11.5
t-53.5 -31.5q-12 -14 -18 -31.5t-8 -45.5q-2 -26 -3 -64t-1 -87v-181zM268 795q3 -4 3.5 -7.5t-4.5 -8.5l-20 -21q-9 -9 -18 -1l-112 95l-112 -95q-9 -8 -18 1l-20 21q-5 5 -4.5 8.5t3.5 7.5l91 97q7 7 11.5 9.5t13.5 2.5h70q9 0 13.5 -2.5t11.5 -9.5z" />
    <glyph glyph-name="hbar" unicode="&#x127;" horiz-adv-x="583" 
d="M80 666v86q0 14 15 14h43q15 0 15 -14v-86h160q14 0 14 -14v-23q0 -14 -14 -14h-160v-146q26 29 70.5 49t93.5 20q42 0 79.5 -13.5t63.5 -39.5q28 -28 39.5 -69t11.5 -104v-298q0 -14 -15 -14h-43q-15 0 -15 14v255q0 64 -4.5 100.5t-25.5 60.5q-32 36 -105 36
q-33 0 -66.5 -11.5t-53.5 -31.5q-12 -14 -18 -31.5t-8 -45.5q-2 -26 -3 -64t-1 -87v-181q0 -14 -15 -14h-43q-15 0 -15 14v601h-51q-14 0 -14 14v23q0 14 14 14h51z" />
    <glyph glyph-name="dotlessi" unicode="&#x131;" horiz-adv-x="227" 
d="M92 0q-15 0 -15 14v500q0 14 15 14h43q15 0 15 -14v-500q0 -14 -15 -14h-43z" />
    <glyph glyph-name="igrave" unicode="&#xec;" horiz-adv-x="227" 
d="M92 0q-15 0 -15 14v500q0 14 15 14h43q15 0 15 -14v-500q0 -14 -15 -14h-43zM102 576q-11 0 -16 8l-81 115q-5 6 -3 9.5t7 3.5h67q8 0 11 -1.5t7 -8.5l61 -116q5 -10 -6 -10h-47z" />
    <glyph glyph-name="iacute" unicode="&#xed;" horiz-adv-x="227" 
d="M92 0q-15 0 -15 14v500q0 14 15 14h43q15 0 15 -14v-500q0 -14 -15 -14h-43zM84 576q-11 0 -6 10l61 116q4 7 7 8.5t11 1.5h67q5 0 7 -3.5t-3 -9.5l-81 -115q-5 -8 -16 -8h-47z" />
    <glyph glyph-name="icircumflex" unicode="&#xee;" horiz-adv-x="227" 
d="M92 0q-15 0 -15 14v500q0 14 15 14h43q15 0 15 -14v-500q0 -14 -15 -14h-43zM265 614q3 -4 3.5 -7.5t-4.5 -8.5l-20 -21q-9 -9 -18 -1l-112 95l-112 -95q-9 -8 -18 1l-20 21q-5 5 -4.5 8.5t3.5 7.5l91 97q7 7 11.5 9.5t13.5 2.5h70q9 0 13.5 -2.5t11.5 -9.5z" />
    <glyph glyph-name="itilde" unicode="&#x129;" horiz-adv-x="227" 
d="M92 0q-15 0 -15 14v500q0 14 15 14h43q15 0 15 -14v-500q0 -14 -15 -14h-43zM260 643q-12 -16 -34.5 -30t-50.5 -14q-19 0 -32.5 4.5t-26.5 10.5t-27.5 10.5t-34.5 4.5q-16 0 -28 -8.5t-20 -16.5q-7 -7 -14 0l-27 33q-6 8 3 18q12 16 34.5 30t50.5 14q19 0 32.5 -4.5
t26.5 -10.5t27.5 -10.5t34.5 -4.5q16 0 28 8.5t20 16.5q4 4 7 4.5t7 -4.5l27 -33q5 -7 -3 -18z" />
    <glyph glyph-name="idieresis" unicode="&#xef;" horiz-adv-x="227" 
d="M92 0q-15 0 -15 14v500q0 14 15 14h43q15 0 15 -14v-500q0 -14 -15 -14h-43zM-11 600q-14 0 -14 13v66q0 13 14 13h61q16 0 16 -13v-66q0 -13 -16 -13h-61zM177 600q-15 0 -15 13v66q0 13 15 13h61q15 0 15 -13v-66q0 -13 -15 -13h-61z" />
    <glyph glyph-name="imacron" unicode="&#x12b;" horiz-adv-x="227" 
d="M92 0q-15 0 -15 14v500q0 14 15 14h43q15 0 15 -14v-500q0 -14 -15 -14h-43zM247 678q14 0 14 -14v-37q0 -14 -14 -14h-267q-14 0 -14 14v37q0 14 14 14h267z" />
    <glyph glyph-name="ibreve" unicode="&#x12d;" horiz-adv-x="227" 
d="M92 0q-15 0 -15 14v500q0 14 15 14h43q15 0 15 -14v-500q0 -14 -15 -14h-43zM114 588q-59 0 -99 24.5t-44 84.5q0 11 12 11h42q11 0 12 -12q2 -29 22 -43t53 -14t55 14t24 43q1 12 12 12h42q12 0 12 -11q-4 -60 -44 -84.5t-99 -24.5z" />
    <glyph glyph-name="idotaccent" horiz-adv-x="227" 
d="M92 0q-15 0 -15 14v500q0 14 15 14h43q15 0 15 -14v-500q0 -14 -15 -14h-43zM83 642q-15 0 -15 14v64q0 14 15 14h60q16 0 16 -14v-64q0 -14 -16 -14h-60z" />
    <glyph glyph-name="iogonek" unicode="&#x12f;" horiz-adv-x="227" 
d="M11 -118q0 36 17.5 65t48.5 51v516q0 14 15 14h43q15 0 15 -14v-497q0 -6 -1 -9t-8 -8q-26 -19 -42.5 -44t-16.5 -57q0 -23 16 -32.5t36 -9.5q17 0 40 5q12 3 13 -8l5 -30q1 -7 -0.5 -10t-8.5 -5q-14 -5 -31 -7.5t-35 -2.5q-29 0 -49 8t-33 20t-18.5 26.5t-5.5 28.5z
M83 642q-15 0 -15 14v64q0 14 15 14h60q16 0 16 -14v-64q0 -14 -16 -14h-60z" />
    <glyph glyph-name="ij" unicode="&#x133;" horiz-adv-x="465" 
d="M92 0q-15 0 -15 14v500q0 14 15 14h43q15 0 15 -14v-500q0 -14 -15 -14h-43zM79 638q-15 0 -15 14v71q0 14 15 14h68q16 0 16 -14v-71q0 -14 -16 -14h-68zM315 514q0 14 15 14h43q15 0 15 -14v-514q0 -63 -9.5 -106t-31.5 -72q-42 -55 -133 -55q-19 0 -39.5 3t-31.5 7
q-6 2 -8.5 6t-0.5 13l5 26q2 8 5.5 10.5t13.5 0.5q11 -2 24 -3t28 -1q24 0 45 7.5t35 28.5q13 19 19 52t6 87v510zM317 638q-15 0 -15 14v71q0 14 15 14h68q16 0 16 -14v-71q0 -14 -16 -14h-68z" />
    <glyph glyph-name="jcircumflex" unicode="&#x135;" horiz-adv-x="238" 
d="M88 514q0 14 15 14h43q15 0 15 -14v-514q0 -63 -9.5 -106t-31.5 -72q-42 -55 -133 -55q-19 0 -39.5 3t-31.5 7q-6 2 -8.5 6t-0.5 13l5 26q2 8 5.5 10.5t13.5 0.5q11 -2 24 -3t28 -1q24 0 45 7.5t35 28.5q13 19 19 52t6 87v510zM275 614q3 -4 3.5 -7.5t-4.5 -8.5l-20 -21
q-9 -9 -18 -1l-112 95l-112 -95q-9 -8 -18 1l-20 21q-5 5 -4.5 8.5t3.5 7.5l91 97q7 7 11.5 9.5t13.5 2.5h70q9 0 13.5 -2.5t11.5 -9.5z" />
    <glyph glyph-name="kcommaaccent" unicode="&#x137;" horiz-adv-x="486" 
d="M95 0q-15 0 -15 14v738q0 14 15 14h43q15 0 15 -14v-451h43q12 0 18.5 3t12.5 11l132 201q5 7 8.5 9.5t14.5 2.5h43q12 0 12 -8q0 -5 -3 -9l-161 -237l187 -257q3 -5 3 -9q0 -8 -10 -8h-48q-12 0 -17 3t-10 10l-150 208q-8 11 -13.5 13t-19.5 2h-42v-222q0 -14 -15 -14
h-43zM230 -276q-15 0 -12 14l24 112l-15 7q-10 5 -13.5 8.5t-3.5 13.5v55q0 14 15 14h67q16 0 16 -14v-33q0 -12 -1 -22t-3.5 -21.5t-6.5 -25.5t-10 -33l-19 -63q-4 -12 -17 -12h-21v0z" />
    <glyph glyph-name="kgreenlandic" unicode="&#x138;" horiz-adv-x="486" 
d="M95 0q-15 0 -15 14v500q0 14 15 14h43q15 0 15 -14v-213h43q12 0 18.5 3t12.5 11l136 201q5 7 8.5 9.5t14.5 2.5h43q12 0 12 -8q0 -5 -3 -9l-165 -237l187 -257q3 -5 3 -9q0 -8 -10 -8h-48q-12 0 -17 3t-10 10l-150 208q-8 11 -13.5 13t-19.5 2h-42v-222q0 -14 -15 -14
h-43z" />
    <glyph glyph-name="lacute" unicode="&#x13a;" horiz-adv-x="233" 
d="M148 114q0 -33 6.5 -45.5t32.5 -12.5q14 0 14 -13v-20q0 -8 -2 -11.5t-8 -5.5q-5 -2 -15.5 -4t-21.5 -2q-25 0 -42 9.5t-25 25.5q-8 14 -10 36.5t-2 61.5v383q0 67 -1 109.5t-2 68.5t-2 38.5t-1 19.5q0 14 13 14h45q13 0 14 -11q3 -23 5 -86.5t2 -165.5v-389zM67 801
q-11 0 -6 10l61 116q4 7 7 8.5t11 1.5h67q5 0 7 -3.5t-3 -9.5l-81 -115q-5 -8 -16 -8h-47z" />
    <glyph glyph-name="lcaron" unicode="&#x13e;" horiz-adv-x="304" 
d="M148 114q0 -33 6.5 -45.5t32.5 -12.5q14 0 14 -13v-20q0 -8 -2 -11.5t-8 -5.5q-5 -2 -15.5 -4t-21.5 -2q-25 0 -42 9.5t-25 25.5q-8 14 -10 36.5t-2 61.5v383q0 67 -1 109.5t-2 68.5t-2 38.5t-1 19.5q0 14 13 14h45q13 0 14 -11q3 -23 5 -86.5t2 -165.5v-389zM228 509
q-15 0 -12 14l24 112l-15 7q-10 5 -13.5 8.5t-3.5 13.5v55q0 14 15 14h67q16 0 16 -14v-33q0 -12 -1 -22t-3.5 -21.5t-6.5 -25.5t-10 -33l-19 -63q-4 -12 -17 -12h-21v0z" />
    <glyph glyph-name="lcommaaccent" unicode="&#x13c;" horiz-adv-x="233" 
d="M148 114q0 -33 6.5 -45.5t32.5 -12.5q14 0 14 -13v-20q0 -8 -2 -11.5t-8 -5.5q-5 -2 -15.5 -4t-21.5 -2q-25 0 -42 9.5t-25 25.5q-8 14 -10 36.5t-2 61.5v383q0 67 -1 109.5t-2 68.5t-2 38.5t-1 19.5q0 14 13 14h45q13 0 14 -11q3 -23 5 -86.5t2 -165.5v-389zM103 -276
q-15 0 -12 14l24 112l-15 7q-10 5 -13.5 8.5t-3.5 13.5v55q0 14 15 14h67q16 0 16 -14v-33q0 -12 -1 -22t-3.5 -21.5t-6.5 -25.5t-10 -33l-19 -63q-4 -12 -17 -12h-21v0z" />
    <glyph glyph-name="lslash" unicode="&#x142;" horiz-adv-x="254" 
d="M159 114q0 -33 6.5 -45.5t32.5 -12.5q14 0 14 -13v-20q0 -8 -2 -11.5t-8 -5.5q-5 -2 -15.5 -4t-21.5 -2q-25 0 -42 9.5t-25 25.5q-8 14 -10 36.5t-2 61.5v147l-64 -52q-5 -4 -8.5 -2.5t-3.5 7.5v48q0 13 10 21l66 54v163q0 67 -1 109.5t-2.5 68.5t-2.5 38.5t-1 19.5
q0 14 13 14h45q13 0 14 -11q3 -23 5.5 -86.5t2.5 -165.5v-90l83 68q5 4 8.5 2.5t3.5 -7.5v-48q0 -8 -2 -12t-8 -9l-85 -70v-226z" />
    <glyph glyph-name="longs" unicode="&#x17f;" horiz-adv-x="287" 
d="M176 14q0 -14 -15 -14h-43q-15 0 -15 14v454h-77q-14 0 -14 15v30q0 15 14 15h77v34q0 108 46.5 161t136.5 53q49 0 94 -20q9 -4 11 -8.5t-1 -13.5l-9 -23q-3 -8 -7.5 -10t-15.5 2q-23 8 -41 10t-35 2q-59 0 -82.5 -39.5t-23.5 -110.5v-551z" />
    <glyph glyph-name="ldot" unicode="&#x140;" horiz-adv-x="344" 
d="M148 114q0 -33 6.5 -45.5t32.5 -12.5q14 0 14 -13v-20q0 -8 -2 -11.5t-8 -5.5q-5 -2 -15.5 -4t-21.5 -2q-25 0 -42 9.5t-25 25.5q-8 14 -10 36.5t-2 61.5v383q0 67 -1 109.5t-2 68.5t-2 38.5t-1 19.5q0 14 13 14h45q13 0 14 -11q3 -23 5 -86.5t2 -165.5v-389zM250 283
q-15 0 -15 13v66q0 13 15 13h61q15 0 15 -13v-66q0 -13 -15 -13h-61z" />
    <glyph glyph-name="nacute" unicode="&#x144;" horiz-adv-x="584" 
d="M153 468q26 30 71 50t94 20q42 0 79.5 -13.5t63.5 -39.5q28 -28 39.5 -69t11.5 -104v-298q0 -14 -15 -14h-43q-15 0 -15 14v255q0 64 -4.5 100.5t-25.5 60.5q-32 36 -105 36q-33 0 -66.5 -11.5t-53.5 -31.5q-12 -14 -18 -31.5t-8 -45.5q-2 -26 -3 -64t-1 -87v-181
q0 -14 -15 -14h-43q-15 0 -15 14v302q0 58 -0.5 108.5t-2.5 89.5q0 14 15 14h40q16 0 17 -14q1 -7 2 -22t1 -24zM284 576q-11 0 -6 10l61 116q4 7 7 8.5t11 1.5h67q5 0 7 -3.5t-3 -9.5l-81 -115q-5 -8 -16 -8h-47z" />
    <glyph glyph-name="ncaron" unicode="&#x148;" horiz-adv-x="584" 
d="M153 468q26 30 71 50t94 20q42 0 79.5 -13.5t63.5 -39.5q28 -28 39.5 -69t11.5 -104v-298q0 -14 -15 -14h-43q-15 0 -15 14v255q0 64 -4.5 100.5t-25.5 60.5q-32 36 -105 36q-33 0 -66.5 -11.5t-53.5 -31.5q-12 -14 -18 -31.5t-8 -45.5q-2 -26 -3 -64t-1 -87v-181
q0 -14 -15 -14h-43q-15 0 -15 14v302q0 58 -0.5 108.5t-2.5 89.5q0 14 15 14h40q16 0 17 -14q1 -7 2 -22t1 -24zM380 592q-7 -7 -11.5 -9.5t-13.5 -2.5h-70q-9 0 -13.5 2.5t-11.5 9.5l-91 97q-3 4 -3.5 7.5t4.5 8.5l20 21q9 9 18 1l112 -95l112 95q9 8 18 -1l20 -21
q5 -5 4.5 -8.5t-3.5 -7.5z" />
    <glyph glyph-name="ntilde" unicode="&#xf1;" horiz-adv-x="584" 
d="M153 468q26 30 71 50t94 20q42 0 79.5 -13.5t63.5 -39.5q28 -28 39.5 -69t11.5 -104v-298q0 -14 -15 -14h-43q-15 0 -15 14v255q0 64 -4.5 100.5t-25.5 60.5q-32 36 -105 36q-33 0 -66.5 -11.5t-53.5 -31.5q-12 -14 -18 -31.5t-8 -45.5q-2 -26 -3 -64t-1 -87v-181
q0 -14 -15 -14h-43q-15 0 -15 14v302q0 58 -0.5 108.5t-2.5 89.5q0 14 15 14h40q16 0 17 -14q1 -7 2 -22t1 -24zM460 643q-12 -16 -34.5 -30t-50.5 -14q-19 0 -32.5 4.5t-26.5 10.5t-27.5 10.5t-34.5 4.5q-16 0 -28 -8.5t-20 -16.5q-7 -7 -14 0l-27 33q-6 8 3 18
q12 16 34.5 30t50.5 14q19 0 32.5 -4.5t26.5 -10.5t27.5 -10.5t34.5 -4.5q16 0 28 8.5t20 16.5q4 4 7 4.5t7 -4.5l27 -33q5 -7 -3 -18z" />
    <glyph glyph-name="ncommaaccent" unicode="&#x146;" horiz-adv-x="584" 
d="M153 468q26 30 71 50t94 20q42 0 79.5 -13.5t63.5 -39.5q28 -28 39.5 -69t11.5 -104v-298q0 -14 -15 -14h-43q-15 0 -15 14v255q0 64 -4.5 100.5t-25.5 60.5q-32 36 -105 36q-33 0 -66.5 -11.5t-53.5 -31.5q-12 -14 -18 -31.5t-8 -45.5q-2 -26 -3 -64t-1 -87v-181
q0 -14 -15 -14h-43q-15 0 -15 14v302q0 58 -0.5 108.5t-2.5 89.5q0 14 15 14h40q16 0 17 -14q1 -7 2 -22t1 -24zM273 -276q-15 0 -12 14l24 112l-15 7q-10 5 -13.5 8.5t-3.5 13.5v55q0 14 15 14h67q16 0 16 -14v-33q0 -12 -1 -22t-3.5 -21.5t-6.5 -25.5t-10 -33l-19 -63
q-4 -12 -17 -12h-21v0z" />
    <glyph glyph-name="napostrophe" unicode="&#x149;" horiz-adv-x="697" 
d="M266 468q26 30 71 50t94 20q42 0 79.5 -13.5t63.5 -39.5q28 -28 39.5 -69t11.5 -104v-298q0 -14 -15 -14h-43q-15 0 -15 14v255q0 64 -4.5 100.5t-25.5 60.5q-32 36 -105 36q-33 0 -66.5 -11.5t-53.5 -31.5q-12 -14 -18 -31.5t-8 -45.5q-2 -26 -3 -64t-1 -87v-181
q0 -14 -15 -14h-43q-15 0 -15 14v302q0 58 -0.5 108.5t-2.5 89.5q0 14 15 14h40q16 0 17 -14q1 -7 2 -22t1 -24zM77 467q-15 0 -12 14l29 130l-17 7q-11 5 -14 9.5t-3 15.5v63q0 14 15 14h76q16 0 16 -14v-42q0 -13 -1 -23.5t-4 -22t-7.5 -26t-10.5 -34.5l-25 -79
q-4 -12 -17 -12h-25z" />
    <glyph glyph-name="eng" unicode="&#x14b;" horiz-adv-x="584" 
d="M512 35q0 -63 -9.5 -106t-31.5 -72q-42 -55 -133 -55q-19 0 -39.5 3t-31.5 7q-6 2 -8.5 6t-0.5 13l5 26q2 8 5.5 10.5t13.5 0.5q11 -2 24 -3t28 -1q24 0 45 7.5t35 28.5q13 19 19 52t6 87v230q0 64 -4.5 100.5t-25.5 60.5q-32 36 -105 36q-33 0 -66.5 -11.5t-53.5 -31.5
q-12 -14 -18 -31.5t-8 -45.5q-2 -26 -3 -64t-1 -87v-181q0 -14 -15 -14h-43q-15 0 -15 14v302q0 58 -0.5 108.5t-2.5 89.5q0 14 15 14h40q16 0 17 -14q1 -7 2 -22t1 -24q26 30 71 50t94 20q42 0 79.5 -13.5t63.5 -39.5q28 -28 39.5 -69t11.5 -104v-277z" />
    <glyph glyph-name="ograve" unicode="&#xf2;" horiz-adv-x="567" 
d="M273 -10q-59 0 -101.5 20t-70 55.5t-40.5 83t-13 102.5q0 72 18 126t51 89.5t78 53.5t99 18q59 0 101.5 -20t70 -55.5t40.5 -83t13 -102.5q0 -72 -18 -126t-51 -89.5t-78 -53.5t-99 -18zM277 56q30 0 60 11t53 36t37.5 66t14.5 100q0 33 -6.5 69t-23.5 65.5t-46.5 49
t-75.5 19.5q-30 0 -60 -11t-53 -36t-37.5 -66t-14.5 -100q0 -33 6.5 -69t23.5 -65.5t46.5 -49t75.5 -19.5zM277 576q-11 0 -16 8l-81 115q-5 6 -3 9.5t7 3.5h67q8 0 11 -1.5t7 -8.5l61 -116q5 -10 -6 -10h-47z" />
    <glyph glyph-name="oacute" unicode="&#xf3;" horiz-adv-x="567" 
d="M273 -10q-59 0 -101.5 20t-70 55.5t-40.5 83t-13 102.5q0 72 18 126t51 89.5t78 53.5t99 18q59 0 101.5 -20t70 -55.5t40.5 -83t13 -102.5q0 -72 -18 -126t-51 -89.5t-78 -53.5t-99 -18zM277 56q30 0 60 11t53 36t37.5 66t14.5 100q0 33 -6.5 69t-23.5 65.5t-46.5 49
t-75.5 19.5q-30 0 -60 -11t-53 -36t-37.5 -66t-14.5 -100q0 -33 6.5 -69t23.5 -65.5t46.5 -49t75.5 -19.5zM252 576q-11 0 -6 10l61 116q4 7 7 8.5t11 1.5h67q5 0 7 -3.5t-3 -9.5l-81 -115q-5 -8 -16 -8h-47z" />
    <glyph glyph-name="ocircumflex" unicode="&#xf4;" horiz-adv-x="567" 
d="M273 -10q-59 0 -101.5 20t-70 55.5t-40.5 83t-13 102.5q0 72 18 126t51 89.5t78 53.5t99 18q59 0 101.5 -20t70 -55.5t40.5 -83t13 -102.5q0 -72 -18 -126t-51 -89.5t-78 -53.5t-99 -18zM277 56q30 0 60 11t53 36t37.5 66t14.5 100q0 33 -6.5 69t-23.5 65.5t-46.5 49
t-75.5 19.5q-30 0 -60 -11t-53 -36t-37.5 -66t-14.5 -100q0 -33 6.5 -69t23.5 -65.5t46.5 -49t75.5 -19.5zM436 614q3 -4 3.5 -7.5t-4.5 -8.5l-20 -21q-9 -9 -18 -1l-112 95l-112 -95q-9 -8 -18 1l-20 21q-5 5 -4.5 8.5t3.5 7.5l91 97q7 7 11.5 9.5t13.5 2.5h70
q9 0 13.5 -2.5t11.5 -9.5z" />
    <glyph glyph-name="otilde" unicode="&#xf5;" horiz-adv-x="567" 
d="M273 -10q-59 0 -101.5 20t-70 55.5t-40.5 83t-13 102.5q0 72 18 126t51 89.5t78 53.5t99 18q59 0 101.5 -20t70 -55.5t40.5 -83t13 -102.5q0 -72 -18 -126t-51 -89.5t-78 -53.5t-99 -18zM277 56q30 0 60 11t53 36t37.5 66t14.5 100q0 33 -6.5 69t-23.5 65.5t-46.5 49
t-75.5 19.5q-30 0 -60 -11t-53 -36t-37.5 -66t-14.5 -100q0 -33 6.5 -69t23.5 -65.5t46.5 -49t75.5 -19.5zM433 643q-12 -16 -34.5 -30t-50.5 -14q-19 0 -32.5 4.5t-26.5 10.5t-27.5 10.5t-34.5 4.5q-16 0 -28 -8.5t-20 -16.5q-7 -7 -14 0l-27 33q-6 8 3 18q12 16 34.5 30
t50.5 14q19 0 32.5 -4.5t26.5 -10.5t27.5 -10.5t34.5 -4.5q16 0 28 8.5t20 16.5q4 4 7 4.5t7 -4.5l27 -33q5 -7 -3 -18z" />
    <glyph glyph-name="odieresis" unicode="&#xf6;" horiz-adv-x="567" 
d="M273 -10q-59 0 -101.5 20t-70 55.5t-40.5 83t-13 102.5q0 72 18 126t51 89.5t78 53.5t99 18q59 0 101.5 -20t70 -55.5t40.5 -83t13 -102.5q0 -72 -18 -126t-51 -89.5t-78 -53.5t-99 -18zM277 56q30 0 60 11t53 36t37.5 66t14.5 100q0 33 -6.5 69t-23.5 65.5t-46.5 49
t-75.5 19.5q-30 0 -60 -11t-53 -36t-37.5 -66t-14.5 -100q0 -33 6.5 -69t23.5 -65.5t46.5 -49t75.5 -19.5zM158 600q-14 0 -14 13v66q0 13 14 13h61q16 0 16 -13v-66q0 -13 -16 -13h-61zM346 600q-15 0 -15 13v66q0 13 15 13h61q15 0 15 -13v-66q0 -13 -15 -13h-61z" />
    <glyph glyph-name="omacron" unicode="&#x14d;" horiz-adv-x="567" 
d="M273 -10q-59 0 -101.5 20t-70 55.5t-40.5 83t-13 102.5q0 72 18 126t51 89.5t78 53.5t99 18q59 0 101.5 -20t70 -55.5t40.5 -83t13 -102.5q0 -72 -18 -126t-51 -89.5t-78 -53.5t-99 -18zM277 56q30 0 60 11t53 36t37.5 66t14.5 100q0 33 -6.5 69t-23.5 65.5t-46.5 49
t-75.5 19.5q-30 0 -60 -11t-53 -36t-37.5 -66t-14.5 -100q0 -33 6.5 -69t23.5 -65.5t46.5 -49t75.5 -19.5zM417 678q14 0 14 -14v-37q0 -14 -14 -14h-267q-14 0 -14 14v37q0 14 14 14h267z" />
    <glyph glyph-name="obreve" unicode="&#x14f;" horiz-adv-x="567" 
d="M273 -10q-59 0 -101.5 20t-70 55.5t-40.5 83t-13 102.5q0 72 18 126t51 89.5t78 53.5t99 18q59 0 101.5 -20t70 -55.5t40.5 -83t13 -102.5q0 -72 -18 -126t-51 -89.5t-78 -53.5t-99 -18zM277 56q30 0 60 11t53 36t37.5 66t14.5 100q0 33 -6.5 69t-23.5 65.5t-46.5 49
t-75.5 19.5q-30 0 -60 -11t-53 -36t-37.5 -66t-14.5 -100q0 -33 6.5 -69t23.5 -65.5t46.5 -49t75.5 -19.5zM288 588q-59 0 -99 24.5t-44 84.5q0 11 12 11h42q11 0 12 -12q2 -29 22 -43t53 -14t55 14t24 43q1 12 12 12h42q12 0 12 -11q-4 -60 -44 -84.5t-99 -24.5z" />
    <glyph glyph-name="ohungarumlaut" unicode="&#x151;" horiz-adv-x="567" 
d="M273 -10q-59 0 -101.5 20t-70 55.5t-40.5 83t-13 102.5q0 72 18 126t51 89.5t78 53.5t99 18q59 0 101.5 -20t70 -55.5t40.5 -83t13 -102.5q0 -72 -18 -126t-51 -89.5t-78 -53.5t-99 -18zM277 56q30 0 60 11t53 36t37.5 66t14.5 100q0 33 -6.5 69t-23.5 65.5t-46.5 49
t-75.5 19.5q-30 0 -60 -11t-53 -36t-37.5 -66t-14.5 -100q0 -33 6.5 -69t23.5 -65.5t46.5 -49t75.5 -19.5zM165 572q-12 0 -7 12l54 118q4 7 7.5 8.5t10.5 1.5h57q12 0 5 -13l-73 -118q-4 -5 -6.5 -7t-10.5 -2h-37zM322 572q-12 0 -7 12l54 118q4 7 7.5 8.5t10.5 1.5h57
q12 0 5 -13l-73 -118q-4 -5 -6.5 -7t-10.5 -2h-37z" />
    <glyph glyph-name="oslash" unicode="&#xf8;" horiz-adv-x="567" 
d="M273 -10q-85 0 -138 42l-39 -49q-5 -6 -9.5 -7t-12.5 5l-23 19q-8 7 -10 11.5t3 10.5l46 59q-22 34 -32 77t-10 93q0 72 18 126t51 89.5t78 53.5t99 18q39 0 70.5 -9t57.5 -26l36 46q5 6 9.5 7t12.5 -5l23 -19q8 -7 10 -11.5t-3 -10.5l-41 -53q26 -35 38 -80.5t12 -99.5
q0 -72 -18 -126t-51 -89.5t-78 -53.5t-99 -18zM277 56q30 0 60 11t53 36t37.5 66t14.5 100q0 30 -5 62t-19 61l-237 -301q35 -35 96 -35zM125 259q0 -27 3.5 -56t14.5 -55l233 297q-33 27 -86 27q-30 0 -60 -11t-53 -36t-37.5 -66t-14.5 -100z" />
    <glyph glyph-name="oslashacute" unicode="&#x1ff;" horiz-adv-x="567" 
d="M273 -10q-85 0 -138 42l-39 -49q-5 -6 -9.5 -7t-12.5 5l-23 19q-8 7 -10 11.5t3 10.5l46 59q-22 34 -32 77t-10 93q0 72 18 126t51 89.5t78 53.5t99 18q39 0 70.5 -9t57.5 -26l36 46q5 6 9.5 7t12.5 -5l23 -19q8 -7 10 -11.5t-3 -10.5l-41 -53q26 -35 38 -80.5t12 -99.5
q0 -72 -18 -126t-51 -89.5t-78 -53.5t-99 -18zM277 56q30 0 60 11t53 36t37.5 66t14.5 100q0 30 -5 62t-19 61l-237 -301q35 -35 96 -35zM125 259q0 -27 3.5 -56t14.5 -55l233 297q-33 27 -86 27q-30 0 -60 -11t-53 -36t-37.5 -66t-14.5 -100zM259 576q-11 0 -6 10l61 116
q4 7 7 8.5t11 1.5h67q5 0 7 -3.5t-3 -9.5l-81 -115q-5 -8 -16 -8h-47z" />
    <glyph glyph-name="oe" unicode="&#x153;" horiz-adv-x="938" 
d="M683 -10q-77 0 -128 27.5t-79 78.5q-32 -54 -84.5 -80t-118.5 -26q-59 0 -101.5 20t-70 55.5t-40.5 83t-13 102.5q0 72 18 126t51 89.5t78 53.5t99 18q72 0 119.5 -29.5t73.5 -79.5q31 51 80 80t114 29q53 0 92.5 -20.5t66 -56.5t39.5 -85.5t13 -107.5q0 -31 -17 -31
h-356q2 -92 47 -135.5t133 -43.5q29 0 62 7.5t69 24.5q13 6 19 -6l13 -31q5 -13 -8 -21q-71 -42 -171 -42zM277 56q30 0 60 11t53 36t37.5 66t14.5 100q0 33 -6.5 69t-23.5 65.5t-46.5 49t-75.5 19.5q-30 0 -60 -11t-53 -36t-37.5 -66t-14.5 -100q0 -33 6.5 -69t23.5 -65.5
t46.5 -49t75.5 -19.5zM682 470q-69 0 -109.5 -44.5t-51.5 -124.5h296q0 30 -8 60t-24.5 54t-42 39.5t-60.5 15.5z" />
    <glyph glyph-name="thorn" unicode="&#xfe;" horiz-adv-x="559" 
d="M434 272q0 101 -35 147t-101 46q-34 0 -62.5 -10.5t-48.5 -29.5q-11 -10 -17.5 -22.5t-10 -32t-5 -48t-1.5 -71.5v-154q22 -17 54 -28t67 -11q36 0 65.5 15.5t50.5 43.5t32.5 67.5t11.5 87.5zM80 751q0 15 15 15h43q15 0 15 -15v-286q26 32 64.5 52.5t86.5 20.5
q42 0 76 -14t58 -38q37 -36 55 -89.5t18 -116.5q0 -74 -19 -128.5t-51.5 -90t-74.5 -53t-87 -17.5q-35 0 -69 11t-57 27v-256q0 -15 -15 -15h-43q-15 0 -15 15v978z" />
    <glyph glyph-name="racute" unicode="&#x155;" horiz-adv-x="357" 
d="M152 416q25 53 70 85t94 32q12 0 17.5 -3t5.5 -14v-35q0 -6 -2.5 -10t-10.5 -6q-39 -7 -65.5 -20t-46.5 -33q-32 -32 -46 -79t-14 -124v-195q0 -14 -15 -14h-43q-15 0 -15 14v302q0 58 -0.5 108.5t-2.5 89.5q0 14 15 14h39q16 0 17 -14q2 -17 2.5 -45t0.5 -53zM186 576
q-11 0 -6 10l61 116q4 7 7 8.5t11 1.5h67q5 0 7 -3.5t-3 -9.5l-81 -115q-5 -8 -16 -8h-47z" />
    <glyph glyph-name="rcaron" unicode="&#x159;" horiz-adv-x="357" 
d="M152 416q25 53 70 85t94 32q12 0 17.5 -3t5.5 -14v-35q0 -6 -2.5 -10t-10.5 -6q-39 -7 -65.5 -20t-46.5 -33q-32 -32 -46 -79t-14 -124v-195q0 -14 -15 -14h-43q-15 0 -15 14v302q0 58 -0.5 108.5t-2.5 89.5q0 14 15 14h39q16 0 17 -14q2 -17 2.5 -45t0.5 -53zM283 592
q-7 -7 -11.5 -9.5t-13.5 -2.5h-70q-9 0 -13.5 2.5t-11.5 9.5l-91 97q-3 4 -3.5 7.5t4.5 8.5l20 21q9 9 18 1l112 -95l112 95q9 8 18 -1l20 -21q5 -5 4.5 -8.5t-3.5 -7.5z" />
    <glyph glyph-name="rcommaaccent" unicode="&#x157;" horiz-adv-x="357" 
d="M152 416q25 53 70 85t94 32q12 0 17.5 -3t5.5 -14v-35q0 -6 -2.5 -10t-10.5 -6q-39 -7 -65.5 -20t-46.5 -33q-32 -32 -46 -79t-14 -124v-195q0 -14 -15 -14h-43q-15 0 -15 14v302q0 58 -0.5 108.5t-2.5 89.5q0 14 15 14h39q16 0 17 -14q2 -17 2.5 -45t0.5 -53zM89 -276
q-15 0 -12 14l24 112l-15 7q-10 5 -13.5 8.5t-3.5 13.5v55q0 14 15 14h67q16 0 16 -14v-33q0 -12 -1 -22t-3.5 -21.5t-6.5 -25.5t-10 -33l-19 -63q-4 -12 -17 -12h-21v0z" />
    <glyph glyph-name="sacute" unicode="&#x15b;" horiz-adv-x="451" 
d="M406 151q0 -34 -13 -63.5t-37.5 -51t-59.5 -34t-78 -12.5q-45 0 -88 12.5t-73 32.5q-8 5 -9 11t3 13l13 24q4 7 9 10t13 -2q38 -20 68.5 -28.5t65.5 -8.5q54 0 85.5 27.5t31.5 67.5q0 32 -21 49t-52.5 28t-68 20t-68 24.5t-52.5 43t-21 75.5q0 36 14.5 63.5t38.5 46.5
t56.5 29t68.5 10q45 0 86.5 -14.5t74.5 -41.5q13 -10 0 -27l-17 -21q-10 -11 -22 -2q-28 20 -59 31t-66 11q-53 0 -79.5 -23t-26.5 -58q0 -33 21 -50t52.5 -27.5t68 -19.5t68 -25t52.5 -43.5t21 -76.5zM188 576q-11 0 -6 10l61 116q4 7 7 8.5t11 1.5h67q5 0 7 -3.5t-3 -9.5
l-81 -115q-5 -8 -16 -8h-47z" />
    <glyph glyph-name="scircumflex" unicode="&#x15d;" horiz-adv-x="451" 
d="M406 151q0 -34 -13 -63.5t-37.5 -51t-59.5 -34t-78 -12.5q-45 0 -88 12.5t-73 32.5q-8 5 -9 11t3 13l13 24q4 7 9 10t13 -2q38 -20 68.5 -28.5t65.5 -8.5q54 0 85.5 27.5t31.5 67.5q0 32 -21 49t-52.5 28t-68 20t-68 24.5t-52.5 43t-21 75.5q0 36 14.5 63.5t38.5 46.5
t56.5 29t68.5 10q45 0 86.5 -14.5t74.5 -41.5q13 -10 0 -27l-17 -21q-10 -11 -22 -2q-28 20 -59 31t-66 11q-53 0 -79.5 -23t-26.5 -58q0 -33 21 -50t52.5 -27.5t68 -19.5t68 -25t52.5 -43.5t21 -76.5zM386 614q3 -4 3.5 -7.5t-4.5 -8.5l-20 -21q-9 -9 -18 -1l-112 95
l-112 -95q-9 -8 -18 1l-20 21q-5 5 -4.5 8.5t3.5 7.5l91 97q7 7 11.5 9.5t13.5 2.5h70q9 0 13.5 -2.5t11.5 -9.5z" />
    <glyph glyph-name="scaron" unicode="&#x161;" horiz-adv-x="451" 
d="M406 151q0 -34 -13 -63.5t-37.5 -51t-59.5 -34t-78 -12.5q-45 0 -88 12.5t-73 32.5q-8 5 -9 11t3 13l13 24q4 7 9 10t13 -2q38 -20 68.5 -28.5t65.5 -8.5q54 0 85.5 27.5t31.5 67.5q0 32 -21 49t-52.5 28t-68 20t-68 24.5t-52.5 43t-21 75.5q0 36 14.5 63.5t38.5 46.5
t56.5 29t68.5 10q45 0 86.5 -14.5t74.5 -41.5q13 -10 0 -27l-17 -21q-10 -11 -22 -2q-28 20 -59 31t-66 11q-53 0 -79.5 -23t-26.5 -58q0 -33 21 -50t52.5 -27.5t68 -19.5t68 -25t52.5 -43.5t21 -76.5zM295 592q-7 -7 -11.5 -9.5t-13.5 -2.5h-70q-9 0 -13.5 2.5t-11.5 9.5
l-91 97q-3 4 -3.5 7.5t4.5 8.5l20 21q9 9 18 1l112 -95l112 95q9 8 18 -1l20 -21q5 -5 4.5 -8.5t-3.5 -7.5z" />
    <glyph glyph-name="scedilla" unicode="&#x15f;" horiz-adv-x="451" 
d="M241 -216q-20 0 -41.5 3.5t-33.5 8.5q-6 2 -8 5t0 11l6 26q3 12 13 9q14 -4 30 -8t33 -4q50 0 50 38q0 19 -17 26t-44 7q-11 0 -23 -0.5t-22 -1.5q-13 0 -12 11l10 77q-75 8 -125 42q-8 5 -9.5 10.5t3.5 14.5l13 24q5 8 9.5 10.5t12.5 -2.5q38 -20 68.5 -28.5t65.5 -8.5
q54 0 85.5 27.5t31.5 67.5q0 32 -21 49t-52.5 28t-68 20t-68 24.5t-52.5 43t-21 75.5q0 36 14.5 63.5t38.5 46.5t56.5 29t68.5 10q45 0 86.5 -14.5t74.5 -41.5q13 -10 0 -27l-17 -21q-10 -11 -22 -2q-28 20 -59 31t-66 11q-53 0 -79.5 -23t-26.5 -58q0 -33 21 -50
t52.5 -27.5t68 -19.5t68 -25t52.5 -43.5t21 -76.5q0 -32 -11.5 -60t-33 -49.5t-52.5 -34.5t-71 -16l-2 -34q5 1 13.5 1.5t15.5 0.5q17 0 33.5 -5t29 -15.5t20.5 -25.5t8 -34q0 -18 -6.5 -35t-20.5 -30.5t-35.5 -21.5t-52.5 -8z" />
    <glyph glyph-name="scommaaccent" unicode="&#x219;" horiz-adv-x="451" 
d="M406 151q0 -34 -13 -63.5t-37.5 -51t-59.5 -34t-78 -12.5q-45 0 -88 12.5t-73 32.5q-8 5 -9 11t3 13l13 24q4 7 9 10t13 -2q38 -20 68.5 -28.5t65.5 -8.5q54 0 85.5 27.5t31.5 67.5q0 32 -21 49t-52.5 28t-68 20t-68 24.5t-52.5 43t-21 75.5q0 36 14.5 63.5t38.5 46.5
t56.5 29t68.5 10q45 0 86.5 -14.5t74.5 -41.5q13 -10 0 -27l-17 -21q-10 -11 -22 -2q-28 20 -59 31t-66 11q-53 0 -79.5 -23t-26.5 -58q0 -33 21 -50t52.5 -27.5t68 -19.5t68 -25t52.5 -43.5t21 -76.5zM200 -276q-15 0 -12 14l24 112l-15 7q-10 5 -13.5 8.5t-3.5 13.5v55
q0 14 15 14h67q16 0 16 -14v-33q0 -12 -1 -22t-3.5 -21.5t-6.5 -25.5t-10 -33l-19 -63q-4 -12 -17 -12h-21v0z" />
    <glyph glyph-name="germandbls" unicode="&#xdf;" horiz-adv-x="619" 
d="M508 610q0 -34 -12.5 -58t-32 -42t-41.5 -31.5t-41.5 -26.5t-32 -26.5t-12.5 -31.5q0 -21 19 -35.5t47 -27.5t61 -27t61 -34t47 -48.5t19 -70.5q0 -34 -13 -63.5t-37.5 -51t-59.5 -34t-79 -12.5q-47 0 -89 12t-72 32q-8 5 -9.5 10.5t3.5 14.5l13 24q5 8 9.5 10.5
t12.5 -2.5q38 -20 68.5 -28.5t65.5 -8.5q56 0 86.5 27.5t30.5 67.5q0 31 -19 51t-47 35t-61 27.5t-61 28.5t-47 39t-19 58q0 29 13 49.5t32.5 37t42 30.5t42 29.5t32.5 34t13 43.5t-9.5 44.5t-26 32.5t-38.5 19.5t-47 6.5q-37 0 -68 -11t-52 -34q-23 -24 -35 -61t-12 -92
v-506q0 -5 -3.5 -8t-28.5 -3h-7q-23 0 -28.5 3t-5.5 8v505q0 131 64 196q30 31 75 47.5t102 16.5q35 0 68.5 -9.5t60 -30t42.5 -52t16 -74.5z" />
    <glyph glyph-name="tcaron" unicode="&#x165;" horiz-adv-x="365" 
d="M21 468q-14 0 -14 15v30q0 15 14 15h77v141q0 14 15 14h43q15 0 15 -14v-141h130q14 0 14 -15v-30q0 -15 -14 -15h-130v-309q0 -32 2.5 -53t13.5 -32q8 -10 22.5 -15t37.5 -5q17 0 39 4t40 11q11 4 15 1t7 -11l7 -20q4 -11 0.5 -15t-8.5 -8q-14 -9 -45.5 -17.5
t-64.5 -8.5q-35 0 -61 8.5t-41 22.5q-22 20 -29.5 50t-7.5 81v316h-77zM255 598q-15 0 -12 14l24 112l-15 7q-10 5 -13.5 8.5t-3.5 13.5v55q0 14 15 14h67q16 0 16 -14v-33q0 -12 -1 -22t-3.5 -21.5t-6.5 -25.5t-10 -33l-19 -63q-4 -12 -17 -12h-21v0z" />
    <glyph glyph-name="tcommaaccent" unicode="&#x163;" horiz-adv-x="365" 
d="M21 468q-14 0 -14 15v30q0 15 14 15h77v141q0 14 15 14h43q15 0 15 -14v-141h130q14 0 14 -15v-30q0 -15 -14 -15h-130v-309q0 -32 2.5 -53t13.5 -32q8 -10 22.5 -15t37.5 -5q17 0 39 4t40 11q11 4 15 1t7 -11l7 -20q4 -11 0.5 -15t-8.5 -8q-14 -9 -45.5 -17.5
t-64.5 -8.5q-35 0 -61 8.5t-41 22.5q-22 20 -29.5 50t-7.5 81v316h-77zM199 -276q-15 0 -12 14l24 112l-15 7q-10 5 -13.5 8.5t-3.5 13.5v55q0 14 15 14h67q16 0 16 -14v-33q0 -12 -1 -22t-3.5 -21.5t-6.5 -25.5t-10 -33l-19 -63q-4 -12 -17 -12h-21v0z" />
    <glyph glyph-name="uni021B" unicode="&#x21b;" horiz-adv-x="365" 
d="M21 468q-14 0 -14 15v30q0 15 14 15h77v141q0 14 15 14h43q15 0 15 -14v-141h130q14 0 14 -15v-30q0 -15 -14 -15h-130v-309q0 -32 2.5 -53t13.5 -32q8 -10 22.5 -15t37.5 -5q17 0 39 4t40 11q11 4 15 1t7 -11l7 -20q4 -11 0.5 -15t-8.5 -8q-14 -9 -45.5 -17.5
t-64.5 -8.5q-35 0 -61 8.5t-41 22.5q-22 20 -29.5 50t-7.5 81v316h-77zM199 -276q-15 0 -12 14l24 112l-15 7q-10 5 -13.5 8.5t-3.5 13.5v55q0 14 15 14h67q16 0 16 -14v-33q0 -12 -1 -22t-3.5 -21.5t-6.5 -25.5t-10 -33l-19 -63q-4 -12 -17 -12h-21v0z" />
    <glyph glyph-name="tbar" unicode="&#x167;" horiz-adv-x="365" 
d="M98 301v167h-77q-14 0 -14 15v30q0 15 14 15h77v141q0 14 15 14h43q15 0 15 -14v-141h130q14 0 14 -15v-30q0 -15 -14 -15h-130v-167h116q14 0 14 -14v-33q0 -14 -14 -14h-116v-81q0 -32 2.5 -53t13.5 -32q8 -10 22.5 -15t37.5 -5q17 0 39 4t40 11q11 4 15 1t7 -11l7 -20
q4 -11 0.5 -15t-8.5 -8q-14 -9 -45.5 -17.5t-64.5 -8.5q-35 0 -61 8.5t-41 22.5q-22 20 -29.5 50t-7.5 81v88h-71q-14 0 -14 14v33q0 14 14 14h71z" />
    <glyph glyph-name="ugrave" unicode="&#xf9;" horiz-adv-x="580" 
d="M427 60q-26 -31 -71 -50.5t-93 -19.5q-40 0 -77 13.5t-63 39.5q-28 28 -39.5 69t-11.5 104v298q0 14 15 14h43q15 0 15 -14v-255q0 -64 5 -100.5t25 -60.5q30 -36 103 -36q30 0 64 11.5t54 31.5q7 8 15 23.5t11 53.5q2 23 3 62.5t1 88.5v181q0 14 15 14h43q15 0 15 -14
v-302q0 -58 0.5 -108.5t2.5 -89.5q0 -14 -15 -14h-40q-16 0 -17 14q-1 7 -2 21t-1 25zM281 576q-11 0 -16 8l-81 115q-5 6 -3 9.5t7 3.5h67q8 0 11 -1.5t7 -8.5l61 -116q5 -10 -6 -10h-47z" />
    <glyph glyph-name="uacute" unicode="&#xfa;" horiz-adv-x="580" 
d="M427 60q-26 -31 -71 -50.5t-93 -19.5q-40 0 -77 13.5t-63 39.5q-28 28 -39.5 69t-11.5 104v298q0 14 15 14h43q15 0 15 -14v-255q0 -64 5 -100.5t25 -60.5q30 -36 103 -36q30 0 64 11.5t54 31.5q7 8 15 23.5t11 53.5q2 23 3 62.5t1 88.5v181q0 14 15 14h43q15 0 15 -14
v-302q0 -58 0.5 -108.5t2.5 -89.5q0 -14 -15 -14h-40q-16 0 -17 14q-1 7 -2 21t-1 25zM256 576q-11 0 -6 10l61 116q4 7 7 8.5t11 1.5h67q5 0 7 -3.5t-3 -9.5l-81 -115q-5 -8 -16 -8h-47z" />
    <glyph glyph-name="ucircumflex" unicode="&#xfb;" horiz-adv-x="580" 
d="M427 60q-26 -31 -71 -50.5t-93 -19.5q-40 0 -77 13.5t-63 39.5q-28 28 -39.5 69t-11.5 104v298q0 14 15 14h43q15 0 15 -14v-255q0 -64 5 -100.5t25 -60.5q30 -36 103 -36q30 0 64 11.5t54 31.5q7 8 15 23.5t11 53.5q2 23 3 62.5t1 88.5v181q0 14 15 14h43q15 0 15 -14
v-302q0 -58 0.5 -108.5t2.5 -89.5q0 -14 -15 -14h-40q-16 0 -17 14q-1 7 -2 21t-1 25zM441 614q3 -4 3.5 -7.5t-4.5 -8.5l-20 -21q-9 -9 -18 -1l-112 95l-112 -95q-9 -8 -18 1l-20 21q-5 5 -4.5 8.5t3.5 7.5l91 97q7 7 11.5 9.5t13.5 2.5h70q9 0 13.5 -2.5t11.5 -9.5z" />
    <glyph glyph-name="utilde" unicode="&#x169;" horiz-adv-x="580" 
d="M427 60q-26 -31 -71 -50.5t-93 -19.5q-40 0 -77 13.5t-63 39.5q-28 28 -39.5 69t-11.5 104v298q0 14 15 14h43q15 0 15 -14v-255q0 -64 5 -100.5t25 -60.5q30 -36 103 -36q30 0 64 11.5t54 31.5q7 8 15 23.5t11 53.5q2 23 3 62.5t1 88.5v181q0 14 15 14h43q15 0 15 -14
v-302q0 -58 0.5 -108.5t2.5 -89.5q0 -14 -15 -14h-40q-16 0 -17 14q-1 7 -2 21t-1 25zM436 643q-12 -16 -34.5 -30t-50.5 -14q-19 0 -32.5 4.5t-26.5 10.5t-27.5 10.5t-34.5 4.5q-16 0 -28 -8.5t-20 -16.5q-7 -7 -14 0l-27 33q-6 8 3 18q12 16 34.5 30t50.5 14
q19 0 32.5 -4.5t26.5 -10.5t27.5 -10.5t34.5 -4.5q16 0 28 8.5t20 16.5q4 4 7 4.5t7 -4.5l27 -33q5 -7 -3 -18z" />
    <glyph glyph-name="udieresis" unicode="&#xfc;" horiz-adv-x="580" 
d="M427 60q-26 -31 -71 -50.5t-93 -19.5q-40 0 -77 13.5t-63 39.5q-28 28 -39.5 69t-11.5 104v298q0 14 15 14h43q15 0 15 -14v-255q0 -64 5 -100.5t25 -60.5q30 -36 103 -36q30 0 64 11.5t54 31.5q7 8 15 23.5t11 53.5q2 23 3 62.5t1 88.5v181q0 14 15 14h43q15 0 15 -14
v-302q0 -58 0.5 -108.5t2.5 -89.5q0 -14 -15 -14h-40q-16 0 -17 14q-1 7 -2 21t-1 25zM165 600q-14 0 -14 13v66q0 13 14 13h61q16 0 16 -13v-66q0 -13 -16 -13h-61zM353 600q-15 0 -15 13v66q0 13 15 13h61q15 0 15 -13v-66q0 -13 -15 -13h-61z" />
    <glyph glyph-name="umacron" unicode="&#x16b;" horiz-adv-x="580" 
d="M427 60q-26 -31 -71 -50.5t-93 -19.5q-40 0 -77 13.5t-63 39.5q-28 28 -39.5 69t-11.5 104v298q0 14 15 14h43q15 0 15 -14v-255q0 -64 5 -100.5t25 -60.5q30 -36 103 -36q30 0 64 11.5t54 31.5q7 8 15 23.5t11 53.5q2 23 3 62.5t1 88.5v181q0 14 15 14h43q15 0 15 -14
v-302q0 -58 0.5 -108.5t2.5 -89.5q0 -14 -15 -14h-40q-16 0 -17 14q-1 7 -2 21t-1 25zM423 678q14 0 14 -14v-37q0 -14 -14 -14h-267q-14 0 -14 14v37q0 14 14 14h267z" />
    <glyph glyph-name="ubreve" unicode="&#x16d;" horiz-adv-x="580" 
d="M427 60q-26 -31 -71 -50.5t-93 -19.5q-40 0 -77 13.5t-63 39.5q-28 28 -39.5 69t-11.5 104v298q0 14 15 14h43q15 0 15 -14v-255q0 -64 5 -100.5t25 -60.5q30 -36 103 -36q30 0 64 11.5t54 31.5q7 8 15 23.5t11 53.5q2 23 3 62.5t1 88.5v181q0 14 15 14h43q15 0 15 -14
v-302q0 -58 0.5 -108.5t2.5 -89.5q0 -14 -15 -14h-40q-16 0 -17 14q-1 7 -2 21t-1 25zM290 588q-59 0 -99 24.5t-44 84.5q0 11 12 11h42q11 0 12 -12q2 -29 22 -43t53 -14t55 14t24 43q1 12 12 12h42q12 0 12 -11q-4 -60 -44 -84.5t-99 -24.5z" />
    <glyph glyph-name="uring" unicode="&#x16f;" horiz-adv-x="580" 
d="M427 60q-26 -31 -71 -50.5t-93 -19.5q-40 0 -77 13.5t-63 39.5q-28 28 -39.5 69t-11.5 104v298q0 14 15 14h43q15 0 15 -14v-255q0 -64 5 -100.5t25 -60.5q30 -36 103 -36q30 0 64 11.5t54 31.5q7 8 15 23.5t11 53.5q2 23 3 62.5t1 88.5v181q0 14 15 14h43q15 0 15 -14
v-302q0 -58 0.5 -108.5t2.5 -89.5q0 -14 -15 -14h-40q-16 0 -17 14q-1 7 -2 21t-1 25zM290 573q-18 0 -33.5 6.5t-27.5 17.5t-19 26.5t-7 32.5t7 32t19 26.5t27.5 18t33.5 6.5t33.5 -6.5t27.5 -17.5t19 -26t7 -33t-7 -33t-19 -26t-27.5 -17.5t-33.5 -6.5zM290 613
q18 0 30 13t12 30q0 18 -12 30.5t-30 12.5t-30.5 -11.5t-12.5 -31.5t12.5 -31.5t30.5 -11.5z" />
    <glyph glyph-name="uhungarumlaut" unicode="&#x171;" horiz-adv-x="580" 
d="M427 60q-26 -31 -71 -50.5t-93 -19.5q-40 0 -77 13.5t-63 39.5q-28 28 -39.5 69t-11.5 104v298q0 14 15 14h43q15 0 15 -14v-255q0 -64 5 -100.5t25 -60.5q30 -36 103 -36q30 0 64 11.5t54 31.5q7 8 15 23.5t11 53.5q2 23 3 62.5t1 88.5v181q0 14 15 14h43q15 0 15 -14
v-302q0 -58 0.5 -108.5t2.5 -89.5q0 -14 -15 -14h-40q-16 0 -17 14q-1 7 -2 21t-1 25zM190 572q-12 0 -7 12l54 118q4 7 7.5 8.5t10.5 1.5h57q12 0 5 -13l-73 -118q-4 -5 -6.5 -7t-10.5 -2h-37zM347 572q-12 0 -7 12l54 118q4 7 7.5 8.5t10.5 1.5h57q12 0 5 -13l-73 -118
q-4 -5 -6.5 -7t-10.5 -2h-37z" />
    <glyph glyph-name="uogonek" unicode="&#x173;" horiz-adv-x="580" 
d="M363 -118q0 37 17.5 65t50.5 56q-2 11 -3 29.5t-1 27.5q-26 -31 -71 -50.5t-93 -19.5q-40 0 -77 13.5t-63 39.5q-28 28 -39.5 69t-11.5 104v298q0 14 15 14h43q15 0 15 -14v-255q0 -64 5 -100.5t25 -60.5q30 -36 103 -36q30 0 64 11.5t54 31.5q7 8 15 23.5t11 53.5
q2 23 3 62.5t1 88.5v181q0 14 15 14h43q15 0 15 -14v-302q0 -58 1.5 -108.5t1.5 -89.5q0 -5 -1 -8.5t-8 -8.5q-26 -19 -42.5 -42.5t-16.5 -55.5q0 -23 16 -32.5t36 -9.5q17 0 40 5q12 3 13 -8l5 -30q1 -7 -0.5 -10t-8.5 -5q-14 -5 -31 -7.5t-35 -2.5q-29 0 -49 8t-33 20
t-18.5 26.5t-5.5 28.5z" />
    <glyph glyph-name="wgrave" unicode="&#x1e81;" horiz-adv-x="766" 
d="M590 16q-3 -9 -8 -12.5t-17 -3.5h-45q-12 0 -17.5 4t-7.5 12l-69 259q-14 54 -24 98.5t-18 78.5l-44 -178l-66 -258q-2 -8 -7.5 -12t-17.5 -4h-46q-12 0 -17.5 4t-7.5 12l-150 496q-5 16 12 16h44q8 0 13.5 -2.5t7.5 -10.5l75 -265q11 -40 21.5 -79t23.5 -87l42 164
l68 263q2 9 6.5 13t18.5 4h46q14 0 18 -3.5t7 -13.5l53 -197q14 -52 29.5 -105t32.5 -116q43 125 72 227.5t47 194.5q2 8 5.5 10.5t13.5 2.5h38q10 0 12 -4t0 -15q-20 -99 -55 -219t-89 -274zM360 576q-11 0 -16 8l-81 115q-5 6 -3 9.5t7 3.5h67q8 0 11 -1.5t7 -8.5l61 -116
q5 -10 -6 -10h-47z" />
    <glyph glyph-name="wacute" unicode="&#x1e83;" horiz-adv-x="766" 
d="M590 16q-3 -9 -8 -12.5t-17 -3.5h-45q-12 0 -17.5 4t-7.5 12l-69 259q-14 54 -24 98.5t-18 78.5l-44 -178l-66 -258q-2 -8 -7.5 -12t-17.5 -4h-46q-12 0 -17.5 4t-7.5 12l-150 496q-5 16 12 16h44q8 0 13.5 -2.5t7.5 -10.5l75 -265q11 -40 21.5 -79t23.5 -87l42 164
l68 263q2 9 6.5 13t18.5 4h46q14 0 18 -3.5t7 -13.5l53 -197q14 -52 29.5 -105t32.5 -116q43 125 72 227.5t47 194.5q2 8 5.5 10.5t13.5 2.5h38q10 0 12 -4t0 -15q-20 -99 -55 -219t-89 -274zM356 576q-11 0 -6 10l61 116q4 7 7 8.5t11 1.5h67q5 0 7 -3.5t-3 -9.5l-81 -115
q-5 -8 -16 -8h-47z" />
    <glyph glyph-name="wcircumflex" unicode="&#x175;" horiz-adv-x="766" 
d="M590 16q-3 -9 -8 -12.5t-17 -3.5h-45q-12 0 -17.5 4t-7.5 12l-69 259q-14 54 -24 98.5t-18 78.5l-44 -178l-66 -258q-2 -8 -7.5 -12t-17.5 -4h-46q-12 0 -17.5 4t-7.5 12l-150 496q-5 16 12 16h44q8 0 13.5 -2.5t7.5 -10.5l75 -265q11 -40 21.5 -79t23.5 -87l42 164
l68 263q2 9 6.5 13t18.5 4h46q14 0 18 -3.5t7 -13.5l53 -197q14 -52 29.5 -105t32.5 -116q43 125 72 227.5t47 194.5q2 8 5.5 10.5t13.5 2.5h38q10 0 12 -4t0 -15q-20 -99 -55 -219t-89 -274zM534 614q3 -4 3.5 -7.5t-4.5 -8.5l-20 -21q-9 -9 -18 -1l-112 95l-112 -95
q-9 -8 -18 1l-20 21q-5 5 -4.5 8.5t3.5 7.5l91 97q7 7 11.5 9.5t13.5 2.5h70q9 0 13.5 -2.5t11.5 -9.5z" />
    <glyph glyph-name="wdieresis" unicode="&#x1e85;" horiz-adv-x="766" 
d="M590 16q-3 -9 -8 -12.5t-17 -3.5h-45q-12 0 -17.5 4t-7.5 12l-69 259q-14 54 -24 98.5t-18 78.5l-44 -178l-66 -258q-2 -8 -7.5 -12t-17.5 -4h-46q-12 0 -17.5 4t-7.5 12l-150 496q-5 16 12 16h44q8 0 13.5 -2.5t7.5 -10.5l75 -265q11 -40 21.5 -79t23.5 -87l42 164
l68 263q2 9 6.5 13t18.5 4h46q14 0 18 -3.5t7 -13.5l53 -197q14 -52 29.5 -105t32.5 -116q43 125 72 227.5t47 194.5q2 8 5.5 10.5t13.5 2.5h38q10 0 12 -4t0 -15q-20 -99 -55 -219t-89 -274zM258 600q-14 0 -14 13v66q0 13 14 13h61q16 0 16 -13v-66q0 -13 -16 -13h-61z
M446 600q-15 0 -15 13v66q0 13 15 13h61q15 0 15 -13v-66q0 -13 -15 -13h-61z" />
    <glyph glyph-name="ygrave" unicode="&#x1ef3;" horiz-adv-x="574" 
d="M426 59q-26 -31 -70.5 -50t-92.5 -19q-40 0 -77 13.5t-63 39.5q-28 28 -39.5 69t-11.5 104v298q0 14 15 14h43q15 0 15 -14v-255q0 -64 5 -100.5t25 -60.5q30 -36 103 -36q30 0 64 11.5t54 31.5q7 8 15 23.5t11 53.5q2 23 3 57.5t1 83.5v191q0 14 15 14h43q15 0 15 -14
v-530q0 -57 -14 -101.5t-46 -76.5q-28 -28 -70 -43t-104 -15q-33 0 -68.5 5t-53.5 10q-10 3 -12 7.5t0 11.5l6 29q2 9 6 11.5t15 0.5q27 -5 52 -8t57 -3q43 0 72.5 11.5t47.5 31.5q21 24 30 57.5t9 78.5v68zM277 576q-11 0 -16 8l-81 115q-5 6 -3 9.5t7 3.5h67q8 0 11 -1.5
t7 -8.5l61 -116q5 -10 -6 -10h-47z" />
    <glyph glyph-name="yacute" unicode="&#xfd;" horiz-adv-x="574" 
d="M426 59q-26 -31 -70.5 -50t-92.5 -19q-40 0 -77 13.5t-63 39.5q-28 28 -39.5 69t-11.5 104v298q0 14 15 14h43q15 0 15 -14v-255q0 -64 5 -100.5t25 -60.5q30 -36 103 -36q30 0 64 11.5t54 31.5q7 8 15 23.5t11 53.5q2 23 3 57.5t1 83.5v191q0 14 15 14h43q15 0 15 -14
v-530q0 -57 -14 -101.5t-46 -76.5q-28 -28 -70 -43t-104 -15q-33 0 -68.5 5t-53.5 10q-10 3 -12 7.5t0 11.5l6 29q2 9 6 11.5t15 0.5q27 -5 52 -8t57 -3q43 0 72.5 11.5t47.5 31.5q21 24 30 57.5t9 78.5v68zM258 576q-11 0 -6 10l61 116q4 7 7 8.5t11 1.5h67q5 0 7 -3.5
t-3 -9.5l-81 -115q-5 -8 -16 -8h-47z" />
    <glyph glyph-name="ycircumflex" unicode="&#x177;" horiz-adv-x="574" 
d="M426 59q-26 -31 -70.5 -50t-92.5 -19q-40 0 -77 13.5t-63 39.5q-28 28 -39.5 69t-11.5 104v298q0 14 15 14h43q15 0 15 -14v-255q0 -64 5 -100.5t25 -60.5q30 -36 103 -36q30 0 64 11.5t54 31.5q7 8 15 23.5t11 53.5q2 23 3 57.5t1 83.5v191q0 14 15 14h43q15 0 15 -14
v-530q0 -57 -14 -101.5t-46 -76.5q-28 -28 -70 -43t-104 -15q-33 0 -68.5 5t-53.5 10q-10 3 -12 7.5t0 11.5l6 29q2 9 6 11.5t15 0.5q27 -5 52 -8t57 -3q43 0 72.5 11.5t47.5 31.5q21 24 30 57.5t9 78.5v68zM438 614q3 -4 3.5 -7.5t-4.5 -8.5l-20 -21q-9 -9 -18 -1l-112 95
l-112 -95q-9 -8 -18 1l-20 21q-5 5 -4.5 8.5t3.5 7.5l91 97q7 7 11.5 9.5t13.5 2.5h70q9 0 13.5 -2.5t11.5 -9.5z" />
    <glyph glyph-name="ydieresis" unicode="&#xff;" horiz-adv-x="574" 
d="M426 59q-26 -31 -70.5 -50t-92.5 -19q-40 0 -77 13.5t-63 39.5q-28 28 -39.5 69t-11.5 104v298q0 14 15 14h43q15 0 15 -14v-255q0 -64 5 -100.5t25 -60.5q30 -36 103 -36q30 0 64 11.5t54 31.5q7 8 15 23.5t11 53.5q2 23 3 57.5t1 83.5v191q0 14 15 14h43q15 0 15 -14
v-530q0 -57 -14 -101.5t-46 -76.5q-28 -28 -70 -43t-104 -15q-33 0 -68.5 5t-53.5 10q-10 3 -12 7.5t0 11.5l6 29q2 9 6 11.5t15 0.5q27 -5 52 -8t57 -3q43 0 72.5 11.5t47.5 31.5q21 24 30 57.5t9 78.5v68zM162 600q-14 0 -14 13v66q0 13 14 13h61q16 0 16 -13v-66
q0 -13 -16 -13h-61zM350 600q-15 0 -15 13v66q0 13 15 13h61q15 0 15 -13v-66q0 -13 -15 -13h-61z" />
    <glyph glyph-name="zacute" unicode="&#x17a;" horiz-adv-x="447" 
d="M311 468h-248q-14 0 -14 16v29q0 15 14 15h323q15 0 15 -15v-15q0 -22 -14 -40l-261 -398h266q15 0 15 -16v-29q0 -15 -15 -15h-340q-14 0 -14 15v15q0 19 14 40zM189 576q-11 0 -6 10l61 116q4 7 7 8.5t11 1.5h67q5 0 7 -3.5t-3 -9.5l-81 -115q-5 -8 -16 -8h-47z" />
    <glyph glyph-name="zcaron" unicode="&#x17e;" horiz-adv-x="447" 
d="M311 468h-248q-14 0 -14 16v29q0 15 14 15h323q15 0 15 -15v-15q0 -22 -14 -40l-261 -398h266q15 0 15 -16v-29q0 -15 -15 -15h-340q-14 0 -14 15v15q0 19 14 40zM296 592q-7 -7 -11.5 -9.5t-13.5 -2.5h-70q-9 0 -13.5 2.5t-11.5 9.5l-91 97q-3 4 -3.5 7.5t4.5 8.5l20 21
q9 9 18 1l112 -95l112 95q9 8 18 -1l20 -21q5 -5 4.5 -8.5t-3.5 -7.5z" />
    <glyph glyph-name="zdotaccent" unicode="&#x17c;" horiz-adv-x="447" 
d="M311 468h-248q-14 0 -14 16v29q0 15 14 15h323q15 0 15 -15v-15q0 -22 -14 -40l-261 -398h266q15 0 15 -16v-29q0 -15 -15 -15h-340q-14 0 -14 15v15q0 19 14 40zM193 600q-15 0 -15 13v66q0 13 15 13h61q15 0 15 -13v-66q0 -13 -15 -13h-61z" />
    <glyph glyph-name="Delta" unicode="&#x394;" horiz-adv-x="576" 
d="M529 120q6 -20 10 -32.5t6.5 -21.5t3 -15.5t0.5 -14.5v-20q0 -16 -17 -16h-489q-17 0 -17 16v20q0 8 0.5 14.5t2.5 15.5t6 21.5t11 32.5l191 584q3 9 8 12.5t16 3.5h53q11 0 16 -3.5t8 -12.5zM106 66h357l-175 581z" />
    <glyph glyph-name="Omega" unicode="&#x3a9;" horiz-adv-x="730" 
d="M365 663q-54 0 -95.5 -22t-69.5 -61.5t-42.5 -93t-14.5 -116.5q0 -61 11.5 -109.5t32 -86t49.5 -66t65 -49.5q6 -4 9 -7.5t3 -13.5v-22q0 -16 -17 -16h-219q-17 0 -17 16v28q0 16 17 16h129q-25 15 -50.5 43t-46 67.5t-33.5 89t-13 108.5q0 88 23.5 156t64 113.5t95.5 69
t118 23.5t118 -23.5t96.5 -69t65 -113.5t23.5 -156q0 -59 -13 -108.5t-33.5 -89t-46 -67.5t-50.5 -43h129q17 0 17 -16v-28q0 -16 -17 -16h-219q-17 0 -17 16v22q0 10 3 13.5t9 7.5q36 21 65 49.5t49.5 66t32 86t11.5 109.5q0 63 -14.5 116.5t-42.5 93t-69.5 61.5t-95.5 22z
" />
    <glyph glyph-name="mu" unicode="&#x3bc;" horiz-adv-x="586" 
d="M433 60q-26 -31 -71 -50.5t-93 -19.5q-32 0 -64.5 11.5t-53.5 34.5v-263q0 -15 -15 -15h-43q-15 0 -15 15v741q0 14 15 14h43q15 0 15 -14v-255q0 -64 5 -100.5t25 -60.5q30 -36 103 -36q30 0 64 11.5t54 31.5q7 8 15 23.5t11 53.5q2 23 3 62.5t1 88.5v181q0 14 15 14h43
q15 0 15 -14v-302q0 -58 0.5 -108.5t2.5 -89.5q0 -14 -15 -14h-40q-16 0 -17 14q-1 7 -2 21t-1 25z" />
    <glyph glyph-name="pi" unicode="&#x3c0;" horiz-adv-x="655" 
d="M134 0q-15 0 -15 14v454h-82q-14 0 -14 15v30q0 15 14 15h551q14 0 14 -15v-30q0 -15 -14 -15h-121v-311q0 -32 2.5 -53t13.5 -32q17 -20 58 -20q11 0 23.5 2t23.5 5t14.5 0.5t8.5 -14.5l6 -17q5 -14 -14 -24q-12 -6 -31.5 -10t-40.5 -4q-33 0 -59 8.5t-41 22.5
q-22 20 -29.5 50t-7.5 81v316h-202v-454q0 -14 -15 -14h-43z" />
    <glyph glyph-name="apple" unicode="&#xf8ff;" horiz-adv-x="512" 
d="M61 676h401v-66h-334v-543h74v-67h-141v676zM193 274h202v69h-202v199h269v-66h-201v-66h201v-202h-269v66z" />
  </font>
</defs>
</svg>
